#VERSION:0.83;
#TITLE:Don't;
#SUBTITLE:;
#ARTIST:Ed Sheeran;
#TITLETRANSLIT:;
#SUBTITLETRANSLIT:;
#ARTISTTRANSLIT:;
#GENRE:x;
#ORIGIN:;
#CREDIT:;
#BANNER:Don't-bn.png;
#BACKGROUND:Don't-bg.png;
#PREVIEWVID:Don't-preview.avi;
#JACKET:Don't-jacket.png;
#CDIMAGE:;
#DISCIMAGE:;
#LYRICSPATH:;
#CDTITLE:;
#MUSIC:Don't.mp3;
#OFFSET:-0.034000;
#SAMPLESTART:50.566814;
#SAMPLELENGTH:22.105263;
#SELECTABLE:YES;
#BPMS:0.000=95.000;
#STOPS:;
#DELAYS:;
#WARPS:;
#TIMESIGNATURES:0.000=4=4;
#TICKCOUNTS:0.000=4;
#COMBOS:0.000=1;
#SPEEDS:0.000=1.000=0.000=0;
#SCROLLS:0.000=1.000;
#FAKES:;
#LABELS:0.000=Song Start;
#LASTSECONDHINT:133.955231;
#BGCHANGES:0.000=Don't-video.avi=1.000=1=0=0=StretchNoLoop==CrossFade==,
99999=-nosongbg-=1.000=0=0=0 // don't automatically add -songbackground-
;
#KEYSOUNDS:;
#ATTACKS:
;

//---------------dance-single - ----------------
#NOTEDATA:;
#CHARTNAME:;
#STEPSTYPE:dance-single;
#DESCRIPTION:;
#CHARTSTYLE:;
#DIFFICULTY:Challenge;
#METER:10;
#RADARVALUES:0.584129,0.579811,0.468978,0.000000,0.663164,558.000000,494.000000,64.000000,0.000000,0.000000,0.000000,0.000000,0.000000,0.000000,0.584129,0.579811,0.468978,0.000000,0.663164,558.000000,494.000000,64.000000,0.000000,0.000000,0.000000,0.000000,0.000000,0.000000;
#CREDIT:;
#NOTES:
// measure 0
0000
0000
0000
0000
,  // measure 1
0000
0000
0000
0000
,  // measure 2
0000
0000
0000
0000
,  // measure 3
0000
0000
0000
0000
,  // measure 4
0000
0000
0000
0000
,  // measure 5
0010
0000
1000
0000
0000
0100
0000
0000
0000
0000
0000
0010
0000
0000
0001
0000
0000
1000
0000
0000
0010
1000
0000
0000
,  // measure 6
0010
0000
0000
0100
0000
0000
0001
0000
0100
0001
0000
1000
0010
0000
1000
0000
0000
0100
0000
0000
0010
0001
0000
1000
,  // measure 7
0100
0000
0010
0100
0000
1000
0010
0000
0100
0001
0000
1000
0010
0000
1000
0100
0000
0010
0000
0000
0001
1000
0000
0010
,  // measure 8
0100
0000
0000
0010
0000
0000
1000
0000
0100
0010
0000
0001
0100
0000
0010
1000
0000
0100
0000
0000
0010
0001
0000
1000
,  // measure 9
0100
0000
0000
0010
0000
0000
0001
0000
1000
0010
0000
0000
0100
0000
0001
1000
0000
0100
0000
0000
0010
0001
0000
0100
,  // measure 10
0010
0000
0000
0000
1000
0000
0010
0000
0000
0000
1000
0000
0100
0000
0000
0000
1000
0000
0010
0000
0000
0000
1000
0000
0001
0000
0000
0000
0100
0000
0010
0000
0000
0000
0100
0000
0000
0000
0000
0000
0000
0000
0000
0000
0000
0000
0001
0010
,  // measure 11
0001
0000
0010
0100
0000
0000
1000
0000
0000
0000
0000
0010
0100
0000
0001
1000
0000
0000
0100
0000
0000
0010
0000
0001
,  // measure 12
1000
0000
0010
0100
0000
0000
0010
0000
0000
1000
0000
0100
0010
0000
0100
1000
0000
0100
0000
0000
0010
0001
0000
1000
,  // measure 13
0100
0010
0110
0100
1001
0100
1001
0000
,  // measure 14
0010
0000
0000
1000
0000
0100
0000
0000
0010
0000
0000
0001
0100
0000
0000
0000
0000
0000
0000
0000
0001
0100
0000
0010
,  // measure 15
1000
0000
0010
0100
0000
0001
0100
0000
0010
1000
0000
0010
0100
0000
0000
0000
0000
0000
0001
0000
0010
0100
0000
1000
,  // measure 16
0100
0000
0000
0010
0000
0001
1000
0000
0010
0100
0000
0000
0010
0000
0000
0000
0000
0000
1000
0000
0100
0010
0000
0001
,  // measure 17
0100
0000
0010
1000
0000
1000
0100
0000
0010
0001
0000
0001
0100
0000
0000
0010
0000
1000
0100
0000
0010
0001
0000
1000
,  // measure 18
0010
0000
0000
0100
0000
0010
1000
0000
0000
0100
0000
0000
0010
0000
0000
0001
0000
1000
0010
0000
0100
0001
0000
1000
,  // measure 19
0100
0000
0000
0010
0000
0100
1000
0000
0010
0100
0000
0000
0001
0000
0000
1000
0000
0000
0100
0000
0010
0000
0000
0000
,  // measure 20
1001
0000
0110
1001
0110
1001
0110
0000
,  // measure 21
1001
0010
0100
0110
1001
0100
1010
0000
,  // measure 22
1001
0010
0100
0110
1001
0100
0011
0000
,  // measure 23
1100
0000
0000
0000
0000
0000
0010
0000
1000
0100
0000
1000
0010
0000
0000
0100
0000
0000
0000
0000
0001
0000
0000
0000
,  // measure 24
1001
0000
0110
1001
0110
1001
0110
0000
,  // measure 25
1010
0100
0101
0001
1000
0100
0010
0000
,  // measure 26
0011
0001
1100
1000
0010
0100
0001
0000
,  // measure 27
0010
0000
0000
0100
0000
0000
1000
0000
0001
0100
0000
0010
1000
0000
0000
0001
0000
0000
0000
0000
0100
0000
0000
0000
,  // measure 28
1001
0000
0000
0000
0000
0000
0110
0000
0000
1001
0000
0000
0110
0000
0000
1001
0000
0000
0100
0000
0010
1000
0000
0100
,  // measure 29
0010
0000
0000
0000
0000
0000
0001
0000
0000
0000
0000
0000
1000
0000
0000
0010
0000
0000
0100
0000
0000
0010
0000
0000
1000
0000
0000
0000
0000
0000
0001
0000
0000
0000
0100
0000
0010
0000
0000
0000
1000
0000
0010
0000
0000
0000
1000
0000
,  // measure 30
0100
0000
0000
0010
0000
0001
1000
0000
0010
0100
0000
0000
0010
0000
0000
1000
0000
0001
0100
0000
0010
0100
0000
0000
,  // measure 31
0010
0000
1000
0100
0000
0010
0001
0000
0100
0010
0000
1000
0100
0000
0000
1000
0000
0000
0010
0000
1000
0001
0000
0100
,  // measure 32
0010
0000
0100
0001
0000
0010
0100
0000
0010
0001
0000
1000
0100
0000
0000
0010
0000
0000
0001
0000
1000
0010
0000
0100
,  // measure 33
0001
0000
0000
0000
0000
0000
0100
0000
0000
0000
0000
0000
0010
0000
0000
1000
0000
0000
0100
0000
0000
0010
0000
0000
0001
0000
0000
0000
0000
0000
0010
0000
0000
0000
0100
0000
1000
0000
0000
0000
0000
0000
0100
0000
0000
0000
0010
0000
,  // measure 34
0001
1000
0010
0100
0001
0100
0010
1000
0100
0010
0001
1000
0100
0000
0010
0000
,  // measure 35
0000
0001
1000
0010
0100
0010
1000
0100
0010
0100
1000
0000
0001
0000
0000
0000
,  // measure 36
1000
0000
0000
0010
0000
0100
0000
0000
0010
0000
0000
1000
0000
0000
0010
0100
0000
0000
0001
0000
0000
0000
0000
0000
,  // measure 37
0000
0000
0000
0000
0001
0000
0010
0000
0000
0000
0000
0000
0100
0000
0000
0000
1000
0000
0010
0000
0000
0000
0100
0000
0001
0000
0000
0000
1000
0000
0010
0000
0000
0000
1000
0000
0100
0000
0000
0000
0000
0000
0010
0000
0000
0001
0000
0000
,  // measure 38
1000
0010
0100
0010
1000
0100
0010
0001
0100
0010
0100
0001
0000
1000
0010
1000
,  // measure 39
0100
0010
0100
1000
0000
0001
0010
0001
0100
0010
0100
0001
0000
1000
0100
0010
,  // measure 40
0100
1000
0100
0010
0000
0001
0100
0010
1000
0010
0100
0001
0000
1000
0010
0100
,  // measure 41
0001
0000
0000
0010
0000
0000
0100
0000
0000
0010
0000
0000
0000
0000
0000
0001
0000
0000
1000
0000
0000
0010
0000
0000
0100
0000
0000
0000
0010
0000
0000
0000
0000
0000
1000
0000
0000
0000
0000
0000
0100
0000
0010
0000
0000
0000
0001
0000
,  // measure 42
1000
0000
0010
0100
0000
0010
0000
0000
1000
0100
0000
0010
0001
0000
0000
1000
0000
0010
0000
0000
0100
0001
0000
1000
,  // measure 43
0100
0000
0010
0001
0000
1000
0000
0000
0001
0100
0000
0000
0010
0000
0000
1000
0000
0000
0001
0000
0100
0000
0000
0000
,  // measure 44
1001
0000
0110
1001
0110
1001
0110
0000
,  // measure 45
1001
0100
0010
0110
1001
0010
0101
0000
,  // measure 46
1001
0100
0010
0110
1001
0010
1100
0000
,  // measure 47
0011
0000
0000
0000
0000
0000
0100
0000
0001
0010
0000
0001
0100
0000
0000
0010
0000
0000
0000
0000
1000
0000
0000
0000
,  // measure 48
1001
0000
0110
1001
0110
1001
0110
0000
,  // measure 49
0101
0010
1010
1000
0001
0010
0100
0000
,  // measure 50
1100
1000
0011
0001
0100
0010
1000
0000
,  // measure 51
0100
0000
0000
0010
0000
0000
0001
0000
1000
0010
0000
0100
0001
0000
0000
1000
0000
0000
0000
0000
0010
0000
0000
0000
,  // measure 52
1001
0000
0110
1001
0110
1001
0110
0000
;

//---------------dance-single - ----------------
#NOTEDATA:;
#CHARTNAME:;
#STEPSTYPE:dance-single;
#DESCRIPTION:;
#CHARTSTYLE:;
#DIFFICULTY:Hard;
#METER:7;
#RADARVALUES:0.413496,0.425194,0.344406,0.065950,0.058622,395.000000,348.000000,47.000000,9.000000,0.000000,0.000000,0.000000,0.000000,0.000000,0.413496,0.425194,0.344406,0.065950,0.058622,395.000000,348.000000,47.000000,9.000000,0.000000,0.000000,0.000000,0.000000,0.000000;
#CREDIT:;
#NOTES:
0000
0000
0000
0000
,
0000
0000
0000
0000
,
0000
0000
0000
0000
,
0000
0000
0000
0000
,
0000
0000
0000
0000
,
0010
1000
0200
0000
1300
1000
1100
0000
,
1000
0100
0010
0001
0010
0100
1000
0000
,
0010
0010
0100
0100
0001
1000
0100
0010
,
0100
1000
1000
0010
0010
0100
0100
0000
,
0001
0100
0001
1000
0020
1000
1030
0000
,
1000
0010
0100
0010
2000
0100
3100
0000
,
1000
0001
0020
0000
0031
0100
0101
0000
,
1000
0010
0100
0001
0010
0100
0110
0001
,
2000
3010
1010
0101
,
0001
0010
1000
0010
0001
0000
1000
0100
,
0010
0100
0001
0100
1000
0000
0010
0100
,
0010
0001
0010
1000
0010
0000
1000
0100
,
0001
0100
0010
0001
0100
0010
1000
0010
,
0100
1000
0100
0010
1000
0001
0100
0001
,
0100
0000
0000
0010
0000
0000
1000
0000
0000
0010
0000
0000
1000
0000
0000
0100
0000
0000
1000
0000
0100
0000
0000
0000
,
1001
0000
0110
1001
0110
1001
0010
0000
,
1000
0010
1010
0010
1000
1000
1000
1000
,
0001
0010
0011
0010
0001
0001
0001
0001
,
1000
0000
0000
0100
0000
0000
1000
0000
0001
1000
0000
0001
1000
0000
0000
0001
0000
0000
0000
0000
0100
0000
0000
0000
,
1001
0000
0110
1001
0110
1001
0010
0000
,
0001
0010
1001
0010
0001
0001
0001
0001
,
1000
0010
1001
0010
1000
1000
1000
1000
,
0001
0000
0000
0100
0000
0000
0001
0000
1000
0001
0000
1000
0001
0000
0000
1000
0000
0000
0000
0000
0100
0000
0000
0000
,
1001
0000
0110
1001
0110
1001
0010
0000
,
1000
0100
0001
0000
0001
0100
1000
0000
,
0010
0001
0100
0001
0010
0001
0100
0100
,
0010
1000
0010
0100
0010
1000
0100
1000
,
0010
1000
0100
1000
0010
0100
0001
0010
,
0100
0000
1000
0010
1000
0100
0010
0000
,
0001
0100
0001
0000
0010
0000
0100
0000
1000
0010
1000
0000
0100
0000
0100
0000
,
0000
1000
0100
1000
0010
1000
0100
0000
,
0010
0001
0100
0001
0010
0001
0100
0000
,
0001
1000
0010
0100
0010
1000
1001
0000
,
1000
0100
0010
0100
1000
0010
1001
0000
,
0001
0010
0002
0000
0103
0100
0101
0000
,
1000
0010
2000
0000
3100
0100
1100
0000
,
0010
0100
0020
0000
1030
0100
0020
0000
,
0031
0100
0010
1000
1000
0010
0100
0001
,
0001
0000
0000
0010
0000
0000
0001
0000
0000
0001
0000
0000
1000
0000
0000
1000
0000
0000
0001
0000
1000
0000
0000
0000
,
1001
0000
0110
1001
0110
1001
0010
0000
,
0001
0100
0110
0100
0001
0001
0001
0001
,
1000
0100
0110
0100
1000
1000
1000
1000
,
0001
0000
0000
0010
0000
0000
0001
0000
1000
0001
0000
1000
0001
0000
0000
1000
0000
0000
0000
0000
0100
0000
0000
0000
,
1001
0000
0110
1001
0110
1001
0010
0000
,
1000
0010
0101
0100
0001
0001
0001
0001
,
0001
0010
1100
0100
1000
1000
1000
1000
,
1000
0000
0000
0010
0000
0000
1000
0000
0001
1000
0000
0001
1000
0000
0000
0001
0000
0000
0000
0000
0100
0000
0000
0000
,
1001
0000
0110
1001
0110
1001
0010
0000
;

//---------------dance-single - ----------------
#NOTEDATA:;
#CHARTNAME:;
#STEPSTYPE:dance-single;
#DESCRIPTION:;
#CHARTSTYLE:;
#DIFFICULTY:Medium;
#METER:5;
#RADARVALUES:0.280549,0.328559,0.175867,0.000000,0.000000,268.000000,244.000000,24.000000,0.000000,0.000000,0.000000,0.000000,0.000000,0.000000,0.280549,0.328559,0.175867,0.000000,0.000000,268.000000,244.000000,24.000000,0.000000,0.000000,0.000000,0.000000,0.000000,0.000000;
#CREDIT:;
#NOTES:
0000
0000
0000
0000
,
0000
0000
0000
0000
,
0000
0000
0000
0000
,
0000
0000
0000
0000
,
0000
0000
0000
0000
,
0010
0000
1000
0000
0100
0010
0100
0000
,
1000
0010
1000
0000
0100
0000
0100
0000
,
0010
0001
0100
0000
0001
0000
0001
0000
,
1000
0010
0100
0000
0010
0000
0010
0000
,
1000
0100
0010
0000
0001
0000
1000
0000
,
0010
0100
0001
0000
1000
0000
0100
0000
,
0010
0010
0001
0001
,
1000
0010
1000
0000
0100
0000
0100
0000
,
0010
0010
0010
0010
,
0010
0000
0001
1000
0100
0000
0000
0000
,
1000
0100
1000
0100
1000
0000
0000
0000
,
0001
0100
0001
0100
0001
0000
0000
0000
,
1000
0010
1000
0010
1000
0000
0000
0000
,
0001
0010
0001
0010
0001
0000
0000
0000
,
0010
0000
0100
0000
1000
0001
0100
0000
,
1001
0000
0110
0100
0110
0000
1001
0000
,
0010
0000
1000
0000
0001
0100
0010
0000
,
1000
0000
0001
0000
1000
0010
0100
0000
,
0010
0000
1000
0100
0001
0100
1000
0000
,
1001
0000
0110
0100
0110
0000
1001
0000
,
0010
0000
0001
0000
1000
0010
0100
0000
,
0010
0000
1000
0000
0001
0100
0010
0000
,
0100
0000
0001
0100
1000
0100
0001
0000
,
1001
0000
0110
0100
0110
0000
1001
0000
,
0010
1000
0010
0000
1000
0100
1000
0000
,
0001
0000
0010
0000
0001
0100
0001
0000
,
1000
0000
0010
0000
0100
0000
0001
1000
,
0010
0000
1000
0001
0100
0000
0100
0000
,
0010
0000
0010
0000
1000
0100
1000
0000
,
0010
1000
0100
0000
1000
0001
0100
0000
,
0010
0000
0100
0000
0001
0100
0001
0000
,
0010
0000
0100
0000
0010
0001
0010
0000
,
0100
0000
1000
0000
0010
1000
0010
0000
,
0100
0000
0001
0000
0100
0001
0100
0000
,
0010
0000
1000
0000
0001
1000
0001
0000
,
0010
0000
0100
0000
0010
0001
0010
0000
,
0100
0000
1000
0000
0010
1000
0010
0000
,
0100
0000
0001
0000
1000
0001
1000
0000
,
0010
0100
0001
0000
0010
0100
1000
0000
,
1001
0000
0110
0100
0110
0000
1001
0000
,
0010
0000
0001
0000
1000
0010
0100
0000
,
0010
0000
1000
0000
0001
0100
0010
0000
,
1000
0000
0001
0010
1000
0010
0001
0000
,
1001
0000
0110
0100
0110
0000
1001
0000
,
0010
0000
1000
0000
0001
0100
0010
0000
,
1000
0000
0100
0000
0010
0100
1000
0000
,
0001
0000
0010
0100
0010
1000
0001
0000
,
1001
0000
0110
0100
0110
0000
1001
0000
;

//---------------dance-single - ----------------
#NOTEDATA:;
#CHARTNAME:;
#STEPSTYPE:dance-single;
#DESCRIPTION:;
#CHARTSTYLE:;
#DIFFICULTY:Easy;
#METER:3;
#RADARVALUES:0.207271,0.231924,0.146556,0.000000,0.000000,198.000000,178.000000,20.000000,0.000000,0.000000,0.000000,0.000000,0.000000,0.000000,0.207271,0.231924,0.146556,0.000000,0.000000,198.000000,178.000000,20.000000,0.000000,0.000000,0.000000,0.000000,0.000000,0.000000;
#CREDIT:;
#NOTES:
0000
0000
0000
0000
,
0000
0000
0000
0000
,
0000
0000
0000
0000
,
0000
0000
0000
0000
,
0000
0000
0000
0000
,
0010
1000
0100
0100
,
0010
0001
1000
0010
,
0100
0001
0010
0100
,
0010
0001
1000
0010
,
0100
0010
1000
0010
,
1000
0100
1000
0100
,
0010
0010
0001
0001
,
1000
0001
0100
0100
,
0010
0010
0010
0010
,
0010
1000
0100
0000
,
1000
0010
0100
0000
,
0001
0010
0100
0000
,
0010
0001
1000
0000
,
0010
1000
0001
0000
,
0100
0010
0100
0000
,
1001
0100
0010
1001
,
0010
0000
1000
1001
,
0001
0000
0100
0110
,
0010
1000
1000
1000
,
1001
0100
0010
1001
,
0010
0000
0001
1001
,
1000
0000
0010
0110
,
0100
0001
0001
0001
,
1001
0100
0010
1001
,
0010
0010
0100
0100
,
0010
0010
1000
0100
,
0010
0100
0010
0100
,
1000
0001
0100
0010
,
1000
0010
0100
0001
,
0010
0100
0010
0100
,
1000
0100
1000
0001
,
0010
0001
0010
0100
,
0010
0001
0100
0100
,
0010
1000
0100
0100
,
1000
0100
0001
0100
,
1000
0010
0001
0010
,
1000
0100
1000
0100
,
0001
0100
0001
0100
,
0010
0001
0100
0010
,
1001
0100
0010
1001
,
0010
0000
0100
0101
,
0001
0000
1000
1010
,
0010
0100
0100
0100
,
1001
0100
0010
1001
,
0010
0000
1000
1100
,
0100
0000
0010
0011
,
0001
1000
1000
1000
,
1001
0100
0010
1001
;

//---------------dance-single - ----------------
#NOTEDATA:;
#CHARTNAME:;
#STEPSTYPE:dance-single;
#DESCRIPTION:;
#CHARTSTYLE:;
#DIFFICULTY:Beginner;
#METER:1;
#RADARVALUES:0.136087,0.192354,0.131900,0.000000,0.000000,130.000000,112.000000,18.000000,0.000000,0.000000,0.000000,0.000000,0.000000,0.000000,0.136087,0.192354,0.131900,0.000000,0.000000,130.000000,112.000000,18.000000,0.000000,0.000000,0.000000,0.000000,0.000000,0.000000;
#CREDIT:;
#NOTES:
0000
0000
0000
0000
,
0000
0000
0000
0000
,
0000
0000
0000
0000
,
0000
0000
0000
0000
,
0000
0000
0000
0000
,
0010
0000
1000
0000
,
0100
0000
0010
0000
,
0100
0000
1000
0000
,
0001
0000
0100
0000
,
0010
0000
0010
0000
,
0100
0000
0100
0000
,
0001
0000
0001
0000
,
0010
0000
0100
0000
,
1000
1000
1000
1000
,
1000
0000
0010
0000
,
0100
0100
0100
0000
,
0001
0001
0001
0000
,
0010
0010
0010
0000
,
0100
0100
0100
0000
,
1000
0000
0001
0000
,
0110
0110
0110
0000
,
1000
0000
0001
0000
,
0100
0000
0010
0000
,
1000
1000
1000
0000
,
0110
0110
0110
0000
,
0010
0000
0100
0000
,
0001
0000
0010
0000
,
0100
0100
0100
0000
,
0110
0110
0110
0000
,
1000
0000
0010
0000
,
0001
0000
0100
0000
,
0010
0000
1000
0000
,
0100
0000
0010
0000
,
0001
0000
0100
0000
,
1000
0000
0100
0000
,
0001
0000
0010
0000
,
0100
0000
1000
0000
,
0010
0000
0100
0000
,
0010
0000
1000
0000
,
0100
0000
0010
0000
,
0001
0000
0100
0000
,
0010
0000
1000
0000
,
0100
0000
0010
0000
,
0001
0000
1000
0000
,
0110
0110
0110
0000
,
0010
0000
1000
0000
,
0100
0000
0010
0000
,
0001
0001
0001
0000
,
0110
0110
0110
0000
,
0001
0000
0010
0000
,
0100
0000
1000
0000
,
0100
0100
0100
0000
,
0110
0110
0110
0000
;
