#TITLE:Don't You Worry;
#SUBTITLE:;
#ARTIST:Black Eyed Peas, Shakira, & David Guetta;
#TITLETRANSLIT:;
#SUBTITLETRANSLIT:;
#ARTISTTRANSLIT:;
#GENRE:Demon Days;
#CREDIT:;
#BANNER:Don't You Worry-bn.png;
#BACKGROUND:Black.png;
#LYRICSPATH:;
#CDTITLE:;
#MUSIC:Don't You Worry.mp3;
#OFFSET:-0.005000;
#SAMPLESTART:86.380569;
#SAMPLELENGTH:16.363640;
#LASTBEATHINT:257.500000;
#SELECTABLE:YES;
#BPMS:0.000000=132.000000
;
#STOPS:
;
#BGCHANGES:0.000=Don't You Worry-video.avi=1.000=1=0=1===CrossFade==,
99999=-nosongbg-=1.000=0=0=0 // don't automatically add -songbackground-
;
#KEYSOUNDS:;
#ATTACKS:;

//---------------dance-single - ----------------
#NOTES:
     dance-single:
     :
     Hard:
     7:
     0.342496,0.382847,0.133977,0.197439,0.000000,340.000000,321.000000,19.000000,28.000000,0.000000,0.000000,0.342496,0.382847,0.133977,0.197439,0.000000,340.000000,321.000000,19.000000,28.000000,0.000000,0.000000:
0000
0000
0000
0000
,
0000
0000
0000
0000
,
0000
0000
0000
0000
,
0000
0000
0000
0000
,
0000
0000
0000
0000
,
0000
0000
0000
0000
,
0000
0000
0000
0000
,
0000
0000
0000
0000
1000
0000
1000
0020
,
0000
0030
1001
0000
0100
0000
0100
0020
,
0000
0000
0031
0000
0100
0000
0100
0020
,
0000
0000
1030
0000
0001
0000
1000
0100
,
1000
0000
1100
0000
0001
0010
0100
1000
,
0010
0000
0100
0000
0001
0100
1000
0100
,
0001
0000
0001
0000
1000
0010
0100
0001
,
1000
0000
1000
1000
0010
1000
0001
0010
,
0100
0000
0110
0000
0010
0001
1000
0010
,
0100
0010
0110
0000
0001
0000
0001
0020
,
0000
0000
0130
0000
1000
0100
0001
0100
,
1000
0000
1001
0000
0010
0000
0001
0100
,
0001
0000
0010
0001
0100
0001
0010
0100
,
1000
0000
0001
0100
0010
1000
0100
0010
,
0100
0000
0100
0000
1000
0001
0100
0010
,
1000
0000
0001
0000
0010
0001
1000
0010
,
0100
0000
0010
0100
0010
0100
0010
0100
,
0202
0303
0001
1100
,
0100
0000
1010
0000
0010
1000
0001
0010
,
0100
1100
0010
0101
,
1000
0000
1001
0000
0010
0001
1000
0010
,
0100
0000
0110
0000
0001
0100
0010
0100
,
0001
0000
0101
0000
1000
0010
0100
0010
,
1000
0000
1010
0000
0100
1000
0010
1000
,
0200
0000
0000
0000
1300
0100
0001
0100
,
2000
0000
0001
0001
3001
0100
1000
0100
,
0002
0000
1000
1000
1003
0010
0001
0010
,
0100
0000
0001
0100
0001
0100
0001
0100
,
0020
0000
0001
0001
0031
0010
1000
0010
,
0200
0000
0301
0000
1000
0100
0001
0100
,
0020
0000
0031
0000
1000
0100
0001
0100
,
2000
0000
3001
0000
0100
0010
0100
0000
,
0110
0000
1001
0000
0010
0001
0100
0000
,
0002
0000
0003
0001
2000
0000
3000
1000
,
0200
0000
0300
0100
0020
0000
0030
0000
,
0022
0000
0033
0001
2000
0000
3000
1000
,
0020
0000
0030
0010
0200
0000
0300
0000
,
0001
0100
0010
1000
0100
0100
1000
1000
,
0001
0010
0100
1000
0001
0000
0000
0000
,
1000
0010
0100
0001
1000
1000
0001
0010
,
0100
0000
0000
0000
1000
0000
1000
0020
,
0000
0000
0130
0000
0001
0000
0001
2000
,
0000
0000
3100
0000
0200
0010
0010
0010
,
0310
0000
0110
0000
0001
0100
0010
0000
,
1000
0100
0001
0000
1000
0100
0010
0001
,
1000
0100
1000
0000
0001
0010
1000
0000
,
1000
0010
0001
0000
0001
0100
0010
1000
,
0100
0001
0100
0000
1000
0001
0100
0000
,
0001
1000
0010
0000
1000
0010
0001
0010
,
2000
0000
3100
0000
0100
0000
0100
0020
,
0000
0000
0031
0000
0002
1000
1000
1000
,
1003
0010
0100
0000
0001
0100
0010
0000
,
1000
0100
0001
0000
1000
0100
0010
0001
,
1000
0100
1000
0000
0001
0010
0001
0000
,
1000
0010
1000
0000
0001
0100
0010
1000
,
0001
0100
1000
0000
1000
0100
0001
0000
,
0100
0000
0110
0000
0010
0100
0001
1000
;

//---------------dance-single - ----------------
#NOTES:
     dance-single:
     :
     Medium:
     6:
     0.249821,0.314669,0.133977,0.303210,0.000000,248.000000,229.000000,19.000000,43.000000,0.000000,0.000000,0.249821,0.314669,0.133977,0.303210,0.000000,248.000000,229.000000,19.000000,43.000000,0.000000,0.000000:
0000
0000
0000
0000
,
0000
0000
0000
0000
,
0000
0000
0000
0000
,
0000
0000
0000
0000
,
0000
0000
0000
0000
,
0000
0000
0000
0000
,
0000
0000
0000
0000
,
0000
0000
0000
0000
,
0020
0000
0031
0000
1000
0000
0100
1000
,
0001
0000
1000
0000
0001
0000
0100
0001
,
2000
0000
3010
0000
0100
0000
0010
1000
,
0100
0000
1000
0000
0001
0000
0100
0001
,
0010
0001
0100
0010
,
1000
0000
0001
0000
0010
0000
0100
1000
,
0001
0010
0100
0010
,
0001
0000
1000
0000
0010
0000
0100
0010
,
2000
0000
0100
0000
3001
0000
0001
1000
,
0002
0000
0100
0000
1003
0000
1000
0001
,
2000
0000
0010
0000
3001
0000
0001
1000
,
0002
0000
0010
0000
1003
0000
1000
0001
,
1000
0100
0010
0001
,
0100
0000
0010
0000
0100
0000
0001
0100
,
0010
1000
0001
0010
,
0200
0000
0300
0000
,
2200
3300
0001
1000
,
2002
0000
3003
0000
0010
0001
0100
0000
,
0202
0303
0010
1000
,
2002
0000
3003
0000
1000
0100
0010
0000
,
0220
0000
0330
0000
1000
0001
1000
0000
,
2200
0000
3300
0000
0001
0100
0010
0000
,
2020
0000
3030
0000
1000
0001
0010
0000
,
0022
0000
0033
0000
1000
0100
1000
0000
,
0001
0101
1000
1010
,
0100
0000
0110
0000
0001
0100
0001
0000
,
1000
1100
0001
1001
,
0010
0000
0011
0000
1000
0001
1000
0000
,
0010
1010
0100
0101
,
0010
0011
0100
1100
,
0010
1000
0100
0000
0100
0001
0100
0000
,
0100
1000
0100
0000
0010
0000
0100
0000
,
2000
3000
0002
0003
,
0200
0300
0020
0030
,
2000
3000
0020
0030
,
0002
0003
0020
0030
,
1000
0000
0100
0000
0010
0001
0100
0000
,
0001
0000
1000
0100
2000
0000
3000
0000
,
0001
0000
0100
0000
0010
1000
0100
0000
,
0020
0000
0030
0000
0001
0000
1000
0001
,
0200
0000
0300
0000
,
0000
0000
0000
0000
0010
0000
1000
0100
,
1000
0000
1100
0000
0100
0000
0010
0001
,
0010
0000
0100
0000
1000
0001
1000
0000
,
0020
1030
0200
0301
,
2000
3100
0020
0031
,
0100
0000
0010
0100
0001
0000
1000
0000
,
0010
0000
0001
0000
0010
0000
1000
0001
,
2000
0000
3000
0000
,
0000
0000
0000
0000
0010
0000
0001
0100
,
0010
0000
0100
0000
0001
0000
1000
0010
,
0100
0000
0010
0000
1000
0100
1000
0000
,
0001
0010
0100
0000
0010
0000
0100
0000
,
2000
3010
0002
0103
,
0010
0100
0001
0000
1000
0000
0100
0000
,
0002
0013
2000
3100
;

//---------------dance-single - ----------------
#NOTES:
     dance-single:
     :
     Easy:
     3:
     0.146065,0.202287,0.000000,0.324364,0.000000,145.000000,145.000000,0.000000,46.000000,0.000000,0.000000,0.146065,0.202287,0.000000,0.324364,0.000000,145.000000,145.000000,0.000000,46.000000,0.000000,0.000000:
0000
0000
0000
0000
,
0000
0000
0000
0000
,
0000
0000
0000
0000
,
0000
0000
0000
0000
,
0000
0000
0000
0000
,
0000
0000
0000
0000
,
0000
0000
0000
0000
,
0000
0000
0000
0000
,
2000
0000
3100
0000
,
0001
0000
0010
0100
,
0020
0000
0031
0000
,
0100
0000
0010
1000
,
0002
0000
1003
0000
,
0100
0000
0010
0001
,
0200
0000
0310
0000
,
1000
0000
0001
1000
,
0020
0000
0130
0100
,
0020
0000
0130
0001
,
2000
0000
3001
0000
,
0020
0000
0130
1000
,
0200
0000
0310
0000
,
0002
0000
0103
0010
,
2000
0000
3010
0000
,
0100
0000
0000
0000
,
0002
0000
1003
0001
,
2000
0000
3010
1000
,
0020
0000
0130
0001
,
0200
0000
0310
1000
,
0200
0000
0310
0001
,
2000
0000
3001
1000
,
0200
0000
0310
0001
,
0200
0000
0301
0100
,
0001
0001
1000
1000
,
0001
1000
0001
0001
,
0010
0010
0100
0100
,
0010
0100
0010
0010
,
0100
0010
0001
0001
,
1000
0001
0100
0100
,
0010
0100
0001
0001
,
1000
0010
0100
0001
,
2000
3000
2000
3000
,
2000
3000
2000
3000
,
0200
0300
0200
0300
,
0200
0300
0200
0300
,
0010
0000
0001
0000
,
0100
0000
1000
0000
,
0001
0000
0010
0000
,
0100
0000
1000
1000
,
0002
0000
0003
0000
,
0000
0000
0000
0000
,
0100
0100
0020
0030
,
2000
3000
0002
0003
,
0010
0001
2000
3000
,
0002
0003
2000
3000
,
0010
1000
0200
0300
,
0020
0030
0001
1000
,
0002
0000
0003
0000
,
0000
0000
0000
0000
,
0100
0010
2000
3000
,
0002
0003
1000
0100
,
0020
0030
0200
0300
,
2000
3000
0001
0010
,
0200
0300
0020
0030
,
0002
0003
2000
3000
;

//---------------dance-single - ----------------
#NOTES:
     dance-single:
     :
     Beginner:
     1:
     0.109800,0.156717,0.000000,0.056411,0.000000,109.000000,109.000000,0.000000,8.000000,0.000000,0.000000,0.109800,0.156717,0.000000,0.056411,0.000000,109.000000,109.000000,0.000000,8.000000,0.000000,0.000000:
0000
0000
0000
0000
,
0000
0000
0000
0000
,
0000
0000
0000
0000
,
0000
0000
0000
0000
,
0000
0000
0000
0000
,
0000
0000
0000
0000
,
0000
0000
0000
0000
,
0000
0000
0000
0000
,
1000
0000
1000
0000
,
1000
0000
0100
0000
,
0001
0000
0001
0000
,
0001
0000
0100
0000
,
1000
0000
0010
0000
,
0100
0000
0001
0000
,
0010
0000
0100
0000
,
1000
0000
0001
0000
,
0100
0000
0010
0000
,
0100
0000
0010
0000
,
1000
0000
0001
0000
,
0100
0000
0010
0000
,
1000
0000
0100
0000
,
0010
0000
0001
0000
,
0100
0000
0010
0000
,
0100
0000
0000
0000
,
0002
0003
0001
0000
,
2000
3000
1000
0000
,
0200
0300
0100
0000
,
0020
0030
0010
0000
,
0002
0003
0001
0000
,
2000
3000
1000
0000
,
0020
0030
0010
0000
,
0200
0300
0000
0000
,
0001
0001
0001
0000
,
1000
1000
1000
0000
,
0100
0100
0100
0000
,
0010
0000
0001
0000
,
1000
0000
0001
0001
,
0001
0000
1000
1000
,
1000
0000
0010
0010
,
0010
0000
0100
0000
,
0001
0000
0001
0000
,
0001
0000
0001
0000
,
0010
0000
0010
0000
,
0010
0000
0010
0000
,
0100
0000
0100
0000
,
0100
0000
0100
0000
,
1000
0000
1000
0000
,
1000
0000
1000
0000
,
0000
0000
0000
0000
,
0000
0000
0000
0000
,
0001
0000
0010
0000
,
0100
0000
1000
0000
,
0001
0000
1000
0000
,
0001
0000
1000
0000
,
0010
0000
0100
0000
,
0001
0000
1000
0000
,
0100
0000
0000
0000
,
0000
0000
0000
0000
,
0010
0000
0001
0000
,
1000
0000
0001
0000
,
0100
0000
0010
0000
,
1000
0000
0100
0000
,
0010
0000
0100
0000
,
0010
0000
0100
0000
;

//---------------dance-double - ----------------
#NOTES:
     dance-double:
     :
     Hard:
     7:
     0.341489,0.382847,0.141028,0.232696,0.000000,339.000000,319.000000,20.000000,33.000000,0.000000,0.000000,0.341489,0.382847,0.141028,0.232696,0.000000,339.000000,319.000000,20.000000,33.000000,0.000000,0.000000:
00000000
00000000
00000000
00000000
,
00000000
00000000
00000000
00000000
,
00000000
00000000
00000000
00000000
,
00000000
00000000
00000000
00000000
,
00000000
00000000
00000000
00000000
,
00000000
00000000
00000000
00000000
,
00000000
00000000
00000000
00000000
,
00000000
00000000
00000000
00000000
10000000
00000000
10000000
00200000
,
00000000
00300000
01100000
00000000
00010000
00000000
00010000
00000020
,
00000000
00000000
00000130
00000000
00001000
00000000
00001000
00000002
,
00000000
00000000
00000103
00000000
00000010
00000000
00010000
00001000
,
00010000
00000000
00011000
00000000
00001000
01000000
00100000
10000000
,
01000000
00000000
00100000
00000000
00010000
00001000
00000100
00001000
,
00010000
00000000
10000000
00000000
00100000
10000000
00010000
01000000
,
00100000
00000000
10000000
10000000
01000000
00100000
00001000
00010000
,
00001000
00000000
00011000
00000000
00010000
00000010
00000100
00000010
,
00000100
00000001
00001001
00000000
00000001
00000000
00000001
00000020
,
00000000
00000000
00000130
00000000
00001000
00000100
00000010
00000100
,
00010000
00000000
00011000
00000000
01000000
00000000
00100000
01000000
,
00100000
00000000
10000000
00010000
01000000
00010000
00100000
00001000
,
00010000
00000000
00001000
00001000
01000000
00100000
10000000
00010000
,
10000000
00000000
01000000
00000000
00100000
00001000
00010000
00000010
,
00000100
00000000
00000001
00000100
00000010
00000100
00000001
00000100
,
00000010
00000000
00010000
00001000
00010000
00001000
00010000
00001000
,
00022000
00033000
00110000
10100000
,
20020000
00000000
30030000
00000000
01000000
00001000
00010000
00000100
,
00002200
00003300
00011000
00001010
,
00000022
00000000
00000033
00000000
00000001
00000100
00000010
00001000
,
00000100
00000000
00001100
00000000
00000010
00000100
00001000
00000001
,
00000100
00000000
00000110
00000000
00000010
00010000
00001000
00100000
,
00010000
00000000
00110000
00000000
01000000
00010000
00100000
00010000
,
02000000
00000000
00000000
00000000
13000000
01000000
00010000
01000000
,
00200000
00000000
10300000
00010000
00100000
00001000
00010000
00000010
,
00000200
00000000
00000301
00000001
00000001
00000010
00000100
00001000
,
00000200
00000000
00010300
00001000
00010000
00001000
00010000
00001000
,
00200000
00000000
00310000
10000000
00010000
00100000
01000000
00100000
,
00020000
00000000
01030000
00000000
00100000
10000000
00010000
00100000
,
02000000
00000000
13000000
00000000
00100000
01000000
00001000
00010000
,
00001000
00000000
00010000
00000000
00000100
00000010
00000100
00000000
,
00000110
00000000
00001001
00000000
00000010
00000001
00000100
00000000
,
00000002
00000000
00000003
00000001
00002000
00000000
00003000
00001000
,
00020000
00000000
00030000
00010000
20000000
00000000
30000000
00000000
,
02000000
00000000
03000000
01000000
00000200
00000000
00000300
00000100
,
00000020
00000000
00000030
00000010
00200000
00000000
00300000
00000000
,
00100000
00001000
00100000
01000000
10000000
10000000
00010000
00010000
,
01000000
00001000
00010000
00000100
00010000
00000000
00000000
00000000
,
00000100
00000010
00000001
00001000
00000010
00000010
00010000
00001000
,
00010000
00000000
00000000
00000000
01000000
00000000
01000000
00200000
,
00000000
00000000
00310000
00000000
00001000
00000000
00001000
00000020
,
00000000
00000000
00000130
00000000
00000002
00001000
00001000
00001000
,
00001003
00000000
00001001
00000000
00001000
00000010
00000100
00000000
,
00000010
00010000
00000100
00000000
00010000
00001000
01000000
00100000
,
10000000
01000000
10000000
00000000
00010000
00100000
10000000
00000000
,
10000000
00100000
00010000
00000000
00001000
00000010
00000001
00000010
,
00000100
00000001
00000100
00000000
00000010
00001000
00000100
00000000
,
00010000
00001000
00010000
00000000
00000100
00010000
00001000
00100000
,
02000000
00000000
13000000
00000000
00010000
00000000
00010000
00200000
,
00000000
00000000
01300000
00000000
20000000
00010000
00010000
00010000
,
30010000
00100000
01000000
00000000
00100000
00001000
00010000
00000000
,
00000100
00000010
00000001
00000000
00000100
00000001
00001000
00000100
,
00010000
00001000
00010000
00000000
00001000
01000000
00100000
00000000
,
10000000
01000000
10000000
00000000
00010000
00100000
01000000
10000000
,
00010000
00100000
10000000
00000000
10000000
00100000
00010000
00000000
,
00001000
00000000
00011000
00000000
00000100
00001000
00000001
00000100
;

//---------------dance-double - ----------------
#NOTES:
     dance-double:
     :
     Medium:
     6:
     0.249821,0.314669,0.141028,0.275004,0.000000,248.000000,228.000000,20.000000,39.000000,0.000000,0.000000,0.249821,0.314669,0.141028,0.275004,0.000000,248.000000,228.000000,20.000000,39.000000,0.000000,0.000000:
// measure 0
00000000
00000000
00000000
00000000
,  // measure 1
00000000
00000000
00000000
00000000
,  // measure 2
00000000
00000000
00000000
00000000
,  // measure 3
00000000
00000000
00000000
00000000
,  // measure 4
00000000
00000000
00000000
00000000
,  // measure 5
00000000
00000000
00000000
00000000
,  // measure 6
00000000
00000000
00000000
00000000
,  // measure 7
00000000
00000000
00000000
00000000
,  // measure 8
00200000
00000000
00310000
00000000
01000000
00000000
01000000
00100000
,  // measure 9
01000000
00000000
00001000
00000000
00010000
00000000
00000100
00001000
,  // measure 10
00000200
00000000
00000310
00000000
00000001
00000000
00000100
00000010
,  // measure 11
00010000
00000000
00001000
00000000
00100000
00000000
00010000
01000000
,  // measure 12
00010000
10000000
00100000
01000000
,  // measure 13
00010000
00000000
00001000
00000000
00000100
00000000
00000010
00000100
,  // measure 14
00000010
00000001
00000100
00000010
,  // measure 15
00010000
00000000
01000000
00000000
00100000
00000000
10000000
01000000
,  // measure 16
10000000
00000000
00010000
00000000
00100000
00000000
00001000
00010000
,  // measure 17
00001000
00000000
00000010
00000000
00000001
00000000
00000100
00000001
,  // measure 18
00000100
00000000
00000010
00000000
00001000
00000000
00000100
00010000
,  // measure 19
00000100
00000000
00010000
00000000
00001000
00000000
01000000
00010000
,  // measure 20
01000000
00100000
10000000
00010000
,  // measure 21
00100000
00000000
00001000
00000000
00000010
00000000
00000001
00000010
,  // measure 22
00000001
00000100
00000010
00001000
,  // measure 23
00000200
00000000
00000300
00000000
,  // measure 24
00002200
00003300
00010000
00001000
,  // measure 25
00022000
00000000
00033000
00000000
01000000
00010000
00100000
00000000
,  // measure 26
00220000
00330000
00100000
01000000
,  // measure 27
02200000
00000000
03300000
00000000
00100000
00001000
00010000
00000000
,  // measure 28
00022000
00000000
00033000
00000000
00000010
00001000
00000100
00000000
,  // measure 29
00002200
00000000
00003300
00000000
00000100
00000010
00000001
00000000
,  // measure 30
00000022
00000000
00000033
00000000
00000001
00001000
00000010
00000000
,  // measure 31
00002020
00000000
00003030
00000000
00010000
00001000
00010000
00000000
,  // measure 32
00100000
01100000
10000000
10100000
,  // measure 33
01000000
00000000
01010000
00000000
01000000
00001000
00010000
00000000
,  // measure 34
00000100
00001100
00000001
00001001
,  // measure 35
00000010
00000000
00000011
00000000
00001000
00000100
00010000
00000000
,  // measure 36
00100000
01100000
01000000
10010000
,  // measure 37
00100000
00011000
00000010
00011000
,  // measure 38
00000100
00000000
00001001
00000000
00000100
00000010
00001000
00000000
,  // measure 39
00000001
00000010
00000100
00000000
00010000
00000000
00001000
00000000
,  // measure 40
02000000
03000000
00200000
00300000
,  // measure 41
20000000
30000000
00020000
00030000
,  // measure 42
00200000
00300000
00002000
00003000
,  // measure 43
00020000
00030000
00000020
00000030
,  // measure 44
00000100
00000000
00000001
00000000
00001000
00000010
00000100
00000000
,  // measure 45
00000010
00000000
00010000
00001000
00020000
00000000
00030000
00000000
,  // measure 46
01000000
00000000
00100000
00000000
00010000
01000000
00100000
00000000
,  // measure 47
02000000
00000000
03000000
00000000
00001000
00000000
00010000
00001000
,  // measure 48
00020000
00000000
00030000
00000000
,  // measure 49
00000000
00000000
00000000
00000000
00000010
00000000
00000100
00000001
,  // measure 50
00000100
00000000
00000101
00000000
00000100
00000000
00000010
00001000
,  // measure 51
00000100
00000000
00010000
00000000
00001000
01000000
00010000
00000000
,  // measure 52
20000000
30100000
00020000
01030000
,  // measure 53
00200000
10300000
02000000
03100000
,  // measure 54
00001000
00000000
00010000
00000010
00000100
00000000
00000001
00000000
,  // measure 55
00000010
00000000
00000100
00000000
00010000
00000000
00001000
01000000
,  // measure 56
00200000
00000000
00300000
00000000
,  // measure 57
00000000
00000000
00000000
00000000
00100000
00000000
10000000
00010000
,  // measure 58
00100000
00000000
01000000
00000000
00100000
00000000
00010000
01000000
,  // measure 59
00100000
00000000
01000000
00000000
00010000
00100000
00001000
00000000
,  // measure 60
00010000
00000010
00001000
00000000
00000001
00000000
00001000
00000000
,  // measure 61
00000002
00000013
00002000
00003100
,  // measure 62
00000010
00000100
00010000
00000000
00001000
00000000
01000000
00000000
,  // measure 63
00200000
10300000
02000000
03010000
;

//---------------dance-double - ----------------
#NOTES:
     dance-double:
     :
     Easy:
     3:
     0.146065,0.202287,0.000000,0.324364,0.000000,145.000000,145.000000,0.000000,46.000000,0.000000,0.000000,0.146065,0.202287,0.000000,0.324364,0.000000,145.000000,145.000000,0.000000,46.000000,0.000000,0.000000:
// measure 0
00000000
00000000
00000000
00000000
,  // measure 1
00000000
00000000
00000000
00000000
,  // measure 2
00000000
00000000
00000000
00000000
,  // measure 3
00000000
00000000
00000000
00000000
,  // measure 4
00000000
00000000
00000000
00000000
,  // measure 5
00000000
00000000
00000000
00000000
,  // measure 6
00000000
00000000
00000000
00000000
,  // measure 7
00000000
00000000
00000000
00000000
,  // measure 8
20000000
00000000
31000000
00000000
,  // measure 9
00010000
00000000
00100000
00001000
,  // measure 10
00020000
00000000
00031000
00000000
,  // measure 11
00000010
00000000
00000100
00001000
,  // measure 12
00000200
00000000
00000310
00000000
,  // measure 13
00000001
00000000
00000100
00000010
,  // measure 14
00002000
00000000
00003100
00000000
,  // measure 15
00010000
00000000
00001000
01000000
,  // measure 16
00200000
00000000
10300000
10000000
,  // measure 17
02000000
00000000
03100000
00010000
,  // measure 18
20000000
00000000
30010000
00000000
,  // measure 19
00200000
00000000
00301000
00010000
,  // measure 20
00002000
00000000
00013000
00000000
,  // measure 21
00000200
00000000
00000310
00000001
,  // measure 22
00000200
00000000
00000310
00000000
,  // measure 23
00001000
00000000
00000000
00000000
,  // measure 24
00002000
00000000
00013000
00001000
,  // measure 25
00020000
00000000
00031000
00100000
,  // measure 26
02000000
00000000
13000000
01000000
,  // measure 27
20000000
00000000
30010000
10000000
,  // measure 28
00020000
00000000
01030000
00001000
,  // measure 29
00020000
00000000
00031000
00010000
,  // measure 30
00000020
00000000
00000130
00000001
,  // measure 31
00000020
00000000
00000130
00001000
,  // measure 32
00000100
00000100
00010000
00010000
,  // measure 33
00001000
00010000
00001000
00001000
,  // measure 34
01000000
01000000
00100000
00100000
,  // measure 35
10000000
00010000
10000000
10000000
,  // measure 36
01000000
00100000
00001000
00010000
,  // measure 37
00000100
00000010
00000001
00000001
,  // measure 38
00000100
00000001
00001000
00001000
,  // measure 39
00000100
00010000
00001000
01000000
,  // measure 40
00200000
00300000
00200000
00300000
,  // measure 41
02000000
03000000
02000000
03000000
,  // measure 42
00002000
00003000
00002000
00003000
,  // measure 43
00020000
00030000
00020000
00030000
,  // measure 44
00000100
00000000
00000010
00000000
,  // measure 45
00000001
00000000
00000100
00000000
,  // measure 46
00000010
00000000
00010000
00000000
,  // measure 47
00001000
00000000
01000000
01000000
,  // measure 48
00200000
00000000
00300000
00000000
,  // measure 49
00000000
00000000
00000000
00000000
,  // measure 50
10000000
10000000
02000000
03000000
,  // measure 51
00200000
00300000
00002000
00003000
,  // measure 52
00010000
00001000
00020000
00030000
,  // measure 53
00000020
00000030
00000200
00000300
,  // measure 54
00000001
00001000
00000200
00000300
,  // measure 55
00020000
00030000
00001000
00010000
,  // measure 56
00002000
00000000
00003000
00000000
,  // measure 57
00000000
00000000
00000000
00000000
,  // measure 58
00100000
00010000
00200000
00300000
,  // measure 59
02000000
03000000
10000000
01000000
,  // measure 60
00200000
00300000
00002000
00003000
,  // measure 61
00020000
00030000
00000010
00000100
,  // measure 62
00000002
00000003
00000020
00000030
,  // measure 63
00002000
00003000
00020000
00030000
;
