#TITLE:Do I See Color;
#SUBTITLE:;
#ARTIST:Adventure Club;
#TITLETRANSLIT:;
#SUBTITLETRANSLIT:;
#ARTISTTRANSLIT:;
#GENRE:Do I See Color;
#CREDIT:;
#BANNER:Do I See Color-bn.png;
#BACKGROUND:Do I See Color-bg.png;
#LYRICSPATH:;
#CDTITLE:;
#MUSIC:Do I See Color.mp3;
#OFFSET:-0.066000;
#SAMPLESTART:34.330914;
#SAMPLELENGTH:15.428570;
#LASTBEATHINT:257.106995;
#SELECTABLE:YES;
#DISPLAYBPM:70.000000:280.000000;
#BPMS:0.000000=140.000000
,105.000000=1120.000000
,108.000000=140.000000
,113.000000=280.000000
,119.000000=140.000000
,124.000000=1120.000000
,127.000000=140.000000
,135.000000=70.000000
,151.000000=140.000000
,215.000000=70.000000
,215.750000=1120.000000
,217.250000=70.000000
,218.250000=560.000000
,228.250000=70.000000
,229.000000=1120.000000
,235.500000=70.000000
;
#STOPS:105.000000=0.094000,
105.250000=0.094000,
105.500000=0.094000,
105.750000=0.094000,
106.000000=0.750000,
124.000000=0.094000,
124.250000=0.094000,
124.500000=0.094000,
124.750000=0.094000,
125.000000=0.750000,
215.750000=0.281000,
216.500000=0.281000,
218.250000=0.214000,
229.000000=0.281000,
229.750000=0.281000,
230.500000=0.188000,
231.000000=0.094000,
231.250000=0.094000,
231.500000=0.188000,
232.000000=0.094000,
232.250000=0.094000,
232.500000=0.188000,
233.000000=0.188000,
233.500000=0.188000,
234.000000=0.188000,
234.500000=0.047000,
234.625000=0.047000,
234.750000=0.094000,
235.000000=0.188000
;
#BGCHANGES:;
#KEYSOUNDS:;
#ATTACKS:;

//---------------dance-single - ----------------
#NOTES:
     dance-single:
     :
     Challenge:
     11:
     0.801999,1.000000,0.727395,0.484930,0.671441,456.000000,78.000000,52.000000,0.000000,16.000000,0.000000,0.801999,1.000000,0.727395,0.484930,0.671441,456.000000,78.000000,52.000000,0.000000,16.000000,0.000000:
0000
0000
0000
0000
,
0000
0000
0000
0000
,
0000
0000
0000
0000
,
0000
0000
0000
0000
,
0100
1100
0001
0101
,
0001
0100
1000
0100
0001
0100
1000
0100
,
0001
0011
0010
1010
,
1000
0010
0001
0010
1000
0010
0001
0010
,
0100
0000
0000
1000
0000
0000
0010
0000
1000
0010
0000
0010
0100
0000
0001
1000
,
0001
0000
0000
0000
0011
0000
0010
0100
0010
0000
0001
0000
1000
0000
0100
0000
,
0010
0000
0000
0001
0000
0000
1000
0000
0001
0100
0000
0100
0010
0000
1000
0100
,
1000
0000
0001
0100
0001
0000
0100
0000
0010
0000
1000
0000
0100
1000
0100
0000
,
0010
0000
0000
0001
0000
0000
1000
0000
0010
1000
0000
1000
0001
0000
1000
0100
,
1000
0000
0000
0000
1100
0000
0100
0010
0100
0000
0010
0000
0001
0000
1000
0000
,
0010
0000
0000
0100
0000
0000
0001
0000
1000
0100
0000
0100
0010
0000
0001
0100
,
0001
0000
0000
0000
1000
0000
0010
0000
1000
0000
0000
0000
0100
0000
0000
0000
0010
0000
0000
0000
0001
0000
0000
0000
1000
0001
1000
0000
0001
0000
0000
0000
,
0100
0000
0000
0010
0000
0000
1000
0000
0001
1000
0000
1000
0100
0000
0010
0001
,
0010
0000
0100
0000
1000
0000
0001
1000
0001
0000
0100
0000
0010
0000
1000
0000
,
0100
0000
0000
0010
0000
0000
0001
0000
1000
0100
0000
0100
0010
0000
0001
0100
,
0001
0000
1000
0010
1000
0000
0100
0000
0100
0000
0010
0000
0001
1000
0001
0000
,
0100
0000
0000
0001
0000
0000
1000
0000
0100
1000
0000
1000
0010
0000
1000
0100
,
1000
0000
0010
0000
0001
0000
0010
0100
0010
0000
0100
0000
0001
0000
1000
0000
,
0100
0000
0000
0010
0000
0000
0001
0000
1000
0010
0000
0010
0100
0000
0001
0100
,
0001
0000
0000
0000
1000
0000
0010
0000
1000
0000
0000
0000
0100
0000
0000
0000
0100
0000
0000
0000
0010
0000
0000
0000
0001
1000
0001
0000
1000
0000
0000
0000
,
0200
0300
2000
3000
0020
0030
0000
0000
0202
0303
2200
3300
0000
0000
2200
3300
,
0102
0000
0000
0003
0201
0000
0000
0300
1020
0000
0000
0030
0101
0000
0100
0000
,
2010
0000
0000
0000
3100
1000
0100
1000
0200
0000
0000
0000
0300
0000
0000
0000
,
2100
0000
0000
3000
0012
0000
0000
0003
0201
0000
0000
0300
1000
0000
0110
0000
,
0102
0000
0000
2003
0000
3020
0000
0032
0000
0023
0000
0230
,
0000
0302
0000
0203
0000
2300
0000
3200
0000
0302
0000
0000
,
0000
0000
0000
0003
0201
0000
0000
0000
0310
0000
1010
0000
0102
0000
0000
0000
,
1003
0010
1000
0010
0200
0000
0000
0000
0300
0000
0000
0000
2001
0000
0000
3000
,
1002
0000
0000
0003
0210
0000
0000
0000
0310
0000
0110
0000
2002
3003
0002
0003
,
0020
0030
0000
0000
0022
0033
2020
3030
0000
0000
2020
3030
0011
0000
0000
0000
,
0000
0000
0000
0000
0000
0000
0000
0000
0000
0000
0000
0000
0000
0000
0000
0000
0000
0000
0000
0000
0000
0000
0010
0100
1001
0000
0000
0000
0000
0000
0000
0000
,
0000
0000
0000
0000
0000
0000
0000
0000
0000
0000
0000
0000
0000
0000
0000
0000
0000
0000
0000
0000
1000
0000
0010
0100
0001
0100
0001
0100
0001
0100
0001
0100
,
0010
1000
0010
1000
0010
1000
0010
1000
0001
0010
0001
0010
0001
0010
0001
0010
0100
1000
0100
1000
0100
1000
0100
1000
0001
0100
0001
0100
0010
1000
0010
1000
,
0001
0010
0001
0010
0100
1000
0100
1000
0001
0100
0010
1000
0001
0010
0100
1000
0001
0100
0010
1000
0001
0010
0100
1000
0001
0000
0000
0000
0101
0000
0000
0000
,
1010
0000
0100
0001
1000
0000
0101
0000
1010
0000
0101
0000
0100
0000
0101
0000
,
1010
0000
0100
0001
1000
0000
0100
0000
0100
0010
0100
0010
0100
0000
0011
0000
,
1001
0000
0100
1000
0001
0000
0011
0000
1001
0000
0011
0000
0001
0000
0011
0000
,
1001
0000
0100
1000
0001
0000
0100
0000
0100
0010
0100
0010
0100
0000
0110
0000
,
0101
0000
1000
0010
0100
0000
0110
0000
0101
0000
0110
0000
0010
0000
0110
0000
,
0101
0000
1000
0010
0100
0000
0001
0000
0001
1000
0001
1000
0001
0000
0011
0000
,
1100
0000
0001
1000
0001
0000
0011
0000
1100
0000
0011
0000
0100
0000
0011
0000
,
1100
0000
0000
0000
0001
0000
1000
0000
0001
0000
0000
0000
0100
0000
0000
0000
0010
1000
0010
0000
1000
0000
0010
0000
1000
0000
0000
0000
0200
0000
0300
0000
,
0020
0030
0000
0000
0111
0000
0000
0000
1110
0000
0000
0000
0111
0000
0000
0000
,
1110
0000
0000
0000
0100
0000
1000
0000
0001
1000
0001
1000
0001
0000
0200
0300
,
0020
0030
0000
0000
1011
0000
0000
0000
1101
0000
0001
0000
1101
0000
0000
0000
,
1011
0000
0000
0000
0000
0000
0000
0000
0001
0000
0000
0000
1000
0000
0000
0000
0100
1000
0100
0000
1000
0000
0100
0000
1000
0000
0000
0000
0002
0000
0003
0000
,
0020
0030
0000
0000
1110
0000
0000
0000
1011
0000
0000
0000
1110
0000
0000
0000
,
1011
0000
0000
0000
0010
0000
0100
0000
1000
0001
1000
0001
1000
0000
0020
0030
,
0200
0300
0000
0000
0111
0000
0000
0000
1101
0000
1000
0000
1101
0000
0000
0000
,
0111
0000
0000
0000
0000
0000
0000
0000
0010
0000
0000
0000
0001
0000
0000
0000
1000
0100
1000
0000
0100
0000
1000
0000
0100
0000
0000
0000
0000
0000
0010
0000
,
0000
0000
0001
0000
0000
0100
0000
0000
0000
0010
0000
0000
0000
0000
0000
0000
,
0000
0101
0000
0000
0000
0000
0000
0000
0000
0000
0000
0000
0000
0000
0000
0000
,
0000
0000
0000
0000
,
0000
0000
0000
0000
0010
0000
0000
1000
0000
0000
0100
0000
1000
0100
1000
0000
,
0001
0000
0010
0000
0001
0000
0000
0000
0100
0000
0000
0000
0010
0000
0000
0000
0010
0000
0000
0000
1000
0001
1000
0000
0001
0000
0000
0000
1001
0000
0000
0000
;

//---------------dance-single - ----------------
#NOTES:
     dance-single:
     :
     Hard:
     9:
     0.516903,0.658852,0.186511,0.270442,0.335721,339.000000,20.000000,29.000000,25.000000,12.000000,0.000000,0.516903,0.658852,0.186511,0.270442,0.335721,339.000000,20.000000,29.000000,25.000000,12.000000,0.000000:
// measure 0
0000
0000
0000
0000
,  // measure 1
0000
0000
0000
0000
,  // measure 2
0000
0000
0000
0000
,  // measure 3
0000
0000
0000
0000
,  // measure 4
1000
0100
0001
0100
,  // measure 5
0000
0010
0000
0001
0000
0010
0000
1000
,  // measure 6
0001
0100
1000
0100
,  // measure 7
0000
0010
0000
1000
0000
0010
0000
0001
,  // measure 8
0100
0000
0000
0010
0000
0000
1000
0000
0100
1000
0000
1000
0100
0000
0010
0000
,  // measure 9
0001
0000
0000
0000
1000
0000
0001
1000
0001
0000
0100
0000
0010
0000
0100
0000
,  // measure 10
0010
0000
0000
1000
0000
0000
0001
0000
0010
0100
0000
0100
0010
0000
0001
0000
,  // measure 11
1000
0000
0001
1000
0001
0000
0100
0000
0010
0000
0100
0000
0010
0000
0100
0000
,  // measure 12
0010
0000
0000
1000
0000
0000
0100
0000
1000
0100
0000
1000
0100
0000
0010
0000
,  // measure 13
0001
0000
0000
0000
1000
0000
0001
0100
0001
0000
0100
0000
0010
0000
0100
0000
,  // measure 14
0010
0000
0000
0100
0000
0000
0001
0000
1000
0001
0000
0001
1000
0000
0100
0000
,  // measure 15
0010
0000
0100
0010
0100
0000
1000
0000
0001
0000
1000
0000
0001
0000
0000
0000
,  // measure 16
0010
0000
0000
1000
0000
0000
0100
0000
0010
0100
0000
0100
0010
0000
0001
0000
,  // measure 17
1000
0000
0000
0000
0010
0000
0100
0001
0100
0000
0010
0000
1000
0000
0010
0000
,  // measure 18
1000
0000
0000
0100
0000
0000
0010
0000
0001
0010
0000
0010
0001
0000
1000
0000
,  // measure 19
0100
0000
0010
0100
0010
0000
0001
0000
1000
0000
0001
0000
1000
0000
0001
0000
,  // measure 20
1000
0000
0000
0010
0000
0000
0100
0000
0100
0010
0000
0100
0010
0000
1000
0000
,  // measure 21
0001
0000
0000
0000
0100
0000
0010
1000
0010
0000
0100
0000
0001
0000
0100
0000
,  // measure 22
0001
0000
0000
1000
0000
0000
0001
0000
0100
0001
0000
0001
0100
0000
0010
0000
,  // measure 23
1000
0000
0010
1000
0010
0000
0100
0000
0001
0000
0100
0000
0001
0000
0000
0000
,  // measure 24
1100
1000
0010
0000
1000
0101
0000
0101
,  // measure 25
2000
0000
3002
0000
0203
0000
0320
0100
,  // measure 26
0230
0000
0000
0000
0301
1000
0001
1000
0002
0000
0000
0000
0000
0000
0000
0000
,  // measure 27
0023
0000
0230
0000
0320
0000
0032
1000
,  // measure 28
2003
0000
0000
3100
0000
1000
0000
0100
0000
1000
0000
0001
,  // measure 29
0000
1000
0000
0001
0000
0100
0000
0001
0000
0200
0000
0000
,  // measure 30
0000
0000
0320
0000
2030
0001
3002
0000
,  // measure 31
1003
0001
1000
0001
2000
0000
0000
0000
0000
0000
0000
0000
3200
0000
0000
0000
,  // measure 32
0320
0000
0230
0000
2300
0001
3001
1000
,  // measure 33
0010
0000
0001
1100
0000
1100
0001
0000
,  // measure 34
0000
0000
0000
1000
,  // measure 35
0000
0000
0000
0000
0000
0001
0001
0010
,  // measure 36
1000
0000
0010
0000
0001
0000
0100
0000
1000
0000
0100
0000
0001
0100
0001
0100
,  // measure 37
0010
1000
0010
1000
0001
0100
0010
1000
0001
0100
0010
1000
0001
0000
0010
0000
,  // measure 38
0100
0000
1000
0100
1000
0000
0000
0000
1100
0000
0000
0000
1001
0000
0000
0000
,  // measure 39
0101
0000
0000
0000
0110
0000
0100
0000
0001
0100
0001
0100
0001
0000
0010
0000
,  // measure 40
0100
0000
0010
0100
0010
0000
0000
0000
0110
0000
0000
0000
1100
0000
0000
0000
,  // measure 41
1001
0000
0000
0000
0001
0000
1000
0000
0001
1000
0001
1000
0001
0000
0100
0000
,  // measure 42
0010
0000
1000
0010
1000
0000
0000
0000
1010
0000
0000
0000
1001
0000
0000
0000
,  // measure 43
0101
0000
0000
0000
0100
0000
0010
0000
1000
0001
1000
0001
1000
0000
0100
0000
,  // measure 44
0010
0000
0001
0010
0001
0000
0000
0000
0011
0000
0000
0000
1100
0000
0000
0000
,  // measure 45
1001
0000
0000
0000
0100
0000
0010
0000
1000
0001
1000
0000
0001
0000
1000
0000
,  // measure 46
0200
2000
0010
0001
,  // measure 47
3310
0000
0000
0000
0001
0000
0100
0000
0001
0100
0001
0100
0001
0000
1000
0000
,  // measure 48
0010
0202
1000
0010
,  // measure 49
1303
0000
0000
0000
0010
0000
0100
0000
0001
0100
0001
0100
0010
0000
0100
0000
,  // measure 50
0002
0200
0010
1000
,  // measure 51
0313
0000
0000
0000
0100
0000
0001
0000
1000
0001
1000
0001
1000
0000
0100
0000
,  // measure 52
0010
2200
0001
0010
,  // measure 53
3301
0000
0000
0000
0010
0000
0100
0000
1000
0100
1000
0100
2000
0000
0000
0000
,  // measure 54
0M0M
0M0M
0000
0000
0000
00M0
0000
0000
0000
0M0M
00M0
0000
0000
0000
0000
0000
,  // measure 55
0000
0000
0000
0000
,  // measure 56
0000
0000
0000
0000
,  // measure 57
00M0
0M0M
0MMM
0M0M
0M0M
0000
0000
0000
,  // measure 58
00M0
0M0M
0M00
0M0M
00M0
0000
0000
3001
;

//---------------dance-single - ----------------
#NOTES:
     dance-single:
     :
     Medium:
     6:
     0.375687,0.439235,0.307744,0.223814,0.013988,225.000000,33.000000,24.000000,25.000000,0.000000,0.000000,0.375687,0.439235,0.307744,0.223814,0.013988,225.000000,33.000000,24.000000,25.000000,0.000000,0.000000:
0000
0000
0000
0000
,
0000
0000
0000
0000
,
0000
0000
0000
0000
,
0000
0000
0000
0000
,
1000
0100
0001
0100
,
1000
0010
0001
0010
,
1000
0100
0001
0100
,
1000
0010
0100
0001
,
0010
0000
0110
0000
0001
0100
0001
0100
,
0001
1001
0010
1010
,
0100
0000
0010
0000
0100
1000
0100
1000
,
0100
0011
0100
1001
,
0100
0000
0010
0000
1000
0001
1000
0001
,
1000
0101
0001
1100
,
0010
0000
0100
0000
0010
1000
0010
1000
,
0010
0101
0010
1000
,
0010
0000
1100
0000
0010
0100
0010
0100
,
0010
1001
0100
1001
,
0010
0000
0110
0000
1000
0001
1000
0001
,
1000
0110
0001
0110
,
1000
0000
1001
0000
0100
0001
0100
0001
,
1000
0101
0001
1100
,
0010
0000
0110
0000
1000
0001
1000
0001
,
1000
0110
0001
1001
,
0020
0000
0000
0000
0100
0100
0000
0100
,
0030
0000
1001
0000
0110
0000
0001
1000
,
0001
0100
0010
0000
,
1000
0000
0001
0000
1001
0000
1000
0001
,
2000
0000
0000
0000
,
0000
0000
0000
3010
,
0100
0000
1001
0000
0001
1000
0001
0000
,
0100
0010
0000
0100
,
0010
0000
1001
0000
0001
1000
0020
0000
,
0000
0000
0100
0100
0000
0100
0030
0000
,
0000
0000
0000
0010
,
0000
0000
0000
0100
,
0100
0000
0010
0000
0010
0000
1000
0001
,
1000
0001
0100
0010
0100
0000
0100
0001
,
1000
1001
0010
1001
,
0010
0000
1000
0001
1000
0000
0100
1000
,
0010
1001
0010
1001
,
0010
0000
0100
0001
0100
0000
0010
1000
,
0100
1001
0010
1001
,
0100
0000
0010
1000
0001
0000
0010
0001
,
0100
1001
0010
1001
,
0100
0000
0001
1000
0100
0000
0010
0100
,
2000
0000
0000
0000
0020
0030
0000
0000
0002
0003
0000
0000
0020
0030
0000
0000
,
0002
0003
0000
0000
3010
0000
1000
0000
0010
0000
1000
0000
0001
0000
0100
0000
,
0002
0000
0000
0000
0020
0030
0000
0000
2000
3000
0000
0000
0020
0030
0000
0000
,
2000
3000
0000
0000
0013
0000
0001
0000
0010
0000
0000
0000
0100
0000
1000
0000
,
0020
0000
0000
0000
0200
0300
0000
0000
0002
0003
0000
0000
0200
0300
0000
0000
,
2000
3000
0000
0000
0130
0000
0010
0000
0100
0000
0010
0000
1000
0000
0010
0000
,
0200
0000
0000
0000
0020
0030
0000
0000
2000
3000
0000
0000
0020
0030
0000
0000
,
0002
0003
0000
0000
0310
0000
0100
0000
0010
0000
0000
0000
2000
0000
0000
0000
,
0M0M
0M0M
0000
0000
0000
00M0
0000
0000
0000
0M0M
00M0
0000
0000
0000
0000
0000
,
0000
0000
0000
0000
,
0000
0000
0000
0000
,
00M0
0M0M
0MMM
0M0M
0M0M
0000
0000
0000
,
00M0
0M0M
0M00
0M0M
00M0
0000
0000
3000
;

//---------------dance-single - ----------------
#NOTES:
     dance-single:
     :
     Easy:
     4:
     0.233139,0.356878,0.223814,0.027977,0.013988,148.000000,24.000000,3.000000,25.000000,0.000000,0.000000,0.233139,0.356878,0.223814,0.027977,0.013988,148.000000,24.000000,3.000000,25.000000,0.000000,0.000000:
0000
0000
0000
0000
,
0000
0000
0000
0000
,
0000
0000
0000
0000
,
0000
0000
0000
0000
,
0000
1000
0000
0010
,
0000
0001
0000
0010
,
0000
1000
0000
0100
,
0000
0010
0000
0001
,
1000
1000
0010
0010
,
0100
0010
0100
0010
,
0100
0100
0001
0001
,
0100
0001
0100
0001
,
1000
1000
0010
0010
,
0100
0001
1000
0010
,
0100
0100
0010
0010
,
0100
0010
0100
0010
,
1000
0100
0010
0001
,
0010
0100
0010
0100
,
1000
0001
0100
0010
,
1000
0001
1000
0001
,
1000
0010
1000
0001
,
0100
0001
1000
0010
,
1000
0001
0100
0001
,
1000
0010
1000
0001
,
0100
0000
0000
0000
,
0010
0010
1001
0000
,
0110
0000
1001
0000
,
0010
0010
1001
0000
,
0220
0000
0000
0000
,
0000
0000
0000
0330
,
0000
1001
0000
0110
,
0000
1001
0000
0010
,
0010
1001
0000
0110
,
0000
0000
0000
0100
,
0000
0000
0000
0010
,
0000
0000
0000
1000
,
0000
0001
0000
1000
,
0100
0001
0010
1000
,
0100
0001
0010
1000
,
0100
0001
0000
0001
,
0100
1000
0010
0001
,
0100
1000
0000
0001
,
0010
1000
0100
0001
,
0010
1000
0000
1000
,
0100
0001
0010
1000
,
0100
0001
0000
1000
,
0001
1001
0000
0110
,
0000
1001
0000
0001
,
1000
1001
0000
0110
,
0000
1001
0000
1000
,
0001
1001
0000
0110
,
0000
1001
0000
0001
,
0010
0110
1001
0110
,
1001
0110
0000
2000
,
0M0M
0M0M
0000
0000
0000
00M0
0000
0000
0000
0M0M
00M0
0000
0000
0000
0000
0000
,
0000
0000
0000
0000
,
0000
0000
0000
0000
,
00M0
0M0M
0MMM
0M0M
0M0M
0000
0000
0000
,
00M0
0M0M
0M00
0M0M
00M0
0000
0000
3000
;

//---------------dance-single - ----------------
#NOTES:
     dance-single:
     :
     Beginner:
     2:
     0.158535,0.200500,0.121232,0.000000,0.000000,106.000000,13.000000,0.000000,0.000000,0.000000,0.000000,0.158535,0.200500,0.121232,0.000000,0.000000,106.000000,13.000000,0.000000,0.000000,0.000000,0.000000:
0000
0000
0000
0000
,
0000
0000
0000
0000
,
0000
0000
0000
0000
,
0000
0000
0000
0000
,
0000
0010
0000
0010
,
0000
0010
0000
0010
,
0000
0100
0000
0100
,
0000
0100
0000
0100
,
0100
0000
0000
0001
,
0001
0000
1000
0000
,
0010
0000
0000
1000
,
1000
0000
0100
0000
,
0010
0000
0000
0001
,
0001
0000
1000
0000
,
0010
0000
0000
0100
,
0100
0000
0010
0000
,
1000
0000
0100
0100
,
0100
0100
0100
0000
,
0010
0000
0001
0001
,
0001
0000
1000
1000
,
1000
0000
0010
0010
,
0010
0010
0010
0000
,
0100
0000
0001
0001
,
0001
0000
1000
1000
,
1000
0000
0000
0000
,
0100
0100
0100
0000
,
0100
0000
0000
0000
,
0000
0000
0010
0000
,
0001
0000
0000
0000
,
0000
0000
0000
1000
,
0000
0000
0000
0010
,
0000
0000
0000
0000
,
0000
0001
0000
1000
,
1000
1000
0000
0100
,
0000
0000
0000
0100
,
0000
0000
0000
0010
,
0010
0010
0000
0100
,
0100
0100
0000
0000
,
0010
0010
0010
0010
,
0010
0010
0000
0000
,
1000
1000
1000
1000
,
1000
1000
0000
0000
,
0001
0001
0001
0001
,
0001
0001
0000
0000
,
0100
0100
0100
0100
,
0100
0100
0000
0000
,
0000
0110
0000
0110
,
0000
0110
0000
0000
,
0000
1001
0000
1001
,
0000
1001
0000
0000
,
0000
0110
0000
1001
,
0000
0110
0000
0000
,
0000
1001
0000
0110
,
0000
1001
0000
0110
;
