#TITLE:Desperado;
#SUBTITLE:;
#ARTIST:Rihanna;
#TITLETRANSLIT:;
#SUBTITLETRANSLIT:;
#ARTISTTRANSLIT:;
#GENRE:Anti;
#CREDIT:;
#BANNER:Desperado-bn.png;
#BACKGROUND:Desperado-bg.png;
#LYRICSPATH:;
#CDTITLE:;
#MUSIC:Desperado.mp3;
#OFFSET:-0.062000;
#SAMPLESTART:99.426216;
#SAMPLELENGTH:15.714287;
#LASTBEATHINT:408.000000;
#SELECTABLE:YES;
#BPMS:0.000000=189.000000
;
#STOPS:
;
#BGCHANGES:0.000=Desperado-video.avi=1.000=0=0=0=StretchNoLoop====,
99999=-nosongbg-=1.000=0=0=0 // don't automatically add -songbackground-
;
#KEYSOUNDS:;
#ATTACKS:;

//---------------dance-single - ----------------
#NOTES:
     dance-single:
     :
     Hard:
     8:
     0.473726,0.666976,0.293049,0.323897,0.000000,430.000000,392.000000,38.000000,42.000000,0.000000,0.000000,0.473726,0.666976,0.293049,0.323897,0.000000,430.000000,392.000000,38.000000,42.000000,0.000000,0.000000:
// measure 0
0000
0000
0000
0000
,  // measure 1
0000
0000
0000
0000
,  // measure 2
0000
0000
0000
0000
,  // measure 3
0000
0000
0000
0000
,  // measure 4
0000
0000
0000
0000
,  // measure 5
0000
0000
0000
0000
,  // measure 6
0110
0000
0100
0001
1000
0010
0100
0000
,  // measure 7
0000
0000
0000
0000
0010
0000
1000
0001
,  // measure 8
0100
0010
1000
0100
1000
0100
0000
0000
,  // measure 9
0010
0000
0000
0001
1000
0010
0100
0000
,  // measure 10
0000
0000
0000
0001
0100
0001
0010
0100
,  // measure 11
0010
0001
0000
0000
1100
0000
1001
0000
,  // measure 12
0010
1000
0001
0100
0001
0100
0001
0000
,  // measure 13
0000
0000
0000
0000
0010
0000
0001
1000
,  // measure 14
0100
0010
0100
1000
0100
1000
0000
0000
,  // measure 15
0010
0000
1000
0001
0100
0010
0100
0001
,  // measure 16
1000
0010
0000
0000
1000
0000
0100
0010
,  // measure 17
0001
1000
0100
0010
0100
0010
0001
1000
,  // measure 18
0200
0000
0000
0310
,  // measure 19
0001
2000
0000
3001
2000
0000
3000
0000
,  // measure 20
1010
1001
0101
1001
,  // measure 21
0110
0000
0001
0000
1000
0000
0100
0010
,  // measure 22
0100
0110
0001
1000
,  // measure 23
0010
0110
1000
0001
,  // measure 24
2000
0000
0000
3100
,  // measure 25
0010
0200
0000
0310
0002
0000
0000
0000
,  // measure 26
0000
0000
1003
0001
0100
0000
0010
0000
,  // measure 27
1000
0000
0100
0000
0010
0000
0001
1000
,  // measure 28
0010
0110
1000
0001
,  // measure 29
0100
0010
0100
0000
0001
0000
1000
0001
,  // measure 30
1000
0000
0100
0010
0100
0010
2002
0000
,  // measure 31
0000
0000
3003
0000
0010
0001
1000
0100
,  // measure 32
1000
0100
1000
0010
0200
0000
0300
0000
,  // measure 33
0001
0100
0001
0010
0100
0010
0002
0000
,  // measure 34
0000
0000
1003
0010
0100
0001
0100
0010
,  // measure 35
1000
0010
0100
0000
0110
0000
0101
0000
,  // measure 36
1000
0010
1000
0100
1000
0100
2000
0000
,  // measure 37
0000
0000
0000
0000
3001
0010
0001
0100
,  // measure 38
0001
0100
0001
0000
0101
0000
1001
0000
,  // measure 39
0001
0010
0001
0100
0001
0100
0001
0000
,  // measure 40
0101
0000
1001
0000
1000
0010
1000
0100
,  // measure 41
0010
0100
0010
0001
1000
0010
0100
0001
,  // measure 42
1000
0000
0001
1000
0100
0010
0100
0000
,  // measure 43
0000
0000
0110
0000
1001
0000
0010
1000
,  // measure 44
0001
0100
0020
0000
0030
0000
0101
0000
,  // measure 45
1010
0202
0303
1001
,  // measure 46
0000
0000
0100
0000
1010
0000
1000
0100
,  // measure 47
0010
0001
1000
0001
1000
0001
1000
0001
,  // measure 48
1000
0000
0010
0100
0010
1000
0001
0000
,  // measure 49
0000
0000
0101
0000
1001
0000
0100
1000
,  // measure 50
0001
0010
0200
0000
0300
0000
1100
0000
,  // measure 51
0011
2200
3300
1001
,  // measure 52
0000
0000
0010
0000
1000
0000
0001
0100
,  // measure 53
0010
1000
0001
1000
0001
1000
0001
1000
,  // measure 54
0100
0000
0000
0000
,  // measure 55
0000
0000
0000
0000
,  // measure 56
0000
0000
0000
0000
,  // measure 57
0000
0000
0000
0000
,  // measure 58
0000
0000
0000
0000
,  // measure 59
0000
0000
0000
0000
,  // measure 60
0000
0000
0000
0000
,  // measure 61
0000
0000
0000
0000
,  // measure 62
0000
0000
0000
0000
,  // measure 63
0000
0000
0000
0000
,  // measure 64
0000
0000
0000
0000
,  // measure 65
0000
0000
0000
0000
,  // measure 66
0000
0000
0001
0100
0002
0000
0000
0000
,  // measure 67
0000
0000
0000
0000
1003
0010
2000
0000
,  // measure 68
0000
0000
3100
1000
0200
0000
0000
0000
,  // measure 69
0310
0100
0020
0000
0000
0000
0000
0000
,  // measure 70
0000
0000
0031
0010
0001
0100
0002
0000
,  // measure 71
0000
0000
0000
0000
1003
0010
1000
0000
,  // measure 72
1000
0001
2000
0000
3100
0000
0000
0000
,  // measure 73
0000
0000
0000
0000
0001
0010
0002
0000
,  // measure 74
0203
1000
0010
0301
,  // measure 75
1000
0010
2000
0000
3200
0000
0001
0000
,  // measure 76
0010
0000
1300
0000
0010
1000
0002
0000
,  // measure 77
0000
1003
0001
0100
0010
1000
0001
1000
,  // measure 78
0100
0000
0010
0001
1000
0100
0020
0000
,  // measure 79
0000
0000
0000
0000
0031
1000
0010
0100
,  // measure 80
0001
0100
0010
1000
0002
0000
0000
0000
,  // measure 81
1003
0010
0100
0001
0100
0001
0200
0000
,  // measure 82
0000
0000
0310
1000
0100
0010
0001
1000
,  // measure 83
0001
1000
0100
0000
1100
0000
1001
0000
,  // measure 84
1000
0010
0200
0000
0301
0000
0101
0000
,  // measure 85
0000
0000
1000
0000
0001
0010
0100
1000
,  // measure 86
0010
0100
0001
0000
0110
0000
1001
0000
,  // measure 87
0001
0010
0100
1000
0010
0100
0001
0000
,  // measure 88
0110
0000
1001
0000
0100
0010
1000
0100
,  // measure 89
1000
0100
1000
0010
0100
0001
0100
0001
,  // measure 90
2000
0000
0000
0100
,  // measure 91
0010
3001
0002
0100
,  // measure 92
0000
0010
0100
1003
,  // measure 93
2000
0100
0000
0100
,  // measure 94
0010
0001
3002
0100
,  // measure 95
0000
0100
0010
1003
,  // measure 96
2000
0010
0000
0001
,  // measure 97
0100
0010
3002
0100
,  // measure 98
0000
1000
0100
0010
,  // measure 99
2000
0000
0003
0200
,  // measure 100
0000
0300
0002
0000
,  // measure 101
3000
0020
0000
0033
;

//---------------dance-single - ----------------
#NOTES:
     dance-single:
     :
     Medium:
     6:
     0.318388,0.588509,0.231355,0.208219,0.000000,289.000000,259.000000,30.000000,27.000000,0.000000,0.000000,0.318388,0.588509,0.231355,0.208219,0.000000,289.000000,259.000000,30.000000,27.000000,0.000000,0.000000:
// measure 0
0000
0000
0000
0000
,  // measure 1
0000
0000
0000
0000
,  // measure 2
0000
0000
0000
0000
,  // measure 3
0000
0000
0000
0000
,  // measure 4
0000
0000
0000
0000
,  // measure 5
0000
0000
0000
0000
,  // measure 6
1000
0100
0010
1001
,  // measure 7
0000
0010
0010
0001
,  // measure 8
0100
0010
1000
0100
,  // measure 9
0010
0100
0010
1001
,  // measure 10
0000
0000
0010
0001
,  // measure 11
1000
0010
0100
0100
,  // measure 12
0010
1000
0100
1010
,  // measure 13
0000
0000
0100
1000
,  // measure 14
0010
0101
0000
0000
,  // measure 15
0010
0001
1000
0011
,  // measure 16
0000
0000
0001
1000
,  // measure 17
0010
0100
0001
1000
,  // measure 18
0010
0100
0010
1000
,  // measure 19
0000
0100
0000
0000
0001
0000
0010
0000
,  // measure 20
0100
1000
0001
0100
,  // measure 21
0010
1000
0001
0100
,  // measure 22
0000
0000
0010
1000
,  // measure 23
0100
0010
0001
1000
,  // measure 24
0010
0100
0001
0010
,  // measure 25
0000
0100
0000
0000
1000
0000
0010
0000
,  // measure 26
0100
0001
1000
0100
,  // measure 27
0010
0001
0100
0010
,  // measure 28
0000
0000
1000
0010
,  // measure 29
0100
0001
0010
0100
,  // measure 30
1000
0001
0100
1001
,  // measure 31
0000
0000
0010
0100
,  // measure 32
0010
1001
0100
0000
,  // measure 33
0010
0100
0010
1001
,  // measure 34
0000
0100
0010
0100
,  // measure 35
0010
1001
0100
0100
,  // measure 36
0001
1000
0001
1001
,  // measure 37
0000
0000
1000
0001
,  // measure 38
1000
1001
0110
1001
,  // measure 39
0001
1000
0001
1001
,  // measure 40
0110
1001
0100
0010
,  // measure 41
0100
0010
1000
0001
,  // measure 42
0200
0000
0000
0000
,  // measure 43
0000
0000
0000
0000
,  // measure 44
0310
2002
3003
0100
,  // measure 45
0010
0200
0000
0310
,  // measure 46
0000
0000
1000
0001
,  // measure 47
0100
0010
0100
0010
,  // measure 48
0200
0000
0000
0000
,  // measure 49
0000
0000
0000
0000
,  // measure 50
0310
2002
3003
0100
,  // measure 51
0010
0100
0000
1001
,  // measure 52
0000
0000
0010
0000
,  // measure 53
0000
1000
0100
0010
,  // measure 54
0001
0000
0000
0000
,  // measure 55
0000
0000
0000
0000
,  // measure 56
0000
0000
0000
0000
,  // measure 57
0000
0000
0000
0000
,  // measure 58
0000
0000
0000
0000
,  // measure 59
0000
0000
0000
0000
,  // measure 60
0000
0000
0000
0000
,  // measure 61
0000
0000
0000
0000
,  // measure 62
0000
0000
0000
0000
,  // measure 63
0000
0000
0000
0000
,  // measure 64
0000
0000
0000
0000
,  // measure 65
0000
0000
0000
0000
,  // measure 66
0000
1000
0020
0000
,  // measure 67
0000
0000
0130
0002
,  // measure 68
0000
0013
0200
0000
,  // measure 69
1300
0002
0000
0000
,  // measure 70
0000
0103
0010
2000
,  // measure 71
0000
0000
0010
3010
,  // measure 72
0100
0001
1000
0020
,  // measure 73
0000
0000
1030
0001
,  // measure 74
0100
0010
0100
0010
,  // measure 75
1000
0001
0100
0010
,  // measure 76
0100
0010
1000
0001
,  // measure 77
0100
0010
0100
0010
,  // measure 78
1000
0100
0010
2002
,  // measure 79
0000
3003
0010
1000
,  // measure 80
0100
1001
0100
0010
,  // measure 81
1000
0010
0100
2002
,  // measure 82
3003
0010
0100
0001
,  // measure 83
1000
1001
0100
0100
,  // measure 84
0010
0100
0010
2002
,  // measure 85
0000
3003
0001
0100
,  // measure 86
0010
1001
0110
1001
,  // measure 87
1000
0100
0010
1001
,  // measure 88
0110
1001
0010
1000
,  // measure 89
0100
0010
0001
0100
,  // measure 90
0020
0000
0000
1030
,  // measure 91
0100
0010
0002
0100
,  // measure 92
0000
0103
0001
0010
,  // measure 93
0200
1000
0000
1300
,  // measure 94
0010
0100
0002
0010
,  // measure 95
0000
0013
0100
1000
,  // measure 96
0020
0100
0030
0100
,  // measure 97
0001
0010
0200
1000
,  // measure 98
0300
1000
0010
0100
,  // measure 99
0002
0000
0000
1000
,  // measure 100
0000
0000
0203
0000
,  // measure 101
0000
0010
0000
0300
;

//---------------dance-single - ----------------
#NOTES:
     dance-single:
     :
     Easy:
     3:
     0.181779,0.273288,0.030847,0.107966,0.000000,165.000000,161.000000,4.000000,14.000000,0.000000,0.000000,0.181779,0.273288,0.030847,0.107966,0.000000,165.000000,161.000000,4.000000,14.000000,0.000000,0.000000:
// measure 0
0000
0000
0000
0000
,  // measure 1
0000
0000
0000
0000
,  // measure 2
0000
0000
0000
0000
,  // measure 3
0000
0000
0000
0000
,  // measure 4
0000
0000
0000
0000
,  // measure 5
0000
0000
0000
0000
,  // measure 6
0020
0000
0000
0000
,  // measure 7
0000
1000
2030
0000
,  // measure 8
0000
3002
0000
0000
,  // measure 9
0203
0000
0000
0000
,  // measure 10
0000
0010
0320
0000
,  // measure 11
0000
2030
0000
0000
,  // measure 12
3200
0000
0000
0000
,  // measure 13
0000
0010
0320
0000
,  // measure 14
0000
0032
0000
0000
,  // measure 15
2003
0000
0000
0000
,  // measure 16
0000
0010
3020
0000
,  // measure 17
0000
0230
0000
0000
,  // measure 18
0302
0000
0000
0000
,  // measure 19
0000
1000
0003
0000
1001
0000
0000
0000
,  // measure 20
1000
1000
0000
0000
,  // measure 21
0001
0100
0001
0100
,  // measure 22
0000
0000
0010
0000
,  // measure 23
0000
1000
0000
0000
,  // measure 24
0200
0000
0000
0000
,  // measure 25
0000
0010
0300
0000
0110
0000
0000
0000
,  // measure 26
0000
0001
0100
0001
,  // measure 27
0100
0000
0000
0010
,  // measure 28
0000
0000
1000
0000
,  // measure 29
0000
0100
0010
0100
,  // measure 30
0010
0100
0100
0100
,  // measure 31
0000
0000
1000
0001
,  // measure 32
0000
0100
0010
0000
,  // measure 33
1000
0010
0000
0000
,  // measure 34
0000
0001
0100
0001
,  // measure 35
0000
0000
1000
1000
,  // measure 36
0001
0100
0001
0000
,  // measure 37
0000
0000
1000
0010
,  // measure 38
1000
0100
0000
0000
,  // measure 39
0010
0100
0010
0001
,  // measure 40
0000
0000
1000
0000
,  // measure 41
0000
0010
1000
0001
,  // measure 42
0100
0000
0000
0000
,  // measure 43
0000
0000
0000
0000
,  // measure 44
0010
1001
0000
0100
,  // measure 45
0010
0100
0000
0000
,  // measure 46
0000
0000
0000
0000
,  // measure 47
0000
0001
0010
0100
,  // measure 48
1000
0000
0000
0000
,  // measure 49
0000
0000
0000
0000
,  // measure 50
0010
1001
0000
0100
,  // measure 51
0010
0100
0000
0000
,  // measure 52
0000
0000
0000
0000
,  // measure 53
0000
0010
1000
0001
,  // measure 54
0100
0000
0000
0000
,  // measure 55
0000
0000
0000
0000
,  // measure 56
0000
0000
0000
0000
,  // measure 57
0000
0000
0000
0000
,  // measure 58
0000
0000
0000
0000
,  // measure 59
0000
0000
0000
0000
,  // measure 60
0000
0000
0000
0000
,  // measure 61
0000
0000
0000
0000
,  // measure 62
0000
0000
0000
0000
,  // measure 63
0000
0000
0000
0000
,  // measure 64
0000
0000
0000
0000
,  // measure 65
0000
0000
0000
0000
,  // measure 66
0000
1000
0010
0000
,  // measure 67
0000
0000
0100
0001
,  // measure 68
0000
0010
0100
0000
,  // measure 69
1000
0001
0000
0000
,  // measure 70
0000
0100
0010
1000
,  // measure 71
0000
0000
0010
0010
,  // measure 72
0100
0100
0000
0000
,  // measure 73
0000
0000
0001
0001
,  // measure 74
0001
1000
0000
0000
,  // measure 75
0100
0100
0100
0010
,  // measure 76
0000
0000
0001
0000
,  // measure 77
0000
1000
0001
1000
,  // measure 78
0001
0100
0100
0010
,  // measure 79
0000
0000
1000
0010
,  // measure 80
0010
0100
0000
0000
,  // measure 81
0001
0010
0010
0100
,  // measure 82
0000
0000
1000
0100
,  // measure 83
0100
0010
0000
0000
,  // measure 84
0001
1000
0010
0000
,  // measure 85
0000
0000
1000
0001
,  // measure 86
1000
0001
0000
0000
,  // measure 87
0100
0010
0100
0010
,  // measure 88
0000
0000
1000
0010
,  // measure 89
0000
1000
0001
0000
,  // measure 90
0100
0000
0000
0010
,  // measure 91
0000
0000
0100
0000
,  // measure 92
0000
0010
0000
0000
,  // measure 93
0100
0000
0000
0010
,  // measure 94
0000
0000
0100
0000
,  // measure 95
0000
0010
0000
0000
,  // measure 96
1000
0000
0000
0010
,  // measure 97
0000
0000
0001
0000
,  // measure 98
0000
0010
0000
0000
,  // measure 99
0100
0000
0000
0000
,  // measure 100
0000
0000
1000
0000
,  // measure 101
0000
0001
0000
0000
;

//---------------dance-single - ----------------
#NOTES:
     dance-single:
     :
     Beginner:
     2:
     0.105762,0.190868,0.000000,0.000000,0.000000,96.000000,96.000000,0.000000,0.000000,0.000000,0.000000,0.105762,0.190868,0.000000,0.000000,0.000000,96.000000,96.000000,0.000000,0.000000,0.000000,0.000000:
// measure 0
0000
0000
0000
0000
,  // measure 1
0000
0000
0000
0000
,  // measure 2
0000
0000
0000
0000
,  // measure 3
0000
0000
0000
0000
,  // measure 4
0000
0000
0000
0000
,  // measure 5
0000
0000
0000
0000
,  // measure 6
0010
0000
0000
0000
,  // measure 7
0000
0000
1000
0000
,  // measure 8
0000
0100
0000
0000
,  // measure 9
1000
0000
0000
0000
,  // measure 10
0000
0000
0100
0000
,  // measure 11
0000
0010
0000
0000
,  // measure 12
0100
0000
0000
0000
,  // measure 13
0000
0000
0010
0000
,  // measure 14
0000
0001
0000
0000
,  // measure 15
0010
0000
0000
0000
,  // measure 16
0000
0000
0001
0000
,  // measure 17
0000
1000
0000
0000
,  // measure 18
0001
0000
0000
0000
,  // measure 19
0000
0000
0100
0000
,  // measure 20
0000
0010
0000
0000
,  // measure 21
1000
0000
0000
0100
,  // measure 22
0000
0000
0010
0000
,  // measure 23
0000
0001
0000
0000
,  // measure 24
0100
0000
0000
0000
,  // measure 25
0000
0000
0010
0000
,  // measure 26
0000
1000
0000
0000
,  // measure 27
0001
0000
0000
0010
,  // measure 28
0000
0000
0100
0000
,  // measure 29
0000
1000
0000
0000
,  // measure 30
0001
0000
0000
0100
,  // measure 31
0000
0000
0010
0000
,  // measure 32
0000
1000
0000
0000
,  // measure 33
0100
0000
0000
0010
,  // measure 34
0000
0000
0001
0000
,  // measure 35
0000
1000
0000
0000
,  // measure 36
0010
0000
0000
1000
,  // measure 37
0000
0000
0100
0000
,  // measure 38
0000
0010
0000
0000
,  // measure 39
1000
0000
0000
0001
,  // measure 40
0000
0000
0010
0000
,  // measure 41
0000
0100
0000
0000
,  // measure 42
0010
0000
0000
0000
,  // measure 43
0000
0000
0000
0000
,  // measure 44
0001
0001
0000
0001
,  // measure 45
0001
0001
0000
0000
,  // measure 46
0000
0000
0000
0000
,  // measure 47
0000
0010
0000
0000
,  // measure 48
0100
0000
0000
0000
,  // measure 49
0000
0000
0000
0000
,  // measure 50
1000
1000
0000
1000
,  // measure 51
1000
1000
0000
0000
,  // measure 52
0000
0000
0010
0000
,  // measure 53
0000
0100
0000
0000
,  // measure 54
0010
0000
0000
0000
,  // measure 55
0000
0000
0000
0000
,  // measure 56
0000
0000
0000
0000
,  // measure 57
0000
0000
0000
0000
,  // measure 58
0000
0000
0000
0000
,  // measure 59
0000
0000
0000
0000
,  // measure 60
0000
0000
0000
0000
,  // measure 61
0000
0000
0000
0000
,  // measure 62
0000
0000
0000
0000
,  // measure 63
0000
0000
0000
0000
,  // measure 64
0000
0000
0000
0000
,  // measure 65
0000
0000
0000
0000
,  // measure 66
0001
0000
0000
0000
,  // measure 67
0000
0000
1000
0000
,  // measure 68
0000
0100
0000
0000
,  // measure 69
1000
0000
0000
0000
,  // measure 70
0000
0000
0010
0000
,  // measure 71
0000
0100
0000
0000
,  // measure 72
0010
0000
0000
0000
,  // measure 73
0000
0000
1000
0000
,  // measure 74
0000
0001
0000
0000
,  // measure 75
1000
0000
0000
0000
,  // measure 76
0000
0000
0100
0000
,  // measure 77
0000
0010
0000
0000
,  // measure 78
0001
0000
0000
1000
,  // measure 79
0000
0000
0100
0000
,  // measure 80
0000
0010
0000
0000
,  // measure 81
0001
0000
0000
1000
,  // measure 82
0000
0000
0010
0000
,  // measure 83
0000
0100
0000
0000
,  // measure 84
0010
0000
0000
1000
,  // measure 85
0000
0000
0010
0000
,  // measure 86
0000
0001
0000
0000
,  // measure 87
0010
0000
0000
1000
,  // measure 88
0000
0000
0010
0000
,  // measure 89
0000
0100
0000
0000
,  // measure 90
0001
0000
0000
0000
,  // measure 91
0000
0000
1000
0000
,  // measure 92
0000
0010
0000
0000
,  // measure 93
1000
0000
0000
0000
,  // measure 94
0000
0000
0001
0000
,  // measure 95
0000
0100
0000
0000
,  // measure 96
0001
0000
0000
0000
,  // measure 97
0000
0000
1000
0000
,  // measure 98
0000
0100
0000
0000
,  // measure 99
1000
0000
0000
0000
;
