#TITLE:Despacito;
#SUBTITLE:(R-MIXER Remix);
#ARTIST:Luis Fonsi ft. Daddy Yankee;
#TITLETRANSLIT:;
#SUBTITLETRANSLIT:;
#ARTISTTRANSLIT:;
#GENRE:Despacito;
#CREDIT:;
#BANNER:Despacito (R-MIXER Remix)-bn.png;
#BACKGROUND:Despacito (R-MIXER Remix)-bg.png;
#LYRICSPATH:;
#CDTITLE:;
#MUSIC:Despacito (R-MIXER Remix).mp3;
#OFFSET:-0.024000;
#SAMPLESTART:46.768494;
#SAMPLELENGTH:19.200008;
#LASTBEATHINT:179.500000;
#SELECTABLE:YES;
#BPMS:0.000000=100.000000
,78.000000=50.000000
,79.000000=100.000000
,93.000000=50.000000
,94.000000=100.000000
,108.000000=50.000000
,109.000000=100.000000
,139.000000=50.000000
,148.000000=100.000000
,178.000000=50.000000
;
#STOPS:
;
#BGCHANGES:-0.250=Despacito (R-MIXER Remix).avi=1.000=0=0=0=StretchNoLoop====,
99999=-nosongbg-=1.000=0=0=0 // don't automatically add -songbackground-
;
#KEYSOUNDS:;
#ATTACKS:;

//---------------dance-single - ----------------
#NOTES:
     dance-single:
     :
     Hard:
     8:
     0.398333,0.457142,0.068008,0.170020,0.331540,328.000000,320.000000,8.000000,20.000000,0.000000,0.000000,0.398333,0.457142,0.068008,0.170020,0.331540,328.000000,320.000000,8.000000,20.000000,0.000000,0.000000:
0000
0000
0000
0000
,
0000
0000
0000
0000
,
0000
0000
0000
0000
,
0000
0000
0000
0000
,
0002
1000
0000
1000
0000
1000
0000
1003
,
0200
0010
0000
0010
0000
0010
0000
0310
,
0001
0000
0100
0000
0001
0000
0100
0000
1000
0000
0010
0000
1000
0000
0010
0200
,
0000
0000
0000
0000
0000
0000
0000
0300
,
0002
0000
0000
0010
0000
0000
1003
0000
0200
0000
0000
1000
0000
0000
0310
0000
,
0002
0000
0000
0100
0000
0000
1003
0000
0020
0000
0000
0100
0000
0000
0130
0000
,
0002
0000
1003
0000
0020
0000
0031
0000
2000
0000
3100
0000
0002
0000
1003
0100
,
0000
0000
0000
0000
0000
0000
0010
0000
0100
0000
0000
0001
1000
0000
0001
0000
,
1000
0000
0000
0010
1000
0000
0010
0000
0100
0000
0000
0001
1000
0000
0001
0000
,
0010
0000
0000
0001
0010
0000
0001
0000
1000
0000
0000
0100
0010
0000
0001
0000
,
1000
0000
0000
0100
1000
0000
0010
0000
0100
0000
0000
0001
1000
0000
0001
0000
,
0010
0000
0000
0100
1000
0000
0010
0000
0100
0000
0000
0001
0010
0000
0100
0000
,
0010
0000
0000
0001
1000
0000
0001
0000
0100
0000
0000
0010
1000
0000
0100
0000
,
0010
0000
0000
0100
1000
0000
0001
0000
0100
0000
0000
0010
1000
0000
0001
0000
,
0010
0000
0000
0100
1000
0000
0001
0000
0100
0000
0000
0010
1000
0000
0010
0000
,
0100
0000
0000
0001
0010
0000
0100
0000
1000
0000
1000
0000
2002
0000
3003
0000
,
0001
0100
0001
0000
1000
0010
1000
0000
0100
0000
0100
0010
0000
0100
0000
0000
,
0010
0001
0010
0000
0001
1000
0001
0000
0100
0000
0100
0001
0000
1000
0000
0000
,
0010
1000
0010
0000
1000
0100
1000
0000
0100
0000
0100
0010
0000
0001
0000
0000
,
0000
0000
0000
0000
1000
0000
0001
0000
2002
0000
3003
0000
0010
1000
0010
0000
,
1000
0001
1000
0000
0001
0000
0010
0001
0000
0010
0000
0000
0001
0100
0001
0000
,
1000
0100
1000
0000
0001
0000
1000
0001
0000
1000
0000
0000
0010
0100
0010
0000
,
1000
0001
1000
0000
0100
0010
0000
0001
0000
1000
0000
0000
0000
0000
0000
0000
,
2002
0000
3003
0000
0010
0000
0000
1000
0010
0000
1000
0000
0001
0000
0000
0100
,
0001
0100
0010
1000
1100
0000
1000
0001
,
0100
0001
1000
0001
0101
0000
0001
1000
,
0010
1000
0001
1000
0010
0010
0100
0100
,
0001
0000
1000
0000
0100
0000
0000
1000
0100
0000
1000
0000
0001
0000
0000
0010
,
0001
0010
0100
1000
1001
0000
1000
0001
,
0100
0010
1000
0001
0101
0000
0001
0010
,
0100
1000
0010
0100
0001
0000
1000
0001
,
2000
0100
0000
0100
0000
0100
0000
3100
0002
1000
0000
1000
0000
1000
0000
1003
,
0020
0100
0000
0100
0000
0100
0000
0130
0000
0000
0000
0000
0000
0000
0010
0010
,
1000
0000
0100
0000
1000
0100
1000
0100
1000
0000
1000
0000
0001
0010
0001
0010
,
0001
0000
0001
0100
0010
0000
0010
0100
0010
0000
0100
0000
1000
0000
0001
0000
,
0100
0010
0110
0000
0001
1000
0010
0100
,
0001
0000
1000
0000
0001
0000
0001
0000
1000
0000
1000
0000
0010
0000
0010
0100
,
0010
0000
1000
0000
1000
0100
1000
0100
1000
0000
1000
0000
0001
0100
0001
0100
,
0001
0000
0010
0001
0010
0000
0100
1000
0100
0000
0010
0000
0001
0000
1000
0000
,
0100
0010
0001
0000
1000
0010
0001
0010
,
1000
0000
0100
0000
0010
0000
0000
0000
0001
0000
1000
0000
0001
0100
0000
0000
;

//---------------dance-single - ----------------
#NOTES:
     dance-single:
     :
     Challenge:
     10:
     0.518562,0.876189,0.110513,0.297536,0.867104,427.000000,414.000000,13.000000,35.000000,0.000000,0.000000,0.518562,0.876189,0.110513,0.297536,0.867104,427.000000,414.000000,13.000000,35.000000,0.000000,0.000000:
0000
0000
0000
0000
,
0000
0000
0000
0000
,
0000
0000
0000
0000
,
0000
0000
0000
0000
,
0002
0000
0000
0000
0000
0000
0000
0000
0000
0000
0000
0000
0003
0000
0000
1000
0000
0000
0010
0000
0000
0100
0000
0000
0001
0000
0000
0000
0010
0000
0000
0000
0100
0000
0000
0000
1000
0000
0000
0000
0001
0000
0000
0000
0100
0000
0000
0000
,
0010
0000
0000
1000
0000
0000
0100
0000
0000
0000
0000
0000
0000
0000
0000
0000
,
0002
0000
0103
0000
2000
0000
3001
0000
0020
0000
1030
0000
0002
0000
1003
0100
,
0000
0000
0000
0000
,
0020
0000
0000
0000
0000
0000
0000
0000
0000
0030
0000
0000
0000
0000
0000
0100
0000
0000
0001
0000
0000
0010
0000
0000
0100
0000
0000
0000
1000
0000
0000
0000
0010
0000
0000
0000
0100
0000
0000
0000
0001
0000
0000
0000
1000
0000
0000
0000
,
0100
0000
1000
0001
0000
1000
0010
0000
0100
0000
0000
0001
0000
0000
1000
0000
,
0002
0000
1003
0000
0020
0000
0031
0000
0200
0000
1300
0000
0002
0000
1003
0010
,
0000
0000
0000
0100
0001
0000
1000
0000
0100
0000
0000
1000
0001
0000
1000
0000
,
0200
0000
0000
0000
0000
0000
0000
0000
0310
0000
0001
0000
0100
0000
0010
0000
0100
0000
0001
0000
1000
0000
0000
0010
0000
0000
0100
0000
0000
0001
0000
0000
,
0020
0000
0000
0000
0000
0000
0000
0000
0130
0000
1000
0000
0001
0000
0100
0000
0010
0000
1000
0000
0100
0000
0000
0010
0000
0000
0001
0000
0000
1000
0000
0000
,
0200
0000
0000
0000
0000
0000
0000
0000
0000
0000
0000
0000
1300
0000
0000
0001
0000
0000
1000
0000
0000
0001
0000
0000
0100
0000
0000
0000
0001
0000
0000
0000
0100
0000
0000
0000
0001
0000
0000
0010
0000
0000
0000
0000
0000
0100
0000
0000
,
0000
2000
0000
0000
0000
0000
3000
0000
0010
0000
0000
1000
0100
0000
0010
0000
,
0002
0000
0000
0000
1003
0010
0100
0001
1000
0001
0100
0001
0000
0001
1000
0000
,
0200
0000
0000
0000
0310
0001
0100
0001
1000
0010
1000
0100
0010
0000
0001
2000
,
0000
0000
0000
0000
3100
1000
0001
0100
0001
0010
0001
1000
0010
0000
1000
0100
,
0000
0020
0000
0000
0000
0000
0000
0000
0031
0000
1000
0000
1001
0000
0100
0000
,
0001
1000
0100
0010
0001
0100
0010
1000
0100
0000
0001
1000
0000
0100
0000
0000
,
0010
0001
0100
0001
1000
0010
1000
0100
0010
0000
0001
1000
0000
0100
0000
0000
,
1000
0010
0100
0001
1000
0001
0100
0010
1000
0000
0100
0010
0000
0002
0000
0000
,
0000
0000
0000
0000
0103
0000
0010
0000
0110
0000
1000
0000
0010
1000
0100
1000
,
0001
0000
0010
0001
0010
0000
0001
0000
0100
0000
0000
0000
1000
0000
0001
0000
0000
0000
0100
0000
0000
0000
0000
0000
0010
0000
1000
0000
0100
0000
1000
0000
,
0001
0000
0100
0000
0010
0000
1000
0000
0100
0000
0000
0000
0001
0000
1000
0000
0000
0000
0010
0000
0000
0000
0000
0000
0001
0000
1000
0010
1000
0000
0001
0000
,
0100
0010
1000
0100
0010
0001
0000
1000
0000
0200
0000
0000
0000
0000
0000
0000
,
0300
0000
0000
0000
0000
0000
0000
0000
0001
0000
0010
0000
0100
0000
1000
0000
0010
0000
0000
0000
0001
0000
0000
0010
0000
0000
1000
0000
0010
0000
0100
0000
,
0000
0000
0001
0000
0000
1000
0000
0000
0020
0000
0000
0000
0200
0000
0000
0000
0330
0000
0000
0000
0000
0000
0000
0000
0001
0000
0100
0000
0001
0000
1000
0000
,
0000
0010
1000
0100
0000
2002
0000
0000
0000
0000
3003
0000
1000
0100
1000
0100
,
0000
0010
0001
0100
0000
2002
0000
3003
0001
1000
0001
1000
0010
0100
0010
0100
,
0001
0000
0000
0000
1000
0000
0000
0000
0100
0000
0010
0000
0001
0000
0100
0000
0010
0000
1000
0000
0200
0000
0000
0000
0000
0000
0310
0000
0001
0000
0000
1000
,
0000
0000
0010
0000
0000
0100
0000
0000
0002
0000
0000
0000
2000
0000
0000
0000
3003
0000
0000
0000
0000
0000
0000
0000
0001
0000
0100
0000
0010
0000
1000
0000
,
0100
0000
0010
0001
0000
2002
0000
0000
0000
0000
3003
0000
0010
1000
0100
1000
,
0000
0001
0010
0100
0000
2000
0000
0000
0000
0000
0000
0000
3001
0000
1000
0000
,
0001
0000
0000
0000
0100
0000
0000
0000
0010
0000
1000
0000
0010
0000
1000
0000
0100
0000
1000
0000
0100
0000
1000
0000
0001
0000
0000
0000
0010
0000
0100
0000
0000
0000
0010
0000
0000
0000
0000
0000
0001
0000
1000
0000
0001
0000
1000
0000
0010
0000
0100
0000
0010
0000
0000
0100
0000
0000
0001
0000
1000
0000
0010
0000
,
0000
0100
0000
0000
0001
0010
0001
0010
0100
1000
0100
1000
0010
0100
0000
0001
0000
1000
0000
0000
0000
0000
0000
0000
1001
0000
0001
0010
0100
0000
0100
1000
,
0001
0000
0101
0000
1000
0010
0100
0001
0010
0000
0110
0000
0001
0100
0001
1000
,
0010
0000
0001
1000
0100
0000
0001
1000
0010
0000
0110
0000
1000
0100
0001
0100
,
0000
1000
0010
1000
0000
0001
0100
0001
1000
0010
1000
0100
0000
0010
0001
0100
,
0000
1001
0000
0000
0001
1000
0001
1000
0010
0100
0010
0100
0001
0000
0001
1000
,
0100
0000
0110
0000
0100
1000
0001
0100
0001
0000
1001
0000
0001
0010
0100
1000
,
0010
0000
0000
0000
0010
0000
0001
0000
0010
0000
0000
0000
0010
0000
1000
0000
0100
0000
0010
0000
0001
0000
0100
0000
0001
0000
0000
0100
0000
0000
0010
0000
,
0000
2002
0000
0000
0000
0000
3003
0000
0001
0010
0100
1000
0000
0010
0100
0010
,
0000
2000
0000
0000
0000
0000
0000
0000
3001
0000
1000
0000
0001
0100
0000
0000
;

//---------------dance-single - ----------------
#NOTES:
     dance-single:
     :
     Medium:
     6:
     0.280534,0.323809,0.034004,0.068008,0.004251,231.000000,227.000000,4.000000,8.000000,0.000000,0.000000,0.280534,0.323809,0.034004,0.068008,0.004251,231.000000,227.000000,4.000000,8.000000,0.000000,0.000000:
0000
0000
0000
0000
,
0000
0000
0000
0000
,
0000
0000
0000
0000
,
0000
0000
0000
0000
,
0202
0303
1000
0001
,
0010
0100
2000
3000
,
0010
1000
0010
0000
1000
0001
0100
0000
,
0020
0030
0000
0000
,
2020
3030
0100
0001
,
0010
0100
2000
3000
,
0001
1000
0001
0000
0010
0001
1000
0000
,
0200
0300
0010
0001
,
1000
0000
0001
0100
0001
0000
1000
0010
,
1000
0000
0100
1000
0100
0000
0010
0001
,
0010
0000
0001
1000
0001
0000
0100
0010
,
0100
0000
0010
1000
0010
0000
1000
0100
,
0010
0000
0010
0001
1000
0000
0001
1000
,
0100
0000
1000
0001
1000
0000
0010
0100
,
0001
0000
1000
0001
1000
0000
0001
0100
,
0010
1000
0001
1001
,
0001
0100
0001
0100
0010
1000
0100
0000
,
1000
0100
1000
0100
1000
0100
0010
0000
,
0010
0001
0010
1000
0010
0001
0100
0010
,
0100
0000
0010
0000
1001
0000
1000
0001
,
1000
0100
1000
0100
1000
0000
0001
1000
,
0001
0010
0001
1000
0001
0000
1000
0001
,
1000
0010
1000
0100
1000
0001
1000
0000
,
0001
0000
0010
0100
0010
0000
0001
0100
,
1000
0010
0100
0001
,
1000
0000
0100
0010
0001
0000
1000
0010
,
0100
0000
0001
1000
0100
0000
0010
0000
,
0100
0000
1000
0001
0100
0000
0001
0100
,
0001
1000
0001
0010
,
0100
0000
1000
0001
0100
0000
1000
0001
,
1000
0000
0001
1000
0100
0000
0001
1000
,
0001
0010
1000
0010
0001
0100
1000
0100
,
0001
0010
0100
1000
0010
0100
0001
0000
,
1000
0000
0001
1000
0010
0000
1000
0100
,
0010
0001
0100
0010
0100
0000
0010
0000
,
1000
0001
0100
0000
0010
1000
0010
0000
,
0100
0001
0100
0000
0001
0000
1000
0000
,
0100
0000
0010
0100
1000
0000
0001
0010
,
0100
1000
0010
0100
0001
0000
1000
0000
,
0001
0100
0001
0000
1000
0010
1000
0000
,
0100
0000
0000
0000
0010
0000
0000
0000
0001
0000
1000
0000
0001
0100
0000
0000
;

//---------------dance-single - ----------------
#NOTES:
     dance-single:
     :
     Easy:
     4:
     0.210097,0.247619,0.000000,0.051006,0.004251,173.000000,173.000000,0.000000,6.000000,0.000000,0.000000,0.210097,0.247619,0.000000,0.051006,0.004251,173.000000,173.000000,0.000000,6.000000,0.000000,0.000000:
// measure 0
0000
0000
0000
0000
,  // measure 1
0000
0000
0000
0000
,  // measure 2
0000
0000
0000
0000
,  // measure 3
0000
0000
0000
0000
,  // measure 4
0020
0030
1000
0100
,  // measure 5
0010
0001
0200
0300
,  // measure 6
0001
0010
0100
1000
,  // measure 7
0002
0000
0003
0000
,  // measure 8
0020
0030
0001
1000
,  // measure 9
0100
0010
0002
0003
,  // measure 10
1000
0010
0100
0001
,  // measure 11
0020
0000
0030
0000
,  // measure 12
0100
1000
0001
0100
,  // measure 13
0010
1000
0100
0010
,  // measure 14
0100
1000
0001
0010
,  // measure 15
0100
1000
0001
0001
,  // measure 16
0100
0010
1000
0100
,  // measure 17
0010
0001
1000
0010
,  // measure 18
0100
0001
0010
0100
,  // measure 19
1000
1000
0001
0001
,  // measure 20
1000
0000
0100
0000
0100
0010
0100
0000
,  // measure 21
0010
0000
0001
0000
1000
0001
1000
0000
,  // measure 22
0010
0000
0100
0000
0001
1000
0001
0000
,  // measure 23
0010
0100
1000
0001
,  // measure 24
0100
0000
0010
0100
0010
0000
1000
0000
,  // measure 25
0100
0000
0010
0100
0010
0000
0001
0000
,  // measure 26
1000
0000
0100
0010
0100
0000
1000
0000
,  // measure 27
0001
0001
0001
1000
,  // measure 28
1000
0010
0100
0001
,  // measure 29
1000
0010
0100
0001
,  // measure 30
1000
0010
0100
0001
,  // measure 31
1000
0001
0001
1000
,  // measure 32
1000
0000
0010
0000
0100
0000
0001
0001
,  // measure 33
0001
0000
1000
1000
1000
0000
0010
0010
,  // measure 34
0010
0000
0100
0100
0100
0000
0001
0000
,  // measure 35
1000
0100
0001
0100
,  // measure 36
1000
0100
1000
0000
0001
0100
0001
0000
,  // measure 37
0010
0000
0010
0000
1000
0000
0001
1000
,  // measure 38
0001
0000
0010
0000
0100
0000
1000
0001
,  // measure 39
1000
0000
0010
0000
0100
0000
0001
1000
,  // measure 40
0001
0010
0100
1000
,  // measure 41
0010
0000
0100
0000
0001
0000
1000
0001
,  // measure 42
1000
0000
0100
0010
0100
0000
0010
0000
,  // measure 43
0001
0001
1000
0010
,  // measure 44
0100
0000
0000
0000
0100
0000
0000
0000
0001
0000
1000
0000
0001
0100
0000
0000
;

//---------------dance-single - ----------------
#NOTES:
     dance-single:
     :
     Beginner:
     1:
     0.123872,0.170233,0.000000,0.000000,0.000000,102.000000,102.000000,0.000000,0.000000,0.000000,0.000000,0.123872,0.170233,0.000000,0.000000,0.000000,102.000000,102.000000,0.000000,0.000000,0.000000,0.000000:
// measure 0
0000
0000
0000
0000
,  // measure 1
0000
0000
0000
0000
,  // measure 2
0000
0000
0000
0000
,  // measure 3
0000
0000
0000
0000
,  // measure 4
0010
0000
1000
1000
,  // measure 5
1000
0000
0100
0000
,  // measure 6
0010
0000
0001
0000
,  // measure 7
0100
0000
0000
0000
,  // measure 8
0001
0000
0010
0010
,  // measure 9
0010
0000
0100
0000
,  // measure 10
1000
0000
0010
0000
,  // measure 11
0100
0000
0000
0000
,  // measure 12
0001
0000
0010
0010
,  // measure 13
0010
0000
0100
0100
,  // measure 14
0100
0000
0010
0010
,  // measure 15
0010
0000
0100
0000
,  // measure 16
1000
0000
0010
0010
,  // measure 17
0010
0000
0100
0100
,  // measure 18
0100
0000
0010
0010
,  // measure 19
0010
0000
0100
0000
,  // measure 20
0001
0000
1000
0000
,  // measure 21
0001
0000
1000
0000
,  // measure 22
0010
0000
0001
0000
,  // measure 23
0100
0100
0000
1000
,  // measure 24
0000
0100
0000
0001
,  // measure 25
0000
0010
0000
1000
,  // measure 26
0000
0100
0000
0010
,  // measure 27
0010
0000
0001
0000
,  // measure 28
1000
0000
1000
1000
,  // measure 29
1000
0000
0010
0000
,  // measure 30
0001
0001
0001
0001
,  // measure 31
0001
0001
0000
1000
,  // measure 32
0000
0100
0000
0010
,  // measure 33
0010
0010
0000
0001
,  // measure 34
0001
0001
0000
1000
,  // measure 35
1000
0100
1000
0001
,  // measure 36
0100
0001
1000
0100
,  // measure 37
1000
0000
0001
0000
,  // measure 38
1000
1000
1000
0000
,  // measure 39
0001
0000
0100
0000
,  // measure 40
0001
0000
0010
0010
,  // measure 41
0010
0000
0100
0000
,  // measure 42
1000
1000
1000
0000
,  // measure 43
0001
0000
0100
0000
,  // measure 44
0010
0000
1000
0000
;
