#VERSION:0.83;
#TITLE:Delicate;
#SUBTITLE:;
#ARTIST:Taylor Swift;
#TITLETRANSLIT:;
#SUBTITLETRANSLIT:;
#ARTISTTRANSLIT:;
#GENRE:reputation;
#ORIGIN:;
#CREDIT:;
#BANNER:Delicate-bn.png;
#BACKGROUND:Delicate-bg.png;
#PREVIEWVID:Delicate-preview.avi;
#JACKET:Delicate-jacket.png;
#CDIMAGE:;
#DISCIMAGE:Black.png;
#LYRICSPATH:;
#CDTITLE:;
#MUSIC:Delicate.mp3;
#OFFSET:-0.002006;
#SAMPLESTART:103.277061;
#SAMPLELENGTH:20.210526;
#SELECTABLE:YES;
#DISPLAYBPM:95.000000;
#BPMS:0.000=95.000,
159.000=70.000,
159.250=52.000,
159.500=95.000;
#STOPS:159.500=1.708;
#DELAYS:;
#WARPS:;
#TIMESIGNATURES:0.000=4=4;
#TICKCOUNTS:0.000=2;
#COMBOS:0.000=1;
#SPEEDS:0.000=1.000=0.000=0;
#SCROLLS:0.000=1.000;
#FAKES:;
#LABELS:0.000=Song Start;
#LASTSECONDHINT:145.297058;
#BGCHANGES:0.000=Delicate-video.avi=1.000=1=0=0=StretchNoLoop==CrossFade==,
99999=-nosongbg-=1.000=0=0=0 // don't automatically add -songbackground-
;
#KEYSOUNDS:;
#ATTACKS:
;

//---------------dance-single - ----------------
#NOTEDATA:;
#CHARTNAME:;
#STEPSTYPE:dance-single;
#DESCRIPTION:;
#CHARTSTYLE:;
#DIFFICULTY:Challenge;
#METER:9;
#RADARVALUES:0.465642,0.510016,0.332048,0.047435,0.382872,481.000000,432.000000,49.000000,7.000000,0.000000,0.000000,0.000000,0.000000,0.000000,0.465642,0.510016,0.332048,0.047435,0.382872,481.000000,432.000000,49.000000,7.000000,0.000000,0.000000,0.000000,0.000000,0.000000;
#CREDIT:;
#DISPLAYBPM:95.000000;
#NOTES:
0000
0000
0000
0000
,
0000
0000
0000
0000
,
0000
0000
0000
0000
,
0000
0000
0000
0000
,
0000
0000
0000
0000
0000
0001
1000
0000
0020
0000
0000
0000
0000
0000
0000
0000
,
1030
0001
1000
0001
1000
0000
0010
0000
0100
0000
0010
0000
0200
0000
0000
0000
,
0000
0000
0000
0301
1000
0001
1000
0000
0001
0000
0010
0000
0100
0000
0000
0000
,
0000
0000
0000
0000
,
1000
0000
0001
0000
0100
0001
1000
0000
0010
0000
1000
0001
0100
0000
0000
0000
,
0001
0000
0010
0000
0100
1000
0010
0000
0100
0000
0010
1000
0100
0000
0000
0000
,
0010
0000
0001
0000
0100
0010
1000
0000
0001
0000
1000
0010
0100
0000
0000
0000
,
0101
0000
0000
0001
1000
0000
0001
0000
0100
0000
0000
0001
1000
0000
0001
0000
,
0100
0000
0010
0000
1000
0100
0010
0000
0001
0000
1000
0100
0010
0000
0000
0000
,
0001
0000
1000
0000
0010
1000
0100
0000
0010
0000
0001
0100
0010
0000
0000
0000
,
1000
0000
0001
0000
0100
0010
1000
0000
0001
0000
0010
0100
1000
0000
0000
0000
,
1100
0000
0000
0001
0100
0000
0001
0000
1000
0000
0100
1000
0001
0000
1000
0000
,
0010
0000
0000
0100
0110
0100
0001
1000
0010
0000
0000
1000
0001
0000
1000
0000
,
0100
0000
0010
0001
0011
0000
0001
0000
1000
0100
1000
0000
1100
0000
0010
0000
,
0100
0000
0000
0001
0101
0100
0001
0000
1000
0000
0010
0000
0110
0000
0000
0000
,
0001
0000
0000
1000
0100
0000
0010
0000
0001
0000
1000
0010
0200
0000
0010
0000
,
0301
0000
0000
0000
1001
0010
0100
0000
0010
0000
0000
1000
1001
0000
0001
0000
,
0010
0001
1000
0001
0011
0000
0001
0000
0100
0000
0010
0000
0110
0000
0000
0000
,
1000
0000
0000
0010
1010
1000
0010
0000
1000
0000
0001
0000
1001
0000
0000
0000
,
0011
0000
0000
0000
1010
0000
0000
0000
0110
0000
0000
0000
1001
0000
0100
0001
,
1000
0000
0010
1000
0100
0000
0010
0000
0002
0000
0000
0000
0003
0000
1000
0001
,
1000
0000
0010
1000
0010
0000
0100
0000
0002
0000
0000
0000
0003
0000
1000
0100
,
0010
0000
0001
0010
0100
0000
1000
0000
0002
0000
0000
0000
0003
0000
0000
0000
,
0000
0000
0000
0000
0000
0000
0000
0000
1000
0010
0100
0000
0001
0010
0100
0000
,
1100
0010
0100
0000
0101
0000
0000
0000
1100
0000
0000
0000
0101
0010
0100
0000
,
1100
0000
0000
0000
0101
0000
0000
0000
1100
0010
0100
0000
0101
0010
0100
0000
,
1100
0010
0100
0000
0101
0000
0000
0000
1010
0000
0000
0000
0101
1000
0100
0000
,
0010
0001
1001
0010
0200
0000
0310
0000
,
1000
0000
0010
0000
0010
0100
0000
0100
1000
0000
1000
0100
0000
0100
0001
0000
,
0001
0010
0000
0010
1000
0000
1000
0010
0000
0000
0010
0000
0100
0000
1000
0000
,
0000
0000
0001
0000
0010
0001
0000
0001
1000
0000
0010
1000
0000
1000
0001
0000
,
0100
0001
0000
0001
1000
0000
0100
0010
0000
0000
1000
0000
0010
0000
0001
0000
,
1000
0000
0001
0100
0000
0001
1000
0000
0010
0000
1000
0001
0000
0000
0010
0000
,
0001
1000
0000
0010
1000
0000
1000
0001
0000
0000
0100
0100
0000
0000
0010
0000
,
1000
0000
0100
1000
0000
0001
1000
0000
0001
0000
0100
0001
0000
0000
1001
0000
,
1000
0000
0010
1000
0000
0001
1000
0000
0001
0000
0010
0100
0000
0000
0000
0000
,
0000
0000
1000
0100
0010
0000
0001
1000
0010
0000
0100
0000
0001
0000
0000
0000
,
0101
0000
0001
0010
0100
0000
1000
0010
0100
0000
0001
0000
1000
0000
0000
0000
,
1001
0000
1000
0010
0100
0000
0010
1000
0001
0000
0010
0000
0100
0000
0000
0000
,
1001
0000
0000
0000
0100
0000
0000
0000
0010
0000
0001
0000
0100
0000
0010
1000
,
0010
0000
1000
0001
0010
0000
0001
1000
0100
0000
0010
0000
0100
0000
0000
0000
,
1100
0000
1000
0001
0100
0000
0010
0100
0001
0000
1000
0000
0010
0000
0000
0000
,
0110
0000
1000
0001
0010
0000
0001
1000
0100
0000
0010
0000
0100
0000
0000
0000
,
1001
0000
0000
0000
0010
0000
0000
0000
1001
0000
0100
0000
0001
0000
1000
0010
,
0100
0000
0001
0010
0100
0000
0010
0001
1001
0000
0001
0000
1000
0000
0000
0000
,
1100
0010
0100
0001
0100
0000
0010
1000
0100
0000
0010
0000
0001
1000
0100
0000
,
1100
0010
0100
0001
1000
0000
0010
1000
0001
0000
0010
0000
0100
0000
0000
0000
,
0101
0010
0100
0000
1000
0000
0000
0000
1010
0000
1001
0000
1100
0000
0010
0100
,
0001
0000
0100
0010
1000
0000
0001
0100
0010
0000
1000
0000
0100
0000
0000
0000
,
0110
1000
0010
0100
0001
0000
0010
0100
1000
0000
0001
0000
0101
0010
0100
0000
,
1100
0010
0100
0001
1000
0000
0001
0010
0100
0000
1000
0000
0001
0000
0000
0000
,
1100
0010
0100
0000
0000
0000
0000
0000
0001
0000
0010
0000
1000
0000
0000
0000
;

//---------------dance-single - ----------------
#NOTEDATA:;
#CHARTNAME:;
#STEPSTYPE:dance-single;
#DESCRIPTION:;
#CHARTSTYLE:;
#DIFFICULTY:Hard;
#METER:7;
#RADARVALUES:0.326240,0.396679,0.121977,0.115200,0.149083,337.000000,319.000000,18.000000,17.000000,0.000000,0.000000,0.000000,0.000000,0.000000,0.326240,0.396679,0.121977,0.115200,0.149083,337.000000,319.000000,18.000000,17.000000,0.000000,0.000000,0.000000,0.000000,0.000000;
#CREDIT:;
#DISPLAYBPM:95.000000;
#NOTES:
0000
0000
0000
0000
,
0000
0000
0000
0000
,
0000
0000
0000
0000
,
0000
0000
0000
0000
,
0000
0000
0000
1000
0002
0000
0003
0000
,
0100
0010
0100
0000
0001
0000
1000
0000
0100
0000
0100
0000
0020
0000
0000
0000
,
0000
0000
0031
1000
0100
0010
0100
0000
,
0000
0000
0000
0000
,
1000
0000
0010
0000
0010
0000
0000
0000
0001
0000
0100
0001
0100
0000
0000
0000
,
0010
0000
1000
0000
1000
0000
0000
0000
0100
0000
1000
0100
1000
0000
0000
0000
,
0001
0000
0000
0000
0010
0000
0000
0000
1000
0000
0001
1000
0001
0000
0000
0000
,
0100
0010
0100
0010
,
1000
0000
0001
0000
0100
0000
0000
0000
0010
0000
0100
0001
0100
0000
0000
0000
,
0001
0000
1000
0000
0100
0000
0000
0000
0010
0000
0001
0010
0001
0000
0000
0000
,
1000
0000
0000
0000
0001
0000
0000
0000
0100
0000
0010
0100
0010
0000
0000
0000
,
1000
0000
0001
0000
0010
0100
1000
0000
,
2100
0000
0010
0100
3100
0000
1001
0000
,
0001
0010
1000
0010
0001
0100
0001
0020
,
0000
0030
0001
1000
0010
0100
1001
0000
,
0100
0000
1001
0000
0100
0010
1000
0001
,
0102
0000
0010
0100
0103
0000
1001
0000
,
1000
0100
0001
0100
1000
0001
0100
0000
,
0001
0000
1000
0010
0100
0001
1001
0000
,
0010
0000
1100
0000
0100
0000
1001
1000
,
0001
0100
0010
1000
0200
0000
0300
1000
,
1000
0001
0100
0010
0200
0000
0300
0001
,
0001
0010
0100
1000
0002
0000
0003
0000
,
0000
0000
0000
0000
0000
0000
0000
0000
1000
0001
1000
0000
0001
1000
0001
0000
,
1000
0001
2000
0000
0100
0000
0000
0000
3000
0000
0000
0000
0001
1000
0002
0000
,
0000
0000
0000
0000
1000
0000
0003
0000
0100
0001
0100
0000
0010
1000
0010
0000
,
0100
0001
0200
0000
0010
0000
0000
0000
0300
0000
0000
0000
1000
0100
2000
0000
,
0000
3000
0001
0010
1000
0000
1001
0000
,
0001
0000
1000
0000
0000
0010
0000
0000
0100
0000
0000
0001
0000
0000
0010
0000
,
0000
0100
0000
0000
1000
0000
0000
0020
0000
0000
0000
0000
0130
0000
0000
0000
,
0001
0000
1000
0000
0000
0100
0000
0000
0010
0000
0000
0001
0000
0000
0100
0000
,
0000
0010
0000
0000
0100
0000
0000
0002
0000
0000
0000
0000
1003
0000
0000
0000
,
0010
0000
1000
0000
0000
0100
0000
0000
0001
0000
0000
0100
0000
0000
1000
0000
,
0000
0001
0000
0000
0100
0000
0000
0010
0000
0000
2000
0000
0000
0000
0000
0000
,
3000
0000
0001
0000
0000
0010
0000
0000
0100
0000
0000
1000
0000
0000
0001
0000
,
0000
0000
1000
0000
0000
0100
0000
0000
0001
0000
0000
0010
0000
0000
0000
0000
,
0000
1000
1000
0100
0001
0100
0010
0000
,
0011
0001
0100
1000
0100
0001
1000
0000
,
1100
1000
0010
0001
0010
1000
0100
0000
,
0110
0000
0000
0000
0001
0000
0000
0000
0011
0000
0001
0000
0100
0000
0010
1000
,
0010
0100
0100
0001
1000
0100
0010
0000
,
0110
0100
1000
0001
0100
0001
1000
0000
,
1001
1000
0100
0010
0100
1000
0010
0000
,
1010
0000
0000
0000
0100
0000
0000
0000
0110
0000
0001
0000
0010
0000
0001
1000
,
0001
0100
0100
0010
1000
0100
1000
0000
,
0001
1000
0001
0000
0010
0000
0001
0000
0100
0000
0010
0000
0100
0001
0100
0000
,
0010
1000
0010
0000
0100
0000
0001
0000
1000
0000
0100
0000
0010
0000
0000
0000
,
0001
1000
0002
0000
0000
0000
0003
0000
0010
0000
0001
0000
0100
0000
0001
0100
,
0001
0000
1000
0000
0100
0000
1000
0100
1000
0000
0001
0000
1000
0000
0000
0000
,
0010
1000
0010
0000
0100
0000
0001
1000
0001
0000
0100
0000
0010
0100
0010
0000
,
1000
0001
1000
0000
0100
0000
1000
0000
0010
0000
0100
0000
0001
0000
0000
0000
,
1000
0001
2000
0000
0000
0000
3000
0000
0001
0000
0010
0000
1000
0000
0000
0000
;

//---------------dance-single - ----------------
#NOTEDATA:;
#CHARTNAME:;
#STEPSTYPE:dance-single;
#DESCRIPTION:;
#CHARTSTYLE:;
#DIFFICULTY:Medium;
#METER:5;
#RADARVALUES:0.233305,0.302231,0.115200,0.142306,0.054212,241.000000,224.000000,17.000000,21.000000,0.000000,0.000000,0.000000,0.000000,0.000000,0.233305,0.302231,0.115200,0.142306,0.054212,241.000000,224.000000,17.000000,21.000000,0.000000,0.000000,0.000000,0.000000,0.000000;
#CREDIT:;
#DISPLAYBPM:95.000000;
#NOTES:
0000
0000
0000
0000
,
0000
0000
0000
0000
,
0000
0000
0000
0000
,
0000
0000
0000
0000
,
0000
0000
0000
0010
0020
0000
0030
0000
,
0100
0100
0100
0000
0001
0000
2000
0000
,
3000
0000
0100
0010
0100
0010
0001
0000
,
0000
0000
0000
0000
,
1000
0000
0001
0000
1000
0010
1000
0000
,
0001
0000
1000
0000
0001
0100
0001
0000
,
1000
0000
0001
0000
0100
0010
0100
0000
,
0000
0000
0000
0000
,
0001
0000
1000
0000
0010
1000
0100
0000
,
1000
0000
0001
0000
0010
0001
0100
0000
,
0001
0000
0100
0000
0010
0100
0001
0000
,
0000
0000
0000
0000
0000
0100
0100
0000
,
0001
0100
0001
0100
0020
0000
0030
0000
,
1000
0001
1000
0001
1000
0000
0100
0000
,
0010
0000
0001
1000
0001
0000
0110
0000
,
1000
0000
0000
0000
0000
0010
0010
0000
,
1000
0000
0001
1000
0100
0000
0000
0000
,
0010
0100
0010
0100
1000
0000
1001
0000
,
0000
0000
0010
0100
0010
0100
0001
0000
,
1000
0100
0001
0100
,
1000
0000
0001
1000
0100
0000
0000
0000
,
0010
0000
1000
0001
1000
0000
0000
0000
,
0100
0000
0010
1000
0100
0000
0000
0000
,
0000
0000
0010
0010
,
0220
0330
1000
2002
,
3003
0010
0110
1001
,
0220
0330
1000
2002
,
3003
0000
0010
0001
1000
0000
0000
0000
,
0000
0000
0001
0000
0000
0001
0000
0000
1000
0000
0000
1000
0000
0000
0010
0000
,
0000
0010
0000
0000
0100
0000
0000
0100
0000
0000
0000
0000
0000
0000
0000
0000
,
0000
0000
0001
0000
0000
0001
0000
0000
0100
0000
0000
0100
0000
0000
1000
0000
,
0000
1000
0000
0000
0100
0000
0000
0100
0000
0000
0000
0000
0000
0000
0000
0000
,
0000
0000
0001
0000
0000
1000
0000
0000
0001
0000
0000
1000
0000
0000
0001
0000
,
0000
1000
0000
0000
0001
0000
0000
1000
0000
0000
0020
0000
0000
0000
0030
0000
,
0000
0000
1000
0000
0000
0001
0000
0000
1000
0000
0000
0001
0000
0000
0100
0000
,
0000
0000
0001
0000
0000
1000
0000
0000
0001
0000
0000
1000
0000
0000
0000
0000
,
0000
0000
1000
0010
1000
0010
0200
0000
,
0300
0000
0001
0100
0001
0100
0020
0000
,
0030
0000
1000
0001
1000
0001
2000
0000
,
3100
0000
0002
0000
0013
0100
1000
0000
,
0001
0000
0010
0001
1000
0001
0020
0000
,
0031
0000
1000
0001
0100
0010
0200
0000
,
0301
0000
1000
0010
1000
0100
0020
0000
,
0130
0000
1000
0000
0001
1000
0200
0000
,
0310
0000
0001
1000
0001
1000
0100
0000
,
1100
0000
0010
1000
0010
0000
0110
0000
,
1001
0000
0110
0000
0100
0001
0010
0000
,
0110
0000
0000
0000
1000
0010
0002
0000
,
0003
0000
0010
0100
0010
0100
1000
0000
,
1001
0000
0100
0010
0100
0000
0110
0000
,
1001
0000
0110
0000
0100
0001
0010
0000
,
0100
0000
0000
0000
0001
0010
1000
0000
;

//---------------dance-single - ----------------
#NOTEDATA:;
#CHARTNAME:;
#STEPSTYPE:dance-single;
#DESCRIPTION:;
#CHARTSTYLE:;
#DIFFICULTY:Easy;
#METER:2;
#RADARVALUES:0.128753,0.151116,0.013553,0.094871,0.000000,133.000000,131.000000,2.000000,14.000000,0.000000,0.000000,0.000000,0.000000,0.000000,0.128753,0.151116,0.013553,0.094871,0.000000,133.000000,131.000000,2.000000,14.000000,0.000000,0.000000,0.000000,0.000000,0.000000;
#CREDIT:;
#DISPLAYBPM:95.000000;
#NOTES:
// measure 0
0000
0000
0000
0000
,  // measure 1
0000
0000
0000
0000
,  // measure 2
0000
0000
0000
0000
,  // measure 3
0000
0000
0000
0000
,  // measure 4
0000
0000
0020
0030
,  // measure 5
0100
0000
0002
0003
,  // measure 6
0000
1000
1000
0200
,  // measure 7
0300
0000
0000
0000
,  // measure 8
0010
0000
0001
1000
,  // measure 9
0001
0000
1000
0010
,  // measure 10
1000
0000
0100
0010
,  // measure 11
0100
0000
0000
0000
,  // measure 12
1000
0000
0001
1000
,  // measure 13
0001
0000
0010
0001
,  // measure 14
0010
0000
0100
1000
,  // measure 15
0100
0000
0000
0010
,  // measure 16
0010
0001
1000
0000
,  // measure 17
0001
0001
0100
0000
,  // measure 18
0010
0000
1000
0000
,  // measure 19
0100
0000
0010
0000
,  // measure 20
0001
0000
1000
0000
,  // measure 21
0010
0100
0010
0000
,  // measure 22
1000
0000
0001
0000
,  // measure 23
0100
0000
0010
0000
,  // measure 24
1000
0100
0001
0000
,  // measure 25
1000
0100
0001
0000
,  // measure 26
1000
0100
0001
0000
,  // measure 27
0100
0000
0010
0010
,  // measure 28
2002
3003
0000
0020
,  // measure 29
0030
0000
0100
0010
,  // measure 30
0200
0300
0000
2002
,  // measure 31
3003
0010
0200
0300
,  // measure 32
0001
0001
1000
0000
,  // measure 33
0010
0000
0100
0000
,  // measure 34
0010
0010
1000
0000
,  // measure 35
0001
0000
0010
0000
,  // measure 36
0100
0100
0100
0000
,  // measure 37
1000
0000
0001
0000
,  // measure 38
0100
0100
0100
0000
,  // measure 39
0100
0100
0100
0000
,  // measure 40
0000
0001
0001
1000
,  // measure 41
0000
0010
1000
0010
,  // measure 42
0000
0100
0100
0010
,  // measure 43
0000
0000
2000
3100
,  // measure 44
0000
1000
0100
0010
,  // measure 45
0000
0001
1000
0010
,  // measure 46
0000
0100
0001
1000
,  // measure 47
0000
0000
0200
0310
,  // measure 48
0000
0001
0100
0010
,  // measure 49
0000
1000
0001
1000
,  // measure 50
0000
0100
1000
0010
,  // measure 51
0000
0000
0200
0310
,  // measure 52
0000
0100
0001
0010
,  // measure 53
0000
0001
0100
0010
,  // measure 54
0000
1000
0100
0010
,  // measure 55
0000
0000
0002
1003
;

//---------------dance-single - ----------------
#NOTEDATA:;
#CHARTNAME:;
#STEPSTYPE:dance-single;
#DESCRIPTION:;
#CHARTSTYLE:;
#DIFFICULTY:Beginner;
#METER:1;
#RADARVALUES:0.098743,0.132226,0.000000,0.000000,0.000000,102.000000,102.000000,0.000000,0.000000,0.000000,0.000000,0.000000,0.000000,0.000000,0.098743,0.132226,0.000000,0.000000,0.000000,102.000000,102.000000,0.000000,0.000000,0.000000,0.000000,0.000000,0.000000,0.000000;
#CREDIT:;
#DISPLAYBPM:95.000000;
#NOTES:
// measure 0
0000
0000
0000
0000
,  // measure 1
0000
0000
0000
0000
,  // measure 2
0000
0000
0000
0000
,  // measure 3
0000
0000
0000
0000
,  // measure 4
0000
0000
0000
0000
,  // measure 5
0000
0000
0000
0000
,  // measure 6
0000
0000
0000
0000
,  // measure 7
0000
0000
0000
0000
,  // measure 8
0010
0000
0001
0000
,  // measure 9
0100
0000
0010
0000
,  // measure 10
1000
0000
0100
0000
,  // measure 11
0010
0000
0000
0000
,  // measure 12
0001
0000
0100
0000
,  // measure 13
0010
0000
1000
0000
,  // measure 14
0100
0000
0010
0000
,  // measure 15
0001
0000
0000
0000
,  // measure 16
1000
0000
0001
0000
,  // measure 17
0100
0000
0010
0000
,  // measure 18
1000
0000
0010
0000
,  // measure 19
0100
0000
0001
0000
,  // measure 20
0010
0000
0100
0000
,  // measure 21
1000
0000
0001
0000
,  // measure 22
0100
0000
0010
0000
,  // measure 23
1000
0000
0100
0000
,  // measure 24
0010
0000
0010
0000
,  // measure 25
0001
0000
0001
0000
,  // measure 26
1000
0000
1000
0000
,  // measure 27
0100
0000
0100
0100
,  // measure 28
0100
0000
0000
0010
,  // measure 29
0000
0000
0100
0100
,  // measure 30
0100
0000
0000
1000
,  // measure 31
0000
0010
0010
0000
,  // measure 32
0001
0000
1000
0000
,  // measure 33
0010
0000
0100
0000
,  // measure 34
0010
0000
1000
0000
,  // measure 35
0001
0000
0010
0000
,  // measure 36
0100
0000
0100
0000
,  // measure 37
1000
0000
0001
0000
,  // measure 38
0100
0000
0000
0000
,  // measure 39
0100
0000
0000
0000
,  // measure 40
0000
0001
0001
0001
,  // measure 41
0000
1000
1000
1000
,  // measure 42
0000
0010
0010
0010
,  // measure 43
0000
0000
0100
0100
,  // measure 44
0000
0001
0001
0001
,  // measure 45
0000
1000
1000
1000
,  // measure 46
0000
0100
0100
0100
,  // measure 47
0000
0000
0010
0010
,  // measure 48
0000
0001
0001
0001
,  // measure 49
0000
1000
1000
1000
,  // measure 50
0000
0010
0010
0010
,  // measure 51
0000
0000
0100
0100
,  // measure 52
0000
0001
0000
0010
,  // measure 53
0000
1000
0000
0100
,  // measure 54
0000
0010
0000
0001
,  // measure 55
0000
0000
1000
1000
;
