#TITLE:Dark All Day;
#SUBTITLE:;
#ARTIST:Gunship;
#TITLETRANSLIT:;
#SUBTITLETRANSLIT:;
#ARTISTTRANSLIT:;
#GENRE:Dark All Day;
#CREDIT:;
#BANNER:Dark All Day-bn.png;
#BACKGROUND:Dark All Day-bg.png;
#LYRICSPATH:;
#CDTITLE:;
#MUSIC:Dark All Day.mp3;
#OFFSET:-0.023000;
#SAMPLESTART:85.336731;
#SAMPLELENGTH:14.222221;
#LASTBEATHINT:284.000000;
#SELECTABLE:YES;
#BPMS:0.000000=135.000000
;
#STOPS:
;
#BGCHANGES:0.000=Dark All Day-video.avi=1.000=0=0=0=StretchNoLoop====,
99999=-nosongbg-=1.000=0=0=0 // don't automatically add -songbackground-
;
#KEYSOUNDS:;
#ATTACKS:;

//---------------dance-single - ----------------
#NOTES:
     dance-single:
     :
     Hard:
     8:
     0.431731,0.503686,0.163991,0.148373,0.265509,387.000000,366.000000,21.000000,19.000000,0.000000,0.000000,0.431731,0.503686,0.163991,0.148373,0.265509,387.000000,366.000000,21.000000,19.000000,0.000000,0.000000:
0000
0000
0000
0000
,
0000
0000
0000
0000
,
0000
0000
0000
0000
,
0000
0000
0000
0000
,
0000
0000
0000
0000
,
0000
0000
0000
0000
,
0000
0000
0000
0000
,
0000
0000
0000
0000
,
0001
0001
0001
0001
0001
0001
0100
0001
,
0000
0000
0000
0000
,
1000
1000
1000
1000
1000
1000
0100
1000
,
0000
0000
0000
0000
,
0010
0010
1000
0001
1000
0100
0010
0100
,
1000
0000
0000
0000
,
0001
0001
0100
0010
0100
0001
1000
0001
,
0100
0000
0000
0000
0000
0000
0000
0010
,
2002
0000
0000
3003
,
0100
0000
0000
0000
0001
0000
0000
0000
1000
0000
0000
0000
0010
0000
0100
0001
,
0000
0000
0001
1000
0000
1000
0010
0000
0010
0100
0000
0100
0001
0000
0001
0010
,
0000
0000
0000
0000
0010
0100
0000
0100
1000
0000
1000
0001
0000
0202
0000
0000
,
0000
0000
0000
0000
0000
0000
0000
0000
0303
0000
1000
0001
1000
0000
0100
0000
,
0010
0002
0000
2003
0000
3010
0100
0001
,
0001
0000
0020
0100
0130
0000
2000
0010
,
3010
0000
0200
0001
0301
0000
1000
0010
,
2020
0000
0000
0000
0000
0000
0030
0002
,
3003
0000
0010
0001
0100
0001
0010
0100
,
1000
1010
0100
0101
,
0010
1000
0001
0100
0101
0000
1100
0000
,
1001
0000
0100
0010
0100
0001
1000
0001
,
1000
0000
0010
0000
0110
1000
0001
1000
,
0010
0000
0100
0000
1001
0000
0001
0010
,
0011
0000
1000
0020
0100
0100
0100
0100
,
0130
0001
1000
0000
0101
0000
1100
0000
,
0110
0000
0001
0100
1000
0100
0001
0010
,
0200
1300
0020
0031
,
1000
0010
1000
0100
0001
0100
1000
0001
,
2000
0000
0000
0000
3000
0000
0001
0100
0000
0100
0010
0000
0010
0100
0000
0100
,
0001
0001
0010
0100
1000
0000
0001
0000
,
1010
0100
0010
0000
0101
0010
0100
0100
,
0001
0000
1000
0000
0010
0000
0100
0000
0002
0000
0000
0000
1003
0001
1000
0001
,
1000
1000
1000
1000
1000
1000
0100
1000
,
0000
0000
0001
0100
0000
0100
0010
0000
0010
1000
0000
1000
0001
0000
0001
0010
,
0000
0000
0100
0000
1000
0100
0000
1000
0000
0001
0100
0000
0001
0000
1000
0010
,
0000
0100
0000
0001
0100
0000
0000
0010
0000
1000
0010
0000
0100
0000
0000
0000
,
0101
0001
0001
0001
0001
0001
0100
0001
,
0000
1000
0100
0001
0100
0010
0100
1000
,
0101
1100
0110
1001
,
0010
0000
1000
0000
0010
0000
0100
0000
0002
0000
0000
0000
1003
0001
1000
0001
,
1000
0000
0000
0000
0001
0100
0000
0000
0010
0000
0000
0000
1000
0001
0000
0000
,
0010
0000
0000
0000
0100
1000
0000
0000
0010
0000
0100
0000
0001
0000
1000
0000
,
0001
0000
0010
0000
0100
1000
0000
0000
1000
0000
0010
0000
0100
0001
0000
0000
,
1000
0000
0000
0000
0010
0100
0000
0000
0001
0000
0000
0000
0010
0100
0000
0000
,
1000
0000
0010
0000
0001
0010
0000
0000
0001
0000
0100
0000
1000
0100
0000
0000
,
0001
0000
0100
0000
0010
0100
0000
0000
1000
0000
0010
0000
0100
0010
0000
0000
,
1000
0000
0100
0000
0100
0010
0000
0000
0001
0000
1000
0000
0001
0100
0000
0000
,
0010
0000
1000
0000
1000
0001
0000
0001
0010
0000
0100
0000
0100
0000
0000
0000
,
1000
0000
0001
0000
0100
0001
0000
0000
1000
0000
0010
0000
1000
0100
0000
0000
,
0010
0000
0001
0000
0100
0001
0000
0000
1000
0000
0010
0000
0100
0010
0100
0000
,
0001
0000
1000
0000
0001
0100
0000
0000
0001
0000
0010
0000
0100
1000
0000
0000
,
1000
0000
0010
0000
1000
0001
0000
0000
0001
0000
0100
0000
0001
1000
0000
0000
,
0001
0000
0010
0000
0100
0000
0010
0000
0100
0000
1000
0000
0001
0100
0000
0000
,
0001
0000
0010
0000
0100
1000
0000
0000
0010
0000
1000
0000
0001
0100
0000
0000
,
0010
0000
1000
0000
1000
0001
0000
0000
0001
0000
0010
0000
0100
0010
0000
0100
,
0000
0000
0000
1000
0000
0001
0000
0000
0000
1000
0000
0000
0000
0000
0010
0000
0100
0000
0000
0000
0010
0000
0000
0000
0000
0100
0000
0001
0000
0000
0000
0200
,
0000
0000
0300
0000
;

//---------------dance-single - ----------------
#NOTES:
     dance-single:
     :
     Medium:
     6:
     0.304554,0.424814,0.163991,0.249891,0.000000,273.000000,252.000000,21.000000,32.000000,0.000000,0.000000,0.304554,0.424814,0.163991,0.249891,0.000000,273.000000,252.000000,21.000000,32.000000,0.000000,0.000000:
0000
0000
0000
0000
,
0000
0000
0000
0000
,
0000
0000
0000
0000
,
0000
0000
0000
0000
,
0000
0000
0000
0000
,
0000
0000
0000
0000
,
0000
0000
0000
0000
,
0000
0000
0000
0000
,
0000
0000
0000
0000
0000
0000
1000
0010
,
1000
0000
0000
0001
0001
0100
0000
0010
,
0000
2000
0000
0000
0000
0000
0000
0000
,
0000
3000
0000
0000
0001
0000
0020
0000
,
0000
0000
0200
0000
0000
0330
0000
0000
,
0000
0000
0000
0000
0000
0000
0000
1000
,
0001
2000
0000
0000
3000
0000
0000
0000
,
0020
0000
0000
0000
0030
0000
0000
0100
,
2002
0000
0000
0000
,
3003
0000
0020
0030
,
1000
0000
0100
0000
0001
0100
0001
1000
,
0010
0000
0100
0000
0100
0010
1000
0100
,
0020
0000
0030
0000
0010
0001
0010
0000
,
0100
0000
1000
0000
0010
0000
0100
0001
,
1000
0000
1000
0001
1000
0000
1000
0010
,
1000
0000
1000
0100
1000
0000
1000
0010
,
0220
0000
0000
0000
0000
0030
0000
0002
,
0303
1000
0001
0100
,
0020
2030
3002
0023
,
0230
0000
2300
0000
3010
1000
0100
0010
,
0200
2300
3002
0023
,
0230
0000
2300
0000
3002
0000
0013
0100
,
2000
3200
0320
0032
,
2003
0000
3002
0000
0103
0010
0100
0010
,
1000
0001
1000
0000
1000
0000
1000
0000
,
1000
0000
0010
1000
0010
0000
0100
0000
,
0001
0100
0001
0000
0010
0100
0010
0000
,
0100
1000
0100
0001
,
1000
0100
0010
0001
,
1000
0000
0010
1000
0010
0000
0100
0000
,
0001
1000
0001
0000
0010
0000
0100
0010
,
0100
0000
1000
0001
1000
0000
0010
0000
,
0120
0100
0130
0010
,
1000
0100
1000
0000
0010
1000
0010
0000
,
0100
0101
0010
0011
,
0100
0010
0100
0000
0010
0000
0100
0000
,
0010
1010
0100
1100
,
0000
0001
0100
0001
1000
0010
1000
0000
,
0110
1001
0010
0100
,
1000
0100
0010
0001
1000
0000
0001
0000
,
0100
0101
0010
1010
,
0100
1100
0010
0011
,
1000
0010
1000
0000
1000
0100
1000
0000
,
1000
0100
0001
0000
0001
0100
1000
0000
,
0010
0110
0100
1001
,
0010
1010
0100
0101
,
0010
0011
0100
1100
,
0001
0010
0001
0000
0100
1000
0100
0000
,
0001
0100
1000
0000
1000
0000
1000
0000
,
1000
0100
0001
0000
0010
0100
0010
0000
,
0001
0100
1000
0000
1000
0100
0001
0000
,
0001
0110
1000
0110
,
0001
0100
0001
0000
1000
0010
1000
0000
,
1000
0100
1000
0000
0001
0010
0001
0000
,
0001
0100
1000
0100
0001
0100
1000
0100
,
0001
0100
1000
0100
0001
0100
1000
0100
,
0001
0000
0000
0000
;

//---------------dance-single - ----------------
#NOTES:
     dance-single:
     :
     Easy:
     4:
     0.191880,0.299869,0.148373,0.406072,0.000000,172.000000,153.000000,19.000000,52.000000,0.000000,0.000000,0.191880,0.299869,0.148373,0.406072,0.000000,172.000000,153.000000,19.000000,52.000000,0.000000,0.000000:
// measure 0
0000
0000
0000
0000
,  // measure 1
0000
0000
0000
0000
,  // measure 2
0000
0000
0000
0000
,  // measure 3
0000
0000
0000
0000
,  // measure 4
0000
0000
0000
0000
,  // measure 5
0000
0000
0000
0000
,  // measure 6
0000
0000
0000
0000
,  // measure 7
0000
0000
0000
0000
,  // measure 8
2000
0000
0000
0100
,  // measure 9
3001
0000
0000
0000
,  // measure 10
0002
0000
0000
0100
,  // measure 11
1003
0000
0010
0020
,  // measure 12
0200
0000
0000
0000
0000
0330
0000
0000
,  // measure 13
0000
0000
0000
0000
,  // measure 14
2000
0000
0000
3000
,  // measure 15
0002
0000
0000
0003
,  // measure 16
2002
0000
0000
0000
,  // measure 17
3003
0000
0020
0030
,  // measure 18
1000
0100
1000
0100
,  // measure 19
0010
0001
0010
0001
,  // measure 20
0200
0000
0000
0300
,  // measure 21
0010
1000
0001
0010
,  // measure 22
0200
0300
2000
3000
,  // measure 23
0002
0003
0020
0030
,  // measure 24
0220
0000
0000
0000
,  // measure 25
0330
0001
0001
0001
,  // measure 26
0010
0100
0010
0100
,  // measure 27
1000
0100
0010
0001
,  // measure 28
1000
0100
1000
0100
,  // measure 29
0001
0100
0001
0100
,  // measure 30
1000
0001
1000
0001
,  // measure 31
0100
0010
0100
0010
,  // measure 32
1000
0001
0001
0001
,  // measure 33
0002
0000
1003
0000
,  // measure 34
0010
0100
0010
0100
,  // measure 35
0010
1000
0010
1000
,  // measure 36
0200
0300
0020
0030
,  // measure 37
0001
0100
1000
0100
,  // measure 38
0020
0000
0030
0001
,  // measure 39
2000
3000
0002
0003
,  // measure 40
2002
0000
0000
0000
,  // measure 41
3003
0010
0010
0020
,  // measure 42
0030
2000
3000
0200
,  // measure 43
0300
0002
0010
0013
,  // measure 44
0100
1000
0010
0100
,  // measure 45
0000
0001
0110
1001
,  // measure 46
0000
0010
1000
0100
,  // measure 47
0000
0001
1000
0001
,  // measure 48
2002
3003
0220
0330
,  // measure 49
1000
0010
1000
0010
,  // measure 50
2020
3030
0202
0303
,  // measure 51
0001
0010
0100
1000
,  // measure 52
0001
0010
0002
0000
,  // measure 53
1003
0100
2000
0000
,  // measure 54
3020
0000
0230
0000
,  // measure 55
0301
1000
0001
0000
,  // measure 56
1000
0001
0010
0110
,  // measure 57
0001
1000
0010
0110
,  // measure 58
1000
0001
0100
0110
,  // measure 59
0001
1000
0100
0110
,  // measure 60
0000
0001
0010
2002
,  // measure 61
3003
1000
0100
2002
,  // measure 62
3003
2020
3030
2002
,  // measure 63
3003
0202
0303
2002
,  // measure 64
3003
0000
0000
0000
;

//---------------dance-single - ----------------
#NOTES:
     dance-single:
     :
     Beginner:
     1:
     0.129408,0.174923,0.023427,0.000000,0.000000,116.000000,113.000000,3.000000,0.000000,0.000000,0.000000,0.129408,0.174923,0.023427,0.000000,0.000000,116.000000,113.000000,3.000000,0.000000,0.000000,0.000000:
// measure 0
0000
0000
0000
0000
,  // measure 1
0000
0000
0000
0000
,  // measure 2
0000
0000
0000
0000
,  // measure 3
0000
0000
0000
0000
,  // measure 4
0000
0000
0000
0000
,  // measure 5
0000
0000
0000
0000
,  // measure 6
0000
0000
0000
0000
,  // measure 7
0000
0000
0000
0000
,  // measure 8
1000
0000
0000
0100
,  // measure 9
0100
0000
0000
0000
,  // measure 10
0001
0000
0000
0010
,  // measure 11
0010
0000
0000
0000
,  // measure 12
0100
0000
0000
1000
,  // measure 13
1000
0000
0000
0000
,  // measure 14
0001
0000
0000
0100
,  // measure 15
0100
0000
0000
0000
,  // measure 16
1001
0000
0000
0000
,  // measure 17
0000
0000
0010
0000
,  // measure 18
1000
0000
0010
0000
,  // measure 19
0001
0000
0010
0000
,  // measure 20
0100
0000
0000
0000
,  // measure 21
1000
0000
0100
0000
,  // measure 22
0001
0000
0100
0000
,  // measure 23
1000
0000
0010
0000
,  // measure 24
0010
0000
0000
0000
,  // measure 25
0001
0000
0010
0000
,  // measure 26
0100
0000
1000
0000
,  // measure 27
0100
0000
0001
0000
,  // measure 28
1000
0000
0010
0000
,  // measure 29
0100
0000
0001
0000
,  // measure 30
0010
0000
0100
0000
,  // measure 31
1000
0000
0001
0000
,  // measure 32
0100
0000
0100
0000
,  // measure 33
0100
0000
0010
0000
,  // measure 34
1000
0000
0100
0000
,  // measure 35
0010
0000
0001
0000
,  // measure 36
1000
0000
0001
0000
,  // measure 37
0010
0000
0100
0000
,  // measure 38
1000
0000
0001
0000
,  // measure 39
0100
0000
0010
0000
,  // measure 40
1001
0000
0000
0000
,  // measure 41
0010
0000
1000
0000
,  // measure 42
0100
0000
0001
0000
,  // measure 43
0100
0000
1000
0000
,  // measure 44
0010
0000
0000
0000
,  // measure 45
0000
0100
0100
0100
,  // measure 46
0100
0000
0001
0000
,  // measure 47
1000
0000
0010
0000
,  // measure 48
1001
0000
0000
1000
,  // measure 49
0000
0010
0000
0100
,  // measure 50
0000
0001
0000
0010
,  // measure 51
0000
0100
0000
1000
,  // measure 52
1000
1000
0000
0001
,  // measure 53
0001
0001
0000
0100
,  // measure 54
0100
0000
0010
0000
,  // measure 55
1000
1000
1000
0000
,  // measure 56
0001
0001
0000
0010
,  // measure 57
0000
0100
0000
1000
,  // measure 58
1000
1000
0000
0010
,  // measure 59
0000
0100
0000
0001
,  // measure 60
0000
0010
0010
0010
,  // measure 61
0000
1000
1000
1000
,  // measure 62
0000
0001
0000
0100
,  // measure 63
0100
0100
0100
0100
,  // measure 64
0100
0000
0000
0000
;
