#VERSION:0.83;
#TITLE:Cure For Me;
#SUBTITLE:;
#ARTIST:Aurora;
#TITLETRANSLIT:;
#SUBTITLETRANSLIT:;
#ARTISTTRANSLIT:;
#GENRE:The Gods We Can Touch;
#ORIGIN:;
#CREDIT:[Ness];
#BANNER:Cure For Me.png;
#BACKGROUND:Cure For Me-bg.png;
#PREVIEWVID:Cure For Me-preview.avi;
#JACKET:Cure For Me-jacket.png;
#CDIMAGE:;
#DISCIMAGE:;
#LYRICSPATH:Cure For Me.lrc;
#CDTITLE:;
#MUSIC:Cure For Me.mp3;
#OFFSET:-0.015000;
#SAMPLESTART:39.337280;
#SAMPLELENGTH:16.551727;
#SELECTABLE:YES;
#BPMS:0.000=116.000;
#STOPS:;
#DELAYS:;
#WARPS:;
#TIMESIGNATURES:0.000=4=4;
#TICKCOUNTS:0.000=2;
#COMBOS:0.000=1;
#SPEEDS:0.000=1.000=0.000=0;
#SCROLLS:0.000=1.000;
#FAKES:;
#LABELS:0.000=Song Start;
#LASTSECONDHINT:143.840042;
#BGCHANGES:0.000=Cure For Me.avi=1.000=1=0=1===CrossFade==,
99999=-nosongbg-=1.000=0=0=0 // don't automatically add -songbackground-
;
#KEYSOUNDS:;
#ATTACKS:
;

//---------------dance-single - ----------------
#NOTEDATA:;
#CHARTNAME:;
#STEPSTYPE:dance-single;
#DESCRIPTION:;
#CHARTSTYLE:;
#DIFFICULTY:Challenge;
#METER:10;
#RADARVALUES:0.547255,0.615225,0.172247,0.241146,0.768224,556.000000,531.000000,25.000000,35.000000,15.000000,0.000000,0.000000,0.000000,0.000000,0.547255,0.615225,0.172247,0.241146,0.768224,556.000000,531.000000,25.000000,35.000000,15.000000,0.000000,0.000000,0.000000,0.000000;
#CREDIT:;
#NOTES:
0000
0000
0000
0000
,
0000
0000
0000
0000
,
0000
0000
0000
0000
,
0000
0000
0000
0000
0000
0000
0000
0001
,
0020
0000
M000
0001
0030
0000
0100
0000
2000
0000
00M0
0100
3000
0000
0001
0000
,
0200
0000
000M
0010
0300
0000
1000
0000
0002
0010
0M00
1000
0003
0000
0100
0000
,
0020
0000
M000
0001
0030
0000
1000
0000
0200
0000
000M
0010
0300
0000
2000
0000
,
0000
0000
30M1
0000
0100
0000
0000
0000
0000
10M1
0000
01M1
0000
11M0
0000
0000
,
0020
0000
000M
1000
0030
0000
0100
0000
0002
0000
0M00
1000
0003
0000
0010
0000
,
0200
0000
M000
0001
0300
0000
0010
0000
0002
1000
00M0
0100
0003
0000
0010
0000
,
0200
0000
000M
0000
0300
0000
1000
0100
2000
0000
0000
0000
3001
0000
0200
0000
,
0000
0020
0000
0000
0000
0000
0330
0000
,
1001
0000
0000
0000
0110
0000
0000
0000
1001
0000
0000
0010
0000
1000
0000
1000
,
0001
0000
0000
0000
0010
0000
0100
0000
0010
0000
0001
0100
0000
0010
0000
1000
,
0001
0000
0000
0000
0101
0000
0000
0000
1100
0000
0000
0010
0000
0100
0000
0010
,
0100
0000
0000
0000
0001
0000
1000
0000
0100
0000
0010
0100
0000
0200
0000
0000
,
1300
0000
0100
0000
0010
0000
0002
0100
0000
0100
0000
0100
0000
0103
0000
0001
,
0010
0000
0001
0000
0100
0000
1000
0000
0020
0000
0000
0100
0030
0100
0000
0100
,
0001
0000
0000
0001
1000
0000
0000
1000
0010
0000
0000
0100
0000
0001
0000
1000
,
0100
0010
0000
0000
1000
0010
0000
0000
0011
0000
0000
0000
1010
0000
0000
0000
,
0001
0000
0100
0000
0010
0000
1000
0100
0000
1000
0000
0001
0000
0100
0000
0010
,
1000
0000
0100
0000
0010
0000
0001
0100
0000
0001
0000
0010
0001
1000
0000
0001
,
0100
0000
0010
0000
1000
0000
0100
1000
0000
0001
0000
0100
0000
0010
1000
0100
,
0010
0001
0000
0000
1000
0010
0000
0000
0011
0000
0000
0000
1010
0000
0000
0000
,
0001
0000
1000
0000
0010
0000
0100
0001
0000
1000
0000
0100
0000
0010
0000
0001
,
0100
0000
0001
0000
1000
0000
0100
0010
0000
0100
0000
1000
0001
0100
0000
0010
,
1000
0000
0100
0000
0010
0000
0001
0100
0000
0001
0000
1000
0000
0100
0010
0001
,
0100
0010
0000
0000
1000
0001
0000
0000
1100
0000
0000
0000
0101
0000
0000
0000
,
1000
0000
0001
0000
0100
0010
1000
0001
0000
0010
0000
0100
0000
0010
0000
0001
,
0100
0000
0001
0000
1000
0100
0010
0001
0000
1000
0000
0010
0100
0001
0000
1000
,
0100
0000
0010
0000
0001
1000
0001
0100
0000
0010
0000
1000
0000
0100
0000
0010
,
0100
0000
1000
0000
0001
0010
0100
1000
0000
0001
0000
0100
0000
0010
0000
0100
,
0001
0000
1000
0000
0100
0000
0001
1000
0000
0100
0000
0001
0000
1000
0000
0001
,
1000
0000
0010
0000
0001
0000
1000
0001
0000
0010
0000
1000
0000
1000
0000
0001
,
0100
0000
0010
0000
1000
0000
0100
1000
0000
0001
0000
0100
0000
0010
0000
1000
,
0100
0000
0010
0000
0001
0000
1000
0100
0000
0001
0000
0100
0000
1000
0000
0001
,
0000
0200
0010
0000
0000
0000
0310
1000
,
0100
0001
0100
1000
0010
0000
0110
0000
,
0002
0000
1000
0013
0000
1010
0001
0010
,
0000
1000
0001
0100
0000
1000
0001
0200
,
0000
0000
0301
0000
1000
0000
0001
0010
,
0001
0100
1000
0100
0001
1000
0100
0010
,
0002
0000
1000
0103
0000
0110
0000
1001
,
0000
0200
0000
0000
0300
0000
0000
0000
,
2200
0000
3300
0002
0000
2003
0000
3010
,
0100
0001
1000
0100
0020
0000
0031
1000
,
0200
0000
1300
0001
0000
1010
0000
0012
,
0000
0103
0000
0000
0000
0000
0000
0000
,
0102
0000
1003
0200
0000
0010
0300
1000
,
0100
0001
0100
1000
0010
0100
0001
1000
,
0200
0000
0310
0001
0000
0011
0000
2010
,
0000
3100
0000
0102
0000
1000
0103
0000
,
1000
0000
0001
0000
0100
0010
1000
0100
0010
0100
0000
1000
0000
0001
0010
0100
,
1000
0000
1000
0000
0100
1000
0001
0100
0010
1000
0000
0001
1000
0100
0000
0010
,
0001
0000
0010
0000
0100
1000
0001
0010
0100
0010
0000
0001
0000
0100
0010
1000
,
0100
0010
0100
0000
1000
0001
0010
0001
1000
0010
0000
0100
0001
0010
0000
0001
,
0100
0000
0010
0000
1000
0001
0010
0100
1000
0001
0000
0100
0000
0010
1000
0001
,
0010
0000
0100
0000
1000
0100
0010
0001
1000
0010
0000
0100
0001
0010
0000
0001
,
0100
0000
0010
0000
1000
0001
0100
0010
1000
0001
0000
0100
0000
0010
1000
0010
,
0100
0001
0010
0000
0001
0010
0100
1000
0001
0100
0000
0010
1000
0001
0000
0100
,
1000
0000
0001
0000
0100
0010
1000
0001
0100
0010
0000
1000
0000
0100
1000
0001
,
0100
0000
0001
0000
0010
0001
1000
0010
0100
0001
0000
1000
0001
0010
0000
0100
,
1000
0000
0100
0000
0010
0001
1000
0100
0010
0100
0000
1000
0000
0010
0100
0001
,
0010
0100
0010
0000
0001
1000
0100
1000
0001
0100
0000
0010
1000
0100
0000
1000
,
0010
0000
0100
0000
0001
1000
0100
0010
0001
1000
0000
0010
0000
0100
0001
1000
,
0100
0000
0010
0000
0001
0010
0100
1000
0001
0100
0000
0010
1000
0100
0000
1000
,
0010
0000
0100
0000
0001
1000
0010
0100
0001
1000
0000
0010
0000
0100
0001
0100
,
0010
1000
0100
0000
1000
0100
0010
0001
1000
0010
0000
0100
0001
1000
0000
0010
,
0100
0000
0001
0000
0010
0000
0000
0100
0000
0001
0000
0010
0000
0000
0000
0000
;

//---------------dance-single - ----------------
#NOTEDATA:;
#CHARTNAME:;
#STEPSTYPE:dance-single;
#DESCRIPTION:;
#CHARTSTYLE:;
#DIFFICULTY:Hard;
#METER:8;
#RADARVALUES:0.422252,0.473250,0.158468,0.268706,0.561527,429.000000,406.000000,23.000000,39.000000,0.000000,0.000000,0.000000,0.000000,0.000000,0.422252,0.473250,0.158468,0.268706,0.561527,429.000000,406.000000,23.000000,39.000000,0.000000,0.000000,0.000000,0.000000,0.000000;
#CREDIT:;
#NOTES:
0000
0000
0000
0000
,
0000
0000
0000
0000
,
0000
0000
0000
0000
,
0000
0000
0000
0000
0000
0000
0000
0010
,
0002
0000
0000
0013
0000
0000
0100
0000
2000
0000
0000
0100
3000
0000
0001
0000
,
0200
0000
0000
0010
0300
0000
1000
0000
0002
0000
0000
0010
0003
0000
0100
0000
,
0020
0000
0000
0001
0030
0000
1000
0000
0200
0000
0000
0010
0300
0000
0002
0000
,
0000
0000
1003
0000
0100
0000
0000
0000
0000
1001
0000
0100
0000
1001
0000
0000
,
0200
0000
0000
0001
0300
0000
1000
0000
0020
0000
0000
0100
0030
0000
0001
0000
,
2000
0000
0000
0100
3000
0000
0010
0000
0002
0000
0000
1000
0003
0000
0001
0000
,
0020
0000
0030
0100
2000
0000
3001
0200
,
0000
0020
0000
0000
0000
0000
0330
0000
,
1000
0000
0000
0000
0001
0000
0000
0000
1001
0000
0000
0100
0000
0001
0000
0000
,
1000
0000
0000
0000
0100
0000
0010
0000
0001
0000
1000
0100
0000
0000
0000
0000
,
0010
0000
0000
0000
0101
0000
0000
0000
1100
0000
0000
0010
0000
0100
0000
0010
,
0100
0000
0000
0000
0001
0000
1000
0000
0100
0000
0010
0001
0000
0000
0000
0000
,
2000
0000
3100
0010
0000
0002
0000
1003
,
0010
0000
1000
0000
0100
0000
1000
0000
0020
0000
0000
0100
0030
0100
0000
0100
,
0001
0000
1000
0000
0010
0000
0100
0001
,
1000
0100
0000
0000
1000
0001
0000
0000
0102
0000
0000
0000
1003
0000
0000
0000
,
0010
0000
1000
0000
0100
0000
0000
1000
0000
0001
0000
0100
0000
0010
0000
0100
,
0001
0000
0010
0000
0100
0000
0000
0010
0000
0001
0000
1000
0000
0100
0000
1000
,
0010
0000
0100
0000
0001
0000
0000
1000
0000
0100
0000
0010
0000
0100
0000
0000
,
1000
0001
0000
0000
0001
0100
0000
0000
0210
0000
0000
0000
0301
0000
0000
0000
,
0010
0000
0001
0000
1000
0000
0000
0100
0000
1000
0000
0001
0000
0100
0000
0010
,
1000
0000
0100
0000
0010
0000
0000
0100
0000
1000
0000
0001
0000
0100
0000
0001
,
1000
0000
0010
0000
0100
0000
0000
0001
0000
0010
0000
0100
0000
1000
0000
0000
,
0010
1000
0000
0000
1000
0001
0000
0000
2100
0000
0000
0000
3010
0000
0000
0000
,
0100
0000
0001
0000
1000
0000
0000
0001
0000
0100
0000
0010
0000
0100
0000
0001
,
0010
0000
0100
0000
1000
0000
0000
0100
0000
0010
0000
0100
0000
1000
0000
0001
,
0100
0000
0010
0000
1000
0000
0000
0001
0000
1000
0000
0010
0000
0100
0000
0001
,
0010
0000
0001
0000
0100
0000
0000
0001
0000
0010
0000
0100
0000
1000
0000
0010
,
0100
0000
0001
0000
1001
0000
0000
0001
0000
1000
0000
0010
0000
0100
0000
0001
,
0010
0000
0100
0000
0110
0000
0000
0001
0000
1000
0000
0100
0000
0010
0000
0001
,
0100
0000
0001
0000
1001
0000
0000
0001
0000
1000
0000
0010
0000
0100
0000
0001
,
1000
0000
0100
0000
0010
0000
0000
0001
0000
1000
0000
0010
0000
0100
0000
0010
,
0000
0200
0010
0000
0000
0000
0310
1000
,
0001
0100
0001
1000
0100
0000
0110
0000
,
0010
0000
0001
1000
0000
0000
0002
0000
,
0000
2003
0000
3200
,
0300
0000
0110
0000
0000
0000
0001
0010
,
0001
0100
1000
0100
0001
0000
0100
0010
,
2000
0000
3001
0100
0000
1001
0000
0110
,
0000
1001
0000
0000
0000
0000
0000
0000
,
0020
0000
0030
0002
0000
2003
0000
3010
,
0100
0001
1000
0100
0020
0000
0031
1000
,
0200
0000
1300
0001
0000
1010
0000
0012
,
0000
0103
0000
0000
0000
0000
0000
0000
,
0102
0000
1003
0200
0000
0010
0300
0001
,
0100
0001
0010
0001
0100
0000
0010
1000
,
0200
0000
0310
0001
0000
1001
0000
0020
,
0000
0130
0000
0002
0000
1003
0001
0000
,
0100
0000
0010
0000
1000
0000
0000
0100
0000
0010
0000
0001
0000
1000
0000
0001
,
0100
0000
0010
0000
1000
0000
0000
0100
0000
1000
0000
0001
0000
0010
0000
0000
,
0001
0000
1000
0000
0010
0000
0000
0100
0000
0001
0000
1000
0000
0100
0000
0000
,
0010
0001
0000
0000
0001
1000
0000
0000
2010
0000
0000
0000
3100
0000
0000
0000
,
1000
0000
0001
0000
0100
0000
0000
0010
0000
1000
0000
0100
0000
1000
0000
0001
,
0100
0000
0010
0000
1000
0000
0000
0001
0000
0010
0000
0001
0100
0010
0000
1000
,
0000
0000
0001
0000
0010
0000
0100
0000
1000
0000
0000
0100
0000
0010
0001
0000
,
1000
0100
0000
0000
0001
0100
0000
0000
1001
0000
0000
0000
0100
0000
0000
0000
,
0001
0000
1000
0000
0100
0000
0000
0010
0000
0100
0000
1000
0000
0001
0000
1000
,
0100
0000
0010
0000
0001
0000
0000
0100
0000
0001
0000
1000
0000
0010
0000
0100
,
0001
0000
0100
0000
0010
0000
0000
1000
0000
0100
0000
1000
0000
0010
0000
0000
,
1000
0100
0000
0000
0100
0010
0000
0000
1020
0000
0000
0000
0130
0000
0000
0000
,
0001
0000
1000
0000
0100
0000
0000
0001
0000
1000
0000
0010
0000
0100
0000
0001
,
0010
0000
0001
0000
1000
0000
0000
0010
0000
0100
0000
0000
0001
1000
0000
0010
,
0000
0000
1000
0000
0100
0000
0010
0000
0001
0000
0000
1000
0000
0010
0100
0000
,
0001
0010
0000
0000
0100
1000
0000
0001
0000
1000
0000
0010
0000
1000
0000
0100
,
1000
0000
0001
0000
0010
0000
0000
1000
0000
0001
0000
0010
0000
0000
0000
0000
;

//---------------dance-single - ----------------
#NOTEDATA:;
#CHARTNAME:;
#STEPSTYPE:dance-single;
#DESCRIPTION:;
#CHARTSTYLE:;
#DIFFICULTY:Medium;
#METER:6;
#RADARVALUES:0.320872,0.331275,0.248036,0.248036,0.017225,326.000000,290.000000,36.000000,36.000000,0.000000,0.000000,0.000000,0.000000,0.000000,0.320872,0.331275,0.248036,0.248036,0.017225,326.000000,290.000000,36.000000,36.000000,0.000000,0.000000,0.000000,0.000000,0.000000;
#CREDIT:;
#NOTES:
0000
0000
0000
0000
,
0000
0000
0000
0000
,
0000
0000
0000
0000
,
0000
0000
0000
0000
,
0002
0010
1003
0110
,
2000
0000
0100
0000
3010
0000
0001
1000
,
0200
0000
0010
0000
1000
0000
0310
0001
,
0020
0000
0000
0000
0000
0000
0000
0000
0000
0100
0000
0000
0000
0130
0000
0000
,
2000
0100
3001
0101
,
0002
0000
0010
0000
0103
0000
0001
0100
,
0020
0000
1000
0000
0100
0000
1030
0001
,
2000
0000
0100
3001
,
1001
0101
2002
3003
,
0000
0000
0010
0100
0001
1000
0010
0000
,
0110
1001
0220
0330
,
0000
0000
1000
0001
0100
0010
1000
0000
,
0002
0100
1000
0013
,
0001
0010
0001
0000
1000
0000
1100
0000
,
0020
0100
0130
0110
,
1000
0001
0100
0100
,
0010
1000
0100
0000
1000
0000
1100
0000
,
1000
0100
0010
0000
0001
0000
1001
0000
,
0001
0100
0010
0000
0100
0000
0110
0000
,
0001
1000
0010
0010
,
1000
0001
0100
0000
0001
0000
1001
0000
,
0001
0010
0100
0000
1000
0000
1100
0000
,
1000
0001
0100
0000
0010
0000
0110
0000
,
1000
0100
0001
0100
,
1000
1000
1000
0000
0001
1000
0100
0000
,
0001
0001
0001
0000
1000
0001
0100
0000
,
0010
1000
0010
0000
0100
0000
1001
0000
,
0010
1000
0100
0000
1000
0010
0001
0000
,
0010
0010
0010
0000
1000
0100
0001
0000
,
0010
0010
0010
0000
0001
0100
1000
0000
,
1000
0100
0010
0000
0001
0100
0001
0000
,
0010
0100
1000
0000
0001
1000
0010
0000
,
0000
0000
2002
0000
3003
0000
0100
0001
,
0100
2000
3010
0002
,
0103
0000
1000
0001
0000
0000
2000
0000
,
0000
3002
0000
2003
,
0000
0000
3002
0000
0000
0000
1003
0001
,
0010
0100
1000
0010
,
0100
0000
0001
0100
0000
0000
0002
0000
,
0000
2003
0000
3001
,
0200
0001
0320
1000
,
0200
0030
0320
1030
,
1000
0000
0001
1000
0000
0010
0000
0100
,
0000
0001
0000
0000
0000
0000
0000
0000
,
0020
0001
0230
1000
,
0320
0001
0230
1300
,
1010
0000
1000
0001
0000
1001
0000
0100
,
0000
0100
0000
1001
0000
0100
0100
0000
,
0001
0100
0001
0000
1000
0000
0101
0000
,
1000
0010
0100
0000
0010
0000
1100
0000
,
0100
1000
0010
0000
0100
0000
1001
0000
,
0020
0100
0130
0110
,
1000
0001
0100
0000
0001
0000
1100
0000
,
0001
0100
0010
0000
0100
0000
0011
0000
,
0010
0001
0100
0000
1000
0000
0110
0000
,
0002
1000
1003
1001
,
0010
0100
0001
0000
0010
0000
1001
0000
,
1000
0100
0001
0000
0100
0000
0110
0000
,
0001
1000
0010
0000
0100
0000
1001
0000
,
0002
0010
1003
1010
,
0100
0001
1000
0000
0100
0000
0101
0000
,
1000
0010
0100
0000
0010
0000
0011
0000
,
0100
1000
0001
0000
0100
0000
1100
0000
,
2000
0010
3001
1000
,
0100
0000
0100
0000
0100
0000
0000
0010
0000
0010
0000
0010
0000
0000
0000
0000
;

//---------------dance-single - ----------------
#NOTEDATA:;
#CHARTNAME:;
#STEPSTYPE:dance-single;
#DESCRIPTION:;
#CHARTSTYLE:;
#DIFFICULTY:Easy;
#METER:4;
#RADARVALUES:0.222445,0.236625,0.013780,0.254926,0.010335,226.000000,224.000000,2.000000,37.000000,0.000000,0.000000,0.000000,0.000000,0.000000,0.222445,0.236625,0.013780,0.254926,0.010335,226.000000,224.000000,2.000000,37.000000,0.000000,0.000000,0.000000,0.000000,0.000000;
#CREDIT:;
#NOTES:
// measure 0
0000
0000
0000
0000
,  // measure 1
0000
0000
0000
0000
,  // measure 2
0000
0000
0000
0000
,  // measure 3
0000
0000
0000
0000
,  // measure 4
2000
3001
0002
0103
,  // measure 5
2000
3100
0002
1003
,  // measure 6
2000
3010
0200
0301
,  // measure 7
0010
0000
0000
0000
0000
0000
0000
0000
0000
0220
0000
0000
0000
0330
0000
0000
,  // measure 8
0200
0301
2000
3100
,  // measure 9
0020
0031
2000
3010
,  // measure 10
0200
0000
0301
1000
,  // measure 11
0200
0000
0000
0000
,  // measure 12
0310
0001
2000
0000
,  // measure 13
3001
1000
0100
0010
,  // measure 14
0002
0100
0103
0000
,  // measure 15
0010
1000
0100
0010
,  // measure 16
0200
0000
1300
0001
,  // measure 17
1000
0100
0020
0000
,  // measure 18
0031
0100
2000
0000
,  // measure 19
3001
0001
1000
1000
,  // measure 20
0100
0001
0100
1000
,  // measure 21
0001
1000
0010
0100
,  // measure 22
0001
0010
0001
0100
,  // measure 23
1000
1000
0001
0100
,  // measure 24
0010
0100
0010
0010
,  // measure 25
0100
0010
0100
1000
,  // measure 26
0100
0001
0001
0010
,  // measure 27
1000
0010
0100
1000
,  // measure 28
1000
0100
0100
0001
,  // measure 29
1000
0100
0001
0100
,  // measure 30
1000
1000
0001
1000
,  // measure 31
0100
0001
0010
1000
,  // measure 32
0001
0001
1000
1000
,  // measure 33
0100
0001
0100
1000
,  // measure 34
0001
1000
0001
0001
,  // measure 35
1000
0010
1000
0100
,  // measure 36
0000
2000
3000
0002
,  // measure 37
0003
2000
3000
0002
,  // measure 38
0003
2000
3000
0200
,  // measure 39
0300
0002
0003
0200
,  // measure 40
0300
2000
3000
0200
,  // measure 41
0300
0020
0030
0200
,  // measure 42
0300
0020
0030
0002
,  // measure 43
0003
0200
0300
0010
,  // measure 44
1000
0200
0300
1000
,  // measure 45
1000
0001
0100
0010
,  // measure 46
1000
0010
0000
1000
,  // measure 47
0100
0000
0000
0000
,  // measure 48
0001
0010
0000
1000
,  // measure 49
0001
1000
0010
0100
,  // measure 50
0001
0010
0000
0100
,  // measure 51
1000
0000
0001
0000
,  // measure 52
1001
0010
1000
0010
,  // measure 53
0001
0100
0010
0100
,  // measure 54
0100
1000
0100
0001
,  // measure 55
0001
0010
1000
0100
,  // measure 56
0010
0100
0010
0010
,  // measure 57
1000
0010
0001
0010
,  // measure 58
0100
0100
1000
0100
,  // measure 59
0001
0100
0010
1000
,  // measure 60
0100
0010
0001
0001
,  // measure 61
1000
0001
0100
0010
,  // measure 62
1000
0100
0010
0010
,  // measure 63
0100
0100
0010
0100
,  // measure 64
1000
1000
0001
1000
,  // measure 65
0010
1000
1000
0100
,  // measure 66
0100
0001
0100
0010
,  // measure 67
0001
0001
1000
1000
,  // measure 68
0020
0000
0000
0000
0130
0000
0000
2000
0000
0000
0000
3001
0000
0000
0000
0000
;

//---------------dance-single - ----------------
#NOTEDATA:;
#CHARTNAME:;
#STEPSTYPE:dance-single;
#DESCRIPTION:;
#CHARTSTYLE:;
#DIFFICULTY:Beginner;
#METER:2;
#RADARVALUES:0.145672,0.187405,0.027560,0.055119,0.000000,148.000000,144.000000,4.000000,8.000000,0.000000,0.000000,0.000000,0.000000,0.000000,0.145672,0.187405,0.027560,0.055119,0.000000,148.000000,144.000000,4.000000,8.000000,0.000000,0.000000,0.000000,0.000000,0.000000;
#CREDIT:;
#NOTES:
// measure 0
0000
0000
0000
0000
,  // measure 1
0000
0000
0000
0000
,  // measure 2
0000
0000
0000
0000
,  // measure 3
0000
0000
0000
0000
,  // measure 4
0002
0000
0000
0003
,  // measure 5
2000
0000
0000
3000
,  // measure 6
0200
0000
0000
0300
,  // measure 7
0200
0000
0000
0300
,  // measure 8
0020
0000
0000
0030
,  // measure 9
0002
0000
0000
0003
,  // measure 10
2000
0000
0000
3000
,  // measure 11
0020
0000
0000
0030
,  // measure 12
0100
0100
0100
0000
,  // measure 13
0001
0000
0001
0000
,  // measure 14
0010
0010
0010
0000
,  // measure 15
1000
0000
1000
0000
,  // measure 16
0001
0000
1000
0000
,  // measure 17
0100
0100
0100
0000
,  // measure 18
0010
0010
0010
0000
,  // measure 19
0001
0001
0001
0001
,  // measure 20
0001
0000
1000
0000
,  // measure 21
0010
0000
0100
0100
,  // measure 22
0100
0000
0001
0000
,  // measure 23
0010
0010
0010
0010
,  // measure 24
0010
0000
0100
0000
,  // measure 25
1000
0000
0010
0010
,  // measure 26
0010
0000
0001
0000
,  // measure 27
0100
0100
0100
0100
,  // measure 28
0100
0000
0000
1001
,  // measure 29
0000
0110
0000
0010
,  // measure 30
0000
0100
0000
0010
,  // measure 31
0000
1000
0000
0001
,  // measure 32
0000
1001
0000
0110
,  // measure 33
0000
0001
0000
0100
,  // measure 34
0000
1000
0000
0100
,  // measure 35
0000
0010
0000
0100
,  // measure 36
0000
1000
0000
1000
,  // measure 37
0000
0001
0000
0001
,  // measure 38
0000
1000
0000
1000
,  // measure 39
0000
0001
0000
0001
,  // measure 40
0000
1000
0000
1000
,  // measure 41
0000
0001
0000
0001
,  // measure 42
0000
1000
0000
1000
,  // measure 43
0000
0001
0000
0001
,  // measure 44
0000
1000
0000
0001
,  // measure 45
0000
1000
0000
0001
,  // measure 46
0000
0100
0000
0010
,  // measure 47
0000
1000
0000
0001
,  // measure 48
0000
0100
0000
0010
,  // measure 49
0000
1000
0000
0001
,  // measure 50
0000
0100
0000
0010
,  // measure 51
0000
1000
0000
0000
,  // measure 52
0100
0100
0000
0010
,  // measure 53
0000
0001
0000
1000
,  // measure 54
1000
0000
0010
0000
,  // measure 55
0100
0100
0100
0100
,  // measure 56
0100
0000
0001
0000
,  // measure 57
0010
0000
0100
0100
,  // measure 58
0100
0000
1000
0000
,  // measure 59
1000
1000
1000
1000
,  // measure 60
1000
0000
0001
0000
,  // measure 61
0100
0000
0010
0010
,  // measure 62
0010
0000
1000
0000
,  // measure 63
0001
0001
0001
0001
,  // measure 64
0001
0000
1000
0000
,  // measure 65
0100
0000
0010
0010
,  // measure 66
0010
0000
0100
0000
,  // measure 67
1000
1000
1000
1000
,  // measure 68
1000
0000
0000
0000
;
