#VERSION:0.83;
#TITLE:Crystallize;
#SUBTITLE:;
#ARTIST:Lindsey Stirling;
#TITLETRANSLIT:;
#SUBTITLETRANSLIT:;
#ARTISTTRANSLIT:;
#GENRE:Lindsey Stirling;
#ORIGIN:;
#CREDIT:;
#BANNER:Crystallize-bn.png;
#BACKGROUND:Crystallize-bg.png;
#PREVIEWVID:Crystallize-preview.avi;
#JACKET:Crystallize-jacket.png;
#CDIMAGE:;
#DISCIMAGE:;
#LYRICSPATH:;
#CDTITLE:;
#MUSIC:Crystallize.mp3;
#OFFSET:-0.023000;
#SAMPLESTART:54.866001;
#SAMPLELENGTH:13.714000;
#SELECTABLE:YES;
#BPMS:0.000=70.000,
16.000=140.000;
#STOPS:;
#DELAYS:;
#WARPS:;
#TIMESIGNATURES:0.000=4=4;
#TICKCOUNTS:0.000=2;
#COMBOS:0.000=1;
#SPEEDS:0.000=1.000=0.000=0;
#SCROLLS:0.000=1.000;
#FAKES:;
#LABELS:0.000=Song Start;
#BGCHANGES:0.000=Crystallize-vid.avi=1.000=1=0=1===CrossFade==,
99999=-nosongbg-=1.000=0=0=0 // don't automatically add -songbackground-
;
#KEYSOUNDS:;
#ATTACKS:
;

//---------------dance-single - ----------------
#NOTEDATA:;
#CHARTNAME:;
#STEPSTYPE:dance-single;
#DESCRIPTION:;
#CHARTSTYLE:;
#DIFFICULTY:Challenge;
#METER:11;
#RADARVALUES:0.601571,0.896726,0.237543,0.719828,0.554268,585.000000,552.000000,33.000000,100.000000,0.000000,1.000000,0.000000,0.000000,0.000000,0.601571,0.896726,0.237543,0.719828,0.554268,585.000000,552.000000,33.000000,100.000000,0.000000,1.000000,0.000000,0.000000,0.000000;
#CREDIT:;
#OFFSET:-0.023000;
#BPMS:0.000000=70.000000
,16.000000=140.000000
;
#STOPS:238.000000=0.429000
;
#DELAYS:;
#WARPS:;
#TIMESIGNATURES:0.000000=4=4
,236.000000=3=4
,239.000000=4=4
;
#TICKCOUNTS:0.000000=2
;
#COMBOS:0.000000=1
;
#SPEEDS:0.000000=1.000000=0.000000=0
;
#SCROLLS:0.000000=1.000000
;
#FAKES:;
#LABELS:0.000000=Song Start
;
#NOTES:
// measure 0
0000
0000
0000
0000
,  // measure 1
0000
0000
0000
0000
,  // measure 2
0000
0000
0000
0000
,  // measure 3
0000
0000
0000
0000
,  // measure 4
2000
0000
3010
0000
0110
0100
0001
1000
,  // measure 5
0200
0310
2001
3200
,  // measure 6
0302
0000
0013
0000
0110
1000
0001
0100
,  // measure 7
0010
0000
0000
1000
0001
0000
0001
0000
1002
0000
0000
0000
0203
0000
0000
0000
,  // measure 8
0320
0000
1030
0100
1100
0000
0001
1000
,  // measure 9
0001
0000
1000
0001
0201
0000
0320
0000
,  // measure 10
2030
3100
1100
0002
,  // measure 11
1003
0000
0000
1000
0010
0000
0010
0000
0120
0000
0000
0000
0230
0000
0000
0000
,  // measure 12
0302
0013
0210
2300
,  // measure 13
3020
0000
1030
0100
1002
0000
0203
0000
,  // measure 14
0320
0000
1030
0000
0110
0010
1000
0100
,  // measure 15
0001
0100
1000
0010
1000
0001
0100
0010
,  // measure 16
2000
0000
3001
0000
1200
0000
0301
1000
,  // measure 17
0002
0000
1003
0001
0201
0000
2300
0000
,  // measure 18
3020
0130
0210
2300
,  // measure 19
3001
0010
0100
0001
2000
0000
3002
0000
,  // measure 20
0013
0001
1000
0100
0001
0100
0010
0001
,  // measure 21
1000
0010
0100
0001
1000
0001
0100
0010
,  // measure 22
1000
0100
0010
0001
0100
0010
0001
0010
,  // measure 23
0100
0001
1000
0010
0100
1000
0100
0010
,  // measure 24
1000
1100
0011
1100
,  // measure 25
0101
1100
1010
0101
,  // measure 26
0001
0000
0100
0000
0010
0000
1000
0000
0001
0000
1000
0000
0100
0000
0010
0001
,  // measure 27
0100
0010
1000
0100
0010
0001
1000
0100
0020
0000
0000
0000
0000
0000
0000
0000
,  // measure 28
0031
0010
0001
0100
0010
1000
0100
1000
0001
0010
0001
0100
0001
1000
0010
1000
,  // measure 29
0100
0010
0100
0010
0001
1000
0001
1000
0100
0010
0100
0010
0001
1000
0001
1000
,  // measure 30
0010
1000
0100
0010
0001
0100
0010
1000
0001
1000
0010
0100
0001
0010
0100
1000
,  // measure 31
0001
0100
0001
0100
0010
1000
0010
1000
0001
0100
0001
0100
0010
1000
0010
1000
,  // measure 32
0001
0010
0100
1000
0010
0100
0001
1000
0010
1000
0100
0010
0001
1000
0100
0010
,  // measure 33
0100
1000
0100
1000
0001
0010
0001
0010
0100
1000
0100
1000
0001
0010
0001
0010
,  // measure 34
0001
0100
0010
1000
0001
1000
0100
0010
0001
1000
0100
0010
0001
1000
0010
0100
,  // measure 35
0001
0100
0001
0100
0010
1000
0010
1000
0100
1000
0100
1000
0001
0010
0001
0010
,  // measure 36
0200
0000
1300
0010
0101
0010
2000
0000
,  // measure 37
3002
0000
1003
0100
0011
0100
2000
0000
,  // measure 38
3002
0103
1001
0200
,  // measure 39
1300
0000
0000
1000
0010
0000
0100
0000
0012
0000
0000
0000
0203
0000
0000
0000
,  // measure 40
2300
3002
0023
2030
,  // measure 41
3200
0000
0010
1000
0310
0000
0200
0000
,  // measure 42
2300
0000
3001
1000
0201
0000
0010
0000
,  // measure 43
0301
0100
0001
1000
0010
1000
0001
0100
0001
1000
0010
1000
0100
0010
0001
1000
,  // measure 44
0002
0203
2300
3020
,  // measure 45
0031
1000
0100
0010
0001
1000
0010
0100
0001
0010
0100
1000
0010
0100
0001
1000
,  // measure 46
0200
0000
0302
0000
2003
0100
0001
3100
,  // measure 47
1000
0000
0000
1000
0001
0000
0100
0000
0102
0000
0000
0000
1003
0000
0000
0000
,  // measure 48
0020
0000
1030
0010
0210
0000
2300
0000
,  // measure 49
3020
1030
0220
0330
,  // measure 50
0002
1003
0011
0020
,  // measure 51
0031
0000
0000
1000
0010
0000
0100
0000
1010
0000
0000
0000
0101
0000
0000
0000
,  // measure 52
2002
0000
0000
0000
3003
0010
1000
0010
,  // measure 53
0002
0203
2300
3200
,  // measure 54
0002
0000
0000
0000
0303
1000
0010
0100
,  // measure 55
0002
0010
1000
0013
0002
0000
2003
0000
,  // measure 56
3200
0000
0000
0010
1000
0000
0001
1000
,  // measure 57
0001
0000
1300
0010
0200
0000
2300
0000
,  // measure 58
0002
0000
0000
0000
,  // measure 59
0000
0000
0000
0000
0000
0000
0000
0000
3003
0000
0000
0000
0100
1000
0001
0010
,  // measure 60
0100
1000
0001
0010
0001
0100
0010
1000
0001
0100
0010
1000
0001
1000
0010
0100
,  // measure 61
0001
1000
0010
0100
0001
1000
0010
0100
0001
1000
0010
0100
0001
0010
0001
1000
,  // measure 62
0100
1000
0001
0100
0001
1000
0010
0100
0001
0010
0100
1000
0001
0010
0001
0010
,  // measure 63
0100
1000
0100
1000
0001
0010
0001
0010
0100
1000
0100
1000
0001
0100
0001
1000
,  // measure 64
0010
0100
0001
1000
0010
1000
0100
0010
0001
1000
0001
0100
0010
1000
0010
0100
,  // measure 65
0001
0100
0001
1000
0010
1000
0010
0100
0001
0100
0001
1000
0010
1000
0100
1000
,  // measure 66
0001
0010
0100
0010
0001
1000
0100
1000
0001
0100
0001
1000
0010
1000
0100
1000
,  // measure 67
0100
0001
0010
0001
0010
1000
0100
1000
0100
0001
0010
0002
0020
0000
0000
0000
,  // measure 68
0000
0000
0003
0032
2003
3002
2000
0003
,  // measure 69
0200
3000
0002
0300
0020
0003
2000
0000
,  // measure 70
0000
0000
0030
3200
0302
0203
0020
0000
,  // measure 71
0000
0000
0000
0030
0002
0300
2000
0000
,  // measure 72
0000
0000
0000
0000
0000
0000
0000
0003
,  // measure 73
3002
2003
0020
3000
0002
2033
0002
0000
,  // measure 74
0000
0000
0000
0000
,  // measure 75
0000
0000
3003
0000
;

//---------------dance-single - ----------------
#NOTEDATA:;
#CHARTNAME:;
#STEPSTYPE:dance-single;
#DESCRIPTION:;
#CHARTSTYLE:;
#DIFFICULTY:Hard;
#METER:8;
#RADARVALUES:0.402076,0.461950,0.122371,0.633449,0.266337,391.000000,374.000000,17.000000,88.000000,0.000000,0.000000,0.000000,0.000000,0.000000,0.402076,0.461950,0.122371,0.633449,0.266337,391.000000,374.000000,17.000000,88.000000,0.000000,0.000000,0.000000,0.000000,0.000000;
#CREDIT:;
#OFFSET:-0.023000;
#BPMS:0.000000=70.000000
,16.000000=140.000000
;
#STOPS:238.000000=0.429000
;
#DELAYS:;
#WARPS:;
#TIMESIGNATURES:0.000000=4=4
;
#TICKCOUNTS:0.000000=2
;
#COMBOS:0.000000=1
;
#SPEEDS:0.000000=1.000000=0.000000=0
;
#SCROLLS:0.000000=1.000000
;
#FAKES:;
#LABELS:0.000000=Song Start
;
#NOTES:
// measure 0
0000
0000
0000
0000
,  // measure 1
0000
0000
0000
0000
,  // measure 2
0000
0000
0000
0000
,  // measure 3
0000
0000
0000
0000
,  // measure 4
1000
0000
0010
0000
0110
0100
0001
1000
,  // measure 5
0200
0320
0032
2003
,  // measure 6
3002
0000
0013
0000
0110
0100
1000
0001
,  // measure 7
0010
0000
0000
0001
0000
0000
1000
0000
1002
0000
0000
0000
0203
0000
0000
0000
,  // measure 8
0320
1030
1100
0200
,  // measure 9
0320
0000
0031
1000
2001
0000
3020
0000
,  // measure 10
0230
0301
1001
0002
,  // measure 11
1003
0000
0000
0010
0000
0000
0100
0000
0110
0000
0000
0000
0100
0000
0000
0000
,  // measure 12
0002
0013
0210
2300
,  // measure 13
3020
0000
1030
0100
1002
0000
0103
0000
,  // measure 14
0020
0000
1030
0000
0110
0010
1000
0100
,  // measure 15
0010
0100
1000
0010
1000
0001
0100
0010
,  // measure 16
2000
0000
3001
0000
1001
0000
0010
1000
,  // measure 17
0002
0000
1003
0001
0201
0000
0310
0000
,  // measure 18
2000
3100
0210
2300
,  // measure 19
3001
0010
0100
1000
0002
0000
2003
0000
,  // measure 20
3010
1000
0100
1000
0001
0100
0001
0100
,  // measure 21
0010
1000
0100
0010
0001
1000
0001
1000
,  // measure 22
0010
1000
0100
0010
0001
1000
0100
0010
,  // measure 23
0001
0100
0001
0100
0010
1000
0010
1000
,  // measure 24
0010
1000
1100
0101
,  // measure 25
0100
0001
1100
0101
,  // measure 26
0001
0100
0010
1000
0001
1000
0100
0010
,  // measure 27
0001
1000
0010
0200
0020
0000
0000
0330
,  // measure 28
1000
0010
0000
0000
1000
0010
0000
0000
0100
0001
0000
0000
1000
0010
0000
0000
,  // measure 29
0100
0001
0000
0000
1000
0100
0000
0000
1000
0001
0000
0000
0100
0001
0000
0000
,  // measure 30
1000
0010
0000
0000
1000
0001
0000
0000
1000
0100
0000
0000
1000
0001
0000
0000
,  // measure 31
0100
0001
0000
0000
0100
0010
0000
0000
1000
0010
0000
0000
0100
0010
0000
0000
,  // measure 32
0100
0001
0000
0000
1000
0100
0000
0000
0010
0100
0000
0000
0010
0001
0000
0000
,  // measure 33
1000
0100
0000
0000
0010
0001
0000
0000
1000
0100
0000
0000
0010
0001
0000
0000
,  // measure 34
0100
0001
0000
0000
1000
0010
0000
0000
0100
0001
0000
0000
1000
0010
0000
0000
,  // measure 35
1000
0100
0000
0000
0010
0100
0000
0000
0010
0001
0000
0000
0100
0001
0000
0000
,  // measure 36
2000
0000
3010
1000
0002
0000
0203
0000
,  // measure 37
0302
0000
1003
0010
0200
0000
0320
0000
,  // measure 38
2030
0000
3001
0200
,  // measure 39
0320
2030
3002
0023
,  // measure 40
0230
0320
0032
2003
,  // measure 41
3200
0000
0310
0100
2000
0000
3002
0000
,  // measure 42
0203
0000
0310
0000
,  // measure 43
1000
0010
0000
0000
0100
0001
0000
0000
1000
0010
0000
0000
0100
0001
0000
0000
,  // measure 44
2000
3002
0203
0320
,  // measure 45
1030
0100
0000
0000
0010
0001
0000
0000
1000
0100
0000
0000
0010
0001
0000
0000
,  // measure 46
2000
0000
3002
0000
0103
0001
0100
0001
,  // measure 47
2000
0000
3200
0000
,  // measure 48
0310
0000
0100
1000
0002
0000
0203
0000
,  // measure 49
0320
0000
0130
0000
,  // measure 50
0002
0000
2003
0000
,  // measure 51
3020
0000
2030
0000
3001
0100
0001
1000
,  // measure 52
0020
0000
0000
0000
0000
1030
0001
1000
,  // measure 53
0200
0320
0032
2003
,  // measure 54
3020
0000
0000
0000
0000
1030
0001
1000
,  // measure 55
0200
0000
0000
0320
,  // measure 56
0032
0000
0000
0000
,  // measure 57
0000
0000
1003
0001
0020
0000
0000
0000
,  // measure 58
0200
0000
0000
0000
,  // measure 59
0000
0000
0000
0000
0000
0000
0000
0000
0330
0000
0000
0000
1000
0100
0000
0000
,  // measure 60
1000
0001
0000
0000
0100
0001
0000
0000
1000
0001
0000
0000
1000
0010
0000
0000
,  // measure 61
0100
0001
0000
0000
1000
0010
0000
0000
0100
0001
0000
0000
1000
0100
0000
0000
,  // measure 62
1000
0001
0000
0000
1000
0100
0000
0000
1000
0100
0000
0000
0100
0001
0000
0000
,  // measure 63
1000
0001
0000
0000
0100
0001
0000
0000
0010
0001
0000
0000
0010
0100
0000
0000
,  // measure 64
0010
0001
0000
0000
0010
0100
0000
0000
1000
0010
0000
0000
0100
0010
0000
0000
,  // measure 65
0100
0001
0000
0000
0100
0010
0000
0000
1000
0010
0000
0000
1000
0001
0000
0000
,  // measure 66
0100
0001
0000
0000
1000
0100
0000
0000
0010
0001
0000
0000
0100
0001
0000
0000
,  // measure 67
1000
0100
0000
0000
0100
0001
0000
0000
0100
0001
0000
0000
2000
0000
0000
0000
,  // measure 68
0000
0000
0000
3010
0001
0010
2000
0000
,  // measure 69
3200
0320
0032
2003
,  // measure 70
0000
0000
0000
3100
0001
0100
2000
0000
,  // measure 71
0000
0000
3002
0203
,  // measure 72
0000
0000
0000
0000
,  // measure 73
0310
1000
0002
0000
1003
0002
0200
0000
,  // measure 74
0000
0000
0000
0000
,  // measure 75
0000
0000
0303
0000
;

//---------------dance-single - ----------------
#NOTEDATA:;
#CHARTNAME:;
#STEPSTYPE:dance-single;
#DESCRIPTION:;
#CHARTSTYLE:;
#DIFFICULTY:Medium;
#METER:5;
#RADARVALUES:0.260167,0.327162,0.000000,0.187155,0.000000,253.000000,253.000000,0.000000,26.000000,0.000000,0.000000,0.000000,0.000000,0.000000,0.260167,0.327162,0.000000,0.187155,0.000000,253.000000,253.000000,0.000000,26.000000,0.000000,0.000000,0.000000,0.000000,0.000000;
#CREDIT:;
#NOTES:
// measure 0
0000
0000
0000
0000
,  // measure 1
0000
0000
0000
0000
,  // measure 2
0000
0000
0000
0000
,  // measure 3
0000
0000
0000
0000
,  // measure 4
2000
0000
0000
0000
3000
0010
0100
0010
,  // measure 5
0100
0001
1000
0010
,  // measure 6
0200
0000
0000
0000
0300
0001
1000
0001
,  // measure 7
0020
0000
0000
0130
,  // measure 8
2000
0000
0000
0000
,  // measure 9
3000
0000
0100
1000
0010
0000
1000
0000
,  // measure 10
0200
0000
0000
0310
,  // measure 11
0001
1000
0010
0100
,  // measure 12
0002
0000
0000
0000
,  // measure 13
0000
0000
1003
0010
1000
0000
0001
0000
,  // measure 14
0020
0000
0000
0000
0030
0100
1000
0100
,  // measure 15
0010
0001
1000
0100
,  // measure 16
0020
0000
0000
0000
,  // measure 17
0030
0000
0001
1000
0001
0000
0100
0000
,  // measure 18
0020
0000
0000
0000
,  // measure 19
1030
0100
0010
0001
,  // measure 20
1000
0100
0001
0100
,  // measure 21
0010
0001
0010
0000
0100
0000
0000
0000
,  // measure 22
1000
0010
0100
0001
,  // measure 23
1000
0010
1000
0000
0100
0000
0000
0000
,  // measure 24
0010
0010
0100
0100
,  // measure 25
1000
1000
0001
0001
,  // measure 26
0010
0100
0010
0000
0100
1000
0100
0000
,  // measure 27
0010
0001
1000
0000
,  // measure 28
0001
0100
0001
0000
1000
0000
0010
0000
,  // measure 29
1000
0100
0010
0001
,  // measure 30
1000
0100
1000
0000
0001
0000
0010
0000
,  // measure 31
0100
1000
0001
0010
,  // measure 32
0001
1000
0001
0000
0100
0000
0010
0000
,  // measure 33
1000
0100
0010
0001
,  // measure 34
1000
0001
1000
0000
0010
0000
0100
0000
,  // measure 35
0001
1000
0010
0100
,  // measure 36
0001
0000
0010
0001
0010
0000
0100
0000
,  // measure 37
1000
0000
0010
1000
0010
0000
0100
0000
,  // measure 38
0002
0000
0000
1003
,  // measure 39
0010
0100
0001
0010
,  // measure 40
0100
0010
0001
1000
,  // measure 41
0100
0000
0000
0010
0001
0000
1000
0000
,  // measure 42
0002
0000
0000
0000
,  // measure 43
1003
0010
1000
0000
0001
0000
0100
0000
,  // measure 44
0010
1000
0100
0010
,  // measure 45
0001
1000
0001
0000
1000
0000
0010
0000
,  // measure 46
0100
0000
0001
0000
1000
0010
1000
0010
,  // measure 47
2000
3000
0200
0300
,  // measure 48
0010
0000
0001
1000
0001
0000
0100
0000
,  // measure 49
0020
0000
0000
0000
,  // measure 50
2030
0000
3200
0000
,  // measure 51
0310
0001
1000
0100
,  // measure 52
0020
0000
0000
0000
0030
0001
1000
0001
,  // measure 53
1000
0001
0100
0010
,  // measure 54
2000
0000
0000
0000
3000
0100
0010
0100
,  // measure 55
2000
0000
0000
3001
,  // measure 56
0020
0000
0000
0000
,  // measure 57
0000
0030
0001
1000
0001
0000
1000
0000
,  // measure 58
0200
0000
0000
0000
,  // measure 59
0000
0000
0300
0000
,  // measure 60
0001
1000
0001
0000
0100
0000
0010
0000
,  // measure 61
1000
0100
0010
0001
,  // measure 62
1000
0100
1000
0000
0001
0000
0010
0000
,  // measure 63
0100
1000
0010
0100
,  // measure 64
0001
1000
0001
0000
0100
0000
0010
0000
,  // measure 65
1000
0100
0010
0001
,  // measure 66
1000
0010
1000
0000
0100
0000
0010
0000
,  // measure 67
0001
1000
0100
0010
,  // measure 68
0002
0000
0000
0000
0003
1000
0100
1000
,  // measure 69
0100
0010
0001
0100
,  // measure 70
0020
0000
0000
0000
0030
0100
0001
0100
,  // measure 71
0002
0000
0000
1003
,  // measure 72
0020
0000
0000
0000
,  // measure 73
0030
0000
1000
0100
0010
0000
0100
1000
,  // measure 74
0002
0000
0000
0000
,  // measure 75
0000
0000
0000
0003
;

//---------------dance-single - ----------------
#NOTEDATA:;
#CHARTNAME:;
#STEPSTYPE:dance-single;
#DESCRIPTION:;
#CHARTSTYLE:;
#DIFFICULTY:Easy;
#METER:3;
#RADARVALUES:0.188184,0.245372,0.028793,0.165561,0.000000,183.000000,179.000000,4.000000,23.000000,0.000000,0.000000,0.000000,0.000000,0.000000,0.188184,0.245372,0.028793,0.165561,0.000000,183.000000,179.000000,4.000000,23.000000,0.000000,0.000000,0.000000,0.000000,0.000000;
#CREDIT:;
#NOTES:
// measure 0
0000
0000
0000
0000
,  // measure 1
0000
0000
0000
0000
,  // measure 2
0000
0000
0000
0000
,  // measure 3
0000
0000
0000
0000
,  // measure 4
1000
0000
0010
1000
,  // measure 5
0002
0000
1003
0000
,  // measure 6
0002
0000
0013
0100
,  // measure 7
2000
0000
3010
1000
,  // measure 8
0002
0000
0013
0000
,  // measure 9
0100
1000
0001
0100
,  // measure 10
0020
0000
0130
0001
,  // measure 11
1000
0010
1000
0000
,  // measure 12
0100
0000
0010
0001
,  // measure 13
0100
0001
0010
0000
,  // measure 14
0100
0000
1000
0001
,  // measure 15
0100
0010
1000
0000
,  // measure 16
0002
0000
1003
0000
,  // measure 17
0010
1000
0100
0000
,  // measure 18
0010
0000
0001
0000
,  // measure 19
1000
0001
0100
0010
,  // measure 20
1000
0000
0001
0000
,  // measure 21
0010
0001
0010
0100
,  // measure 22
1000
0000
0010
0000
,  // measure 23
0100
0001
0100
0010
,  // measure 24
1000
1000
0001
0001
,  // measure 25
1000
1000
0001
0001
,  // measure 26
1000
0100
0010
0001
,  // measure 27
1000
0100
0010
0000
,  // measure 28
0001
0000
1001
0000
,  // measure 29
0010
1000
0100
0000
,  // measure 30
0001
0000
1001
0000
,  // measure 31
0100
0001
0010
0000
,  // measure 32
0100
0000
0110
0000
,  // measure 33
0010
1000
0100
0000
,  // measure 34
0010
0000
0110
0000
,  // measure 35
1000
0001
0100
0000
,  // measure 36
0001
0010
0001
0000
,  // measure 37
1000
0010
1000
0000
,  // measure 38
0002
0000
0000
0013
,  // measure 39
0100
1000
0010
1000
,  // measure 40
0100
0010
0100
0010
,  // measure 41
0002
0000
1003
0001
,  // measure 42
0200
0000
0000
0000
,  // measure 43
0301
0010
0100
1000
,  // measure 44
0001
0000
1000
0000
,  // measure 45
0010
1000
0100
0010
,  // measure 46
0100
0000
1000
0001
,  // measure 47
0200
0000
0320
0000
,  // measure 48
1030
0001
0100
0010
,  // measure 49
0200
0000
0000
0000
,  // measure 50
0302
0000
2003
0000
,  // measure 51
3010
1000
0100
0010
,  // measure 52
0002
0000
0000
0000
,  // measure 53
1003
0010
1000
0000
,  // measure 54
0200
0000
0000
0000
,  // measure 55
0310
0000
0000
0000
,  // measure 56
0002
0000
0000
0000
,  // measure 57
0000
0000
1003
0000
,  // measure 58
0200
0000
0000
0000
,  // measure 59
0000
0000
0300
0000
,  // measure 60
0010
0000
0100
0000
,  // measure 61
1000
1000
0001
0001
,  // measure 62
0100
0000
0010
0000
,  // measure 63
0100
0100
0001
1000
,  // measure 64
0100
0000
0010
0000
,  // measure 65
0001
0010
0100
1000
,  // measure 66
0001
0000
1000
0000
,  // measure 67
0010
1000
0100
0000
,  // measure 68
0020
0000
0000
0000
,  // measure 69
0031
0000
0100
0000
,  // measure 70
0020
0000
0000
0000
,  // measure 71
2030
0000
0000
0000
,  // measure 72
3002
0000
0000
0000
,  // measure 73
0003
0000
1000
0000
,  // measure 74
0200
0000
0000
0000
,  // measure 75
0000
0000
0000
0300
;

//---------------dance-single - ----------------
#NOTEDATA:;
#CHARTNAME:;
#STEPSTYPE:dance-single;
#DESCRIPTION:;
#CHARTSTYLE:;
#DIFFICULTY:Beginner;
#METER:1;
#RADARVALUES:0.110031,0.136318,0.000000,0.007198,0.000000,107.000000,107.000000,0.000000,1.000000,0.000000,0.000000,0.000000,0.000000,0.000000,0.110031,0.136318,0.000000,0.007198,0.000000,107.000000,107.000000,0.000000,1.000000,0.000000,0.000000,0.000000,0.000000,0.000000;
#CREDIT:;
#NOTES:
0000
0000
0000
0000
,
0000
0000
0000
0000
,
0000
0000
0000
0000
,
0000
0000
0000
0000
,
1000
0000
0000
0000
,
0001
0000
0100
0000
,
0001
0000
0000
0000
,
0010
0000
0000
0000
,
0100
0000
0000
0000
,
0000
0000
1000
0000
,
0001
0000
0000
0000
,
0100
0000
0010
0000
,
1000
0000
0000
0000
,
0000
0000
0001
0000
,
0010
0000
0000
0000
,
0100
0000
1000
0000
,
0010
0000
0000
0000
,
0000
0000
1000
0000
,
0001
0000
0000
0000
,
0100
0000
0010
0000
,
1000
0000
0100
0000
,
0010
0000
0010
0000
,
0001
0000
0100
0000
,
0010
0000
0010
0000
,
0010
0000
1000
0000
,
1000
0000
0001
0000
,
1000
0000
0100
0000
,
0010
0000
0001
0000
,
1000
0000
0100
0000
,
0001
0000
0001
0000
,
0001
0000
0100
0000
,
1000
0000
1000
0000
,
1000
0000
0010
0000
,
0100
0000
0100
0000
,
0010
0000
1000
0000
,
0001
0000
0001
0000
,
0010
0000
0100
0000
,
1000
0000
0001
0000
,
1000
0000
0000
0000
,
0010
0000
0100
0000
,
0010
0000
1000
0000
,
0001
0000
0010
0000
,
0100
0000
0000
0000
,
1000
0000
0001
0000
,
1000
0000
0000
0000
,
0001
0000
1000
0000
,
0010
0000
0000
0000
,
1000
0000
0100
0000
,
0010
0000
0001
0000
,
1000
0000
0000
0000
,
0001
0000
0100
0000
,
0010
0000
1000
0000
,
0001
0000
0000
0000
,
0100
0000
0100
0000
,
0010
0000
0000
0000
,
1000
0000
0000
0000
,
0100
0000
0000
0000
,
0000
0000
0010
0000
,
0001
0000
0000
0000
,
0000
0000
0000
0000
,
1000
0000
1000
0000
,
0001
0000
0010
0000
,
0001
0000
0000
0000
,
0100
0000
0010
0000
,
1000
0000
0000
0000
,
0001
0000
1000
0000
,
0100
0000
0010
0000
,
0001
0000
1000
0000
,
0010
0000
0000
0000
,
0000
0000
0000
0000
,
0100
0000
0000
0000
,
0001
0000
0000
0000
,
1000
0000
0000
0000
,
0000
0000
0100
0000
,
0200
0000
0000
0000
,
0000
0000
0000
0300
;
