#TITLE:Cry For You;
#SUBTITLE:(Radio Edit);
#ARTIST:September;
#TITLETRANSLIT:;
#SUBTITLETRANSLIT:;
#ARTISTTRANSLIT:;
#GENRE:Cry For You;
#CREDIT:;
#BANNER:Cry For You-bn.png;
#BACKGROUND:Cry For You-bg.png;
#LYRICSPATH:;
#CDTITLE:;
#MUSIC:Cry For You (Radio Edit).mp3;
#OFFSET:-3.723025;
#SAMPLESTART:57.480000;
#SAMPLELENGTH:14.720000;
#SELECTABLE:YES;
#BPMS:0.000000=130.000000
;
#STOPS:116.000000=1.385000
;
#BGCHANGES:24.000=Cry For You-video.avi=1.000=1=0=0=StretchNoLoop==CrossFade==,
99999=-nosongbg-=1.000=0=0=0 // don't automatically add -songbackground-
;
#KEYSOUNDS:;
#ATTACKS:;

//---------------dance-single - ----------------
#NOTES:
     dance-single:
     :
     Hard:
     7:
     0.464062,0.434816,0.310512,0.000000,0.047771,408.000000,369.000000,39.000000,0.000000,0.000000,0.000000,0.464062,0.434816,0.310512,0.000000,0.047771,408.000000,369.000000,39.000000,0.000000,0.000000,0.000000:
// measure 0
0000
0000
0000
0000
,  // measure 1
0000
0000
0000
0000
,  // measure 2
1000
0100
0001
0100
,  // measure 3
0010
1000
0100
0001
,  // measure 4
0100
0010
1000
0001
,  // measure 5
1000
0100
1001
1001
,  // measure 6
0000
0001
0010
0010
0001
0010
0000
1001
,  // measure 7
0000
1000
0010
0010
1000
0010
0000
1001
,  // measure 8
0000
0100
0010
0010
0100
0010
0000
1001
,  // measure 9
0000
0100
0010
0010
0100
0010
0000
1001
,  // measure 10
0100
0000
0010
0010
1000
0010
0000
1001
,  // measure 11
0000
0001
0010
0010
0001
0010
0000
1001
,  // measure 12
0000
0100
0010
0010
0100
0010
0000
1001
,  // measure 13
0000
0100
0010
0010
0100
0010
0000
0110
,  // measure 14
1000
0000
1100
0000
0001
0000
0101
0001
,  // measure 15
1000
0000
0010
1000
0100
1000
0010
1000
,  // measure 16
0100
0000
0110
0000
0010
0001
1000
0001
,  // measure 17
0100
0010
1000
0100
1000
0000
1001
0000
,  // measure 18
0010
0000
0001
0000
1000
0010
0100
0001
,  // measure 19
0100
0010
1000
0001
1000
0100
1000
0000
,  // measure 20
0001
0011
1000
1100
,  // measure 21
1000
0010
0100
0000
0001
0010
0100
0000
,  // measure 22
1000
0010
0000
0001
0010
1000
0000
1001
,  // measure 23
0000
1000
0100
0001
0100
1000
0000
0010
,  // measure 24
1000
0000
0110
0000
0001
0000
1000
0001
,  // measure 25
0100
0010
0000
0010
1000
0000
1000
0001
,  // measure 26
1000
0100
0000
0001
0100
0001
0000
1100
,  // measure 27
0000
0001
0100
0001
1000
0010
0000
1000
,  // measure 28
0100
0010
0001
1000
0001
0000
1000
0010
,  // measure 29
0110
0000
1001
0000
1100
0000
0001
1000
,  // measure 30
0100
0000
0010
0001
0100
0000
0001
0100
,  // measure 31
0001
0000
1000
0010
0100
0100
0010
1000
,  // measure 32
0100
1000
0000
0001
0010
0100
0010
0001
,  // measure 33
0100
0000
0001
0000
1000
0000
0000
1000
0010
0000
0000
0010
0001
0000
0000
0001
,  // measure 34
0010
0000
0000
0010
1000
0000
0000
0000
0110
0000
0000
0000
0001
0000
0100
0000
,  // measure 35
0001
1000
0100
1000
0000
0000
0000
0000
,  // measure 36
0000
0000
0001
1000
0010
0100
0001
1000
,  // measure 37
0001
1000
1100
0000
0101
0000
1000
0010
,  // measure 38
0001
0000
0010
1000
0100
0000
1000
0100
,  // measure 39
1000
0000
0001
0010
0100
0100
0010
0001
,  // measure 40
0100
0001
0000
1000
0010
0010
0100
0010
,  // measure 41
0000
0000
1000
0000
0001
0000
0000
0001
0010
0000
0000
0010
1000
0000
0000
1000
,  // measure 42
0010
0000
0000
0010
0001
0000
0000
0000
0110
0000
0000
0000
1000
0000
0100
0000
,  // measure 43
1000
0001
0100
0001
0000
0000
0000
0000
,  // measure 44
0000
0000
1000
0001
0100
0010
1000
0001
,  // measure 45
1000
0001
0100
1000
0000
1000
0100
0001
,  // measure 46
0000
0101
0000
0001
0100
0001
0010
1000
,  // measure 47
0000
1000
0010
0001
0010
1000
0010
0001
,  // measure 48
0010
1000
0010
0000
0100
0000
1000
0000
,  // measure 49
0001
1000
0100
0010
0000
0001
0100
0010
,  // measure 50
0000
1001
0000
0010
1000
0100
0001
0100
,  // measure 51
0000
0010
0001
0100
1000
0100
0010
0000
,  // measure 52
0100
0010
0000
1000
0010
0001
0010
1000
,  // measure 53
0010
0001
0110
0000
0100
0001
0010
0100
,  // measure 54
0010
0000
0001
1000
0010
0100
0001
0100
,  // measure 55
0001
0000
1000
0010
0100
0100
0010
1000
,  // measure 56
0100
1000
0000
0001
0010
0010
0100
0010
,  // measure 57
0000
0000
0001
0000
1000
0000
0000
1000
0100
0000
0000
0100
0001
0000
0000
0001
,  // measure 58
0100
0000
0000
0100
1000
0000
0000
0000
0110
0000
0000
0000
0001
0000
0010
0000
,  // measure 59
1000
0001
0100
1000
0000
0000
0110
0000
,  // measure 60
0100
0010
0100
0000
1001
0000
0110
0000
,  // measure 61
0010
0100
0010
0000
1100
0000
0100
0000
,  // measure 62
0101
0001
1010
1000
,  // measure 63
0011
0010
0100
0110
,  // measure 64
1000
0001
1001
0000
0000
0000
0000
0000
;

//---------------dance-single - ----------------
#NOTES:
     dance-single:
     :
     Medium:
     6:
     0.338947,0.358084,0.294588,0.095542,0.000000,298.000000,261.000000,37.000000,12.000000,0.000000,0.000000,0.338947,0.358084,0.294588,0.095542,0.000000,298.000000,261.000000,37.000000,12.000000,0.000000,0.000000:
0000
0000
0000
0000
,
0000
0000
0000
0000
,
1000
0100
0010
0010
,
0001
0100
0010
0010
,
1000
0100
0001
0100
,
1000
0100
0110
0110
,
0010
0000
1001
0000
0100
0000
0001
1000
,
0001
0000
0010
0000
0100
0000
1000
0001
,
1000
0100
0001
0100
,
0010
1000
0010
0001
,
1001
0000
0010
0000
0001
0000
1000
0001
,
1000
0000
0010
0000
0100
0000
0010
0100
,
0010
1000
0100
0010
,
0001
0100
1000
0100
,
1001
0100
0001
0101
,
1000
1100
0001
0101
,
0010
1000
0001
0100
,
0010
0100
0010
0000
1000
0001
1000
0000
,
1001
0100
0010
1010
,
0001
0011
1000
1010
,
0010
0100
0001
1000
,
0100
1000
0001
0000
0100
0001
1000
0000
,
0001
0010
0000
0001
0010
0001
0000
1000
,
0000
0001
0010
0001
0010
0000
1001
0000
,
0100
0000
0010
0000
1000
0000
0001
1000
,
0001
0100
1000
0100
,
1000
0100
0000
1000
0100
1000
0000
0001
,
0000
1000
0100
1000
0100
0000
1001
0000
,
1000
0010
0001
0010
,
1000
0000
0000
0000
0102
0000
0103
0001
,
0000
0100
0000
0000
2001
0000
3100
1000
,
0000
0100
0000
0000
0120
0000
0031
0010
,
0000
0110
0000
0000
0210
0000
1300
0100
,
0000
1000
0010
0000
1000
0000
0100
0000
,
0001
0000
0010
0000
0100
0000
1000
0100
,
0000
0001
0100
0000
0010
0000
1000
0000
,
0100
0001
0100
0010
,
0001
0000
1001
0000
2100
0000
3100
1000
,
0000
0100
0000
0000
1002
0000
0103
0001
,
0000
0100
0000
0000
0120
0000
1030
0010
,
0000
0110
0000
0000
0210
0000
0301
0100
,
0000
0001
0010
0000
0001
0000
0100
0000
,
1000
0000
0010
0000
0100
0000
0001
0100
,
0000
1000
0100
0000
0010
0000
0001
0000
,
0100
1000
0100
0010
,
1000
0100
0100
0010
,
0010
0001
1000
0001
,
1000
0100
0010
0100
,
0010
0100
0000
0000
,
0000
0010
0010
0001
,
0001
1000
0010
0100
,
0001
1000
0000
0000
,
0000
0001
0000
0000
,
0000
0000
0010
0000
0120
0000
0130
0010
,
0000
0100
0000
0000
2001
0000
3001
1000
,
0000
0001
0000
0000
0120
0000
0031
0010
,
0000
0110
0000
0000
0210
0000
1300
0100
,
0000
1000
0010
0000
1000
0000
0100
0000
,
0001
0000
0010
0000
0100
0000
1000
0100
,
0000
0001
0100
0000
0010
0000
1000
0000
,
0100
0001
0100
0010
,
0001
1000
1100
0001
,
0101
1000
1100
0001
,
0101
1000
1100
0001
,
0101
1001
0000
0000
;

//---------------dance-single - ----------------
#NOTES:
     dance-single:
     :
     Easy:
     4:
     0.227481,0.255774,0.015924,0.000000,0.000000,200.000000,198.000000,2.000000,0.000000,0.000000,0.000000,0.227481,0.255774,0.015924,0.000000,0.000000,200.000000,198.000000,2.000000,0.000000,0.000000,0.000000:
0000
0000
0000
0000
,
0000
0000
0000
0000
,
1000
1000
1000
0100
,
0001
0001
0001
0100
,
1000
1000
1000
1000
,
0001
0001
0001
0001
,
1001
0010
1000
0010
,
0001
0010
1000
0100
,
0010
0001
0100
1000
,
0100
0010
1000
0100
,
0010
0010
0010
0010
,
0100
0100
0100
0100
,
1000
0100
0001
0100
,
1000
0100
0001
0100
,
1000
0000
0000
0001
,
0010
0100
0010
0100
,
1000
0010
0001
0010
,
1000
0010
0001
0010
,
1000
1000
1000
0001
,
0010
0100
0010
0100
,
1000
0010
0100
0001
,
1000
0010
0100
0001
,
1000
0000
0001
0000
,
0010
0001
1000
0000
,
0010
1000
0001
0000
,
0100
0000
0010
0000
,
1000
0000
0001
0000
,
0010
0001
1000
0000
,
0010
1000
0001
0000
,
0100
0000
0001
0010
,
1000
0100
0010
0001
,
0000
1000
0010
1000
,
0000
0001
0100
0001
,
0000
0000
1000
0100
,
0001
0010
0100
1000
,
0000
0010
1000
0001
,
0000
0100
0001
1000
,
0000
0000
0001
0010
,
1000
0100
0010
0001
,
0000
1000
0010
0100
,
0000
0001
0010
0100
,
0000
0000
1000
0010
,
0001
0100
0010
1000
,
0000
0001
0100
0001
,
0000
1000
0100
1000
,
0000
0001
0000
0001
,
0000
1000
0010
1000
,
0000
0001
0010
0100
,
1000
0001
0000
0000
,
0000
1000
0000
0001
,
0000
1000
0010
1000
,
0000
0001
0100
0010
,
1000
0001
0000
0000
,
0000
0000
1000
0010
,
0001
0100
0010
1000
,
0000
0001
0010
0100
,
0000
1000
0010
0100
,
0000
0000
0001
0010
,
1000
0100
0010
0001
,
0000
1000
0001
0100
,
0000
0001
1000
0100
,
0000
1000
0000
0001
,
0000
0100
0001
1000
,
0000
0100
1000
0001
,
0000
1001
0000
0000
;

//---------------dance-single - ----------------
#NOTES:
     dance-single:
     :
     Beginner:
     1:
     0.138764,0.153465,0.023886,0.000000,0.000000,122.000000,119.000000,3.000000,0.000000,0.000000,0.000000,0.138764,0.153465,0.023886,0.000000,0.000000,122.000000,119.000000,3.000000,0.000000,0.000000,0.000000:
0000
0000
0000
0000
,
0000
0000
0000
0000
,
1000
0000
0001
0000
,
0010
0000
0100
0000
,
0010
0000
0001
0000
,
1000
0000
0010
0000
,
1000
0000
0100
0000
,
0001
0000
0010
0000
,
1000
0000
0100
0000
,
0010
0000
0001
0000
,
1000
0000
0001
0000
,
0100
0000
0010
0000
,
1000
0000
0100
0000
,
0010
0000
0001
0000
,
1001
0000
0000
0000
,
0010
0000
1000
0000
,
0100
0000
0000
0000
,
0010
0000
0001
0000
,
1000
0000
0000
0000
,
0001
0000
1000
0000
,
0010
0000
0000
0000
,
1000
0000
0100
0000
,
0010
0000
0010
0000
,
0001
0000
1000
0000
,
0010
0000
0100
0000
,
0001
0000
0000
0000
,
0010
0000
0010
0000
,
0001
0000
0001
0000
,
1000
0000
0001
0000
,
1000
0000
0010
0000
,
0010
0000
1000
0000
,
1000
0000
0001
0000
,
0001
0000
0100
0000
,
0100
0000
0010
0000
,
0010
0000
1000
0000
,
1000
0000
0100
0000
,
0100
0000
0010
0000
,
0010
0010
0000
0000
,
0000
0001
0000
1000
,
0000
0001
0000
0000
,
0000
0100
0000
0010
,
0000
1000
1000
0000
,
0001
0000
0010
0000
,
0100
0000
0010
0000
,
0001
0000
1000
0000
,
0001
0001
0000
0100
,
0000
1000
0000
0100
,
0000
0001
0000
0100
,
0000
1000
0000
0000
,
0000
1000
0000
0010
,
0000
0001
0000
0010
,
0000
1000
0000
0010
,
0000
0001
0000
0000
,
0000
1000
1000
0000
,
0010
0000
0001
0000
,
0010
0000
1000
0000
,
0100
0000
0010
0000
,
0001
0001
0000
1000
,
0000
0010
0000
0100
,
0000
0001
0000
0010
,
0000
0100
0000
1000
,
0000
1001
0000
0010
,
0000
0001
0000
0010
,
0000
1000
0000
0100
,
0000
1001
0000
0000
;
