#VERSION:0.83;
#TITLE:Cruel Summer;
#SUBTITLE:;
#ARTIST:Taylor Swift;
#TITLETRANSLIT:;
#SUBTITLETRANSLIT:;
#ARTISTTRANSLIT:;
#GENRE:Lover;
#ORIGIN:;
#CREDIT:[Ness];
#BANNER:Cruel Summer.png;
#BACKGROUND:Cruel Summer-bg.png;
#PREVIEWVID:;
#JACKET:Cruel Summer-jacket.png;
#CDIMAGE:;
#DISCIMAGE:;
#LYRICSPATH:Cruel Summer.lrc;
#CDTITLE:;
#MUSIC:Cruel Summer.mp3;
#OFFSET:-0.015000;
#SAMPLESTART:75.889297;
#SAMPLELENGTH:22.588234;
#SELECTABLE:YES;
#BPMS:0.000=85.000;
#STOPS:;
#DELAYS:;
#WARPS:;
#TIMESIGNATURES:0.000=4=4;
#TICKCOUNTS:0.000=2;
#COMBOS:0.000=1;
#SPEEDS:0.000=1.000=0.000=0;
#SCROLLS:0.000=1.000;
#FAKES:;
#LABELS:0.000=Song Start;
#LASTSECONDHINT:127.811646;
#BGCHANGES:;
#KEYSOUNDS:;
#ATTACKS:
;

//---------------dance-single - ----------------
#NOTEDATA:;
#CHARTNAME:;
#STEPSTYPE:dance-single;
#DESCRIPTION:;
#CHARTSTYLE:;
#DIFFICULTY:Hard;
#METER:7;
#RADARVALUES:0.388311,0.420577,0.155769,0.249231,0.260914,349.000000,329.000000,20.000000,32.000000,0.000000,0.000000,0.000000,0.000000,0.000000,0.388311,0.420577,0.155769,0.249231,0.260914,349.000000,329.000000,20.000000,32.000000,0.000000,0.000000,0.000000,0.000000,0.000000;
#CREDIT:;
#NOTES:
0000
0000
0000
0000
,
0000
0000
0000
0000
,
0001
0100
0001
0000
1000
0000
0100
0000
0010
0100
0010
0000
0100
0000
1000
0000
,
0001
0000
0100
0000
0001
0010
0000
0000
0200
0000
0000
0000
1300
0000
0000
0000
,
0010
0000
0010
0000
0100
0000
0001
0100
0001
0000
1000
0000
0010
0000
1000
0100
,
1000
0000
0001
0000
0100
0001
0000
0000
0020
0000
0000
0000
0130
0000
1000
0000
,
0001
0000
0100
0001
1000
0000
0010
1000
,
0100
0000
0001
0000
0100
0000
1000
0000
0010
0000
0000
0000
1000
0001
1000
0001
,
0020
0000
0000
0000
0031
1000
0001
1000
0020
0000
0000
0000
0130
0000
0001
0000
,
0010
0100
1000
0001
0200
0000
0310
0100
,
2002
0000
0000
0000
3003
0000
0000
0010
0000
1000
0010
0000
0100
0000
0001
0000
,
2002
0000
0000
0000
3003
0000
0000
0010
0000
0001
0010
0000
0100
0000
1000
0000
,
0001
0100
0001
0000
1000
0000
0200
0000
0000
0000
0310
0000
0000
0000
0001
0000
,
1000
0010
1000
0000
0001
0000
0200
0000
0000
0000
0310
0000
0100
0000
0001
0000
,
2001
0000
0000
0000
3100
0000
0000
0010
0000
0001
1000
0000
0001
0000
0100
0000
,
0002
0000
0000
0000
1003
0000
0000
0010
0000
1000
0001
0000
1000
0000
0100
0000
,
0010
0001
0010
0000
0100
0000
2000
0000
0000
0000
3001
0000
0100
0000
0010
0000
,
1000
0010
1000
0000
0001
0000
0200
0000
0000
0000
0310
0000
0100
0000
0001
1000
,
0002
0003
0000
0000
,
0010
0001
1000
0000
0010
0000
0100
0010
0100
0000
0001
0000
1000
0000
0001
0010
,
0001
0000
1000
0000
0100
1000
0000
0000
0002
0000
0000
0000
0103
0000
0000
0000
,
0010
1000
0001
0000
0100
0000
0001
1000
0001
0000
0010
0000
0100
1000
0000
0100
,
0000
1000
0100
0000
1000
0001
0000
0000
0201
0000
0000
0000
0310
0000
1000
0000
,
0100
0000
1000
0001
0100
0000
0001
0010
,
1000
0000
0010
0000
0001
0000
0100
0000
0010
0000
0000
0000
1000
0100
1000
0100
,
0020
0000
0000
0000
0031
0100
0001
0100
0020
0000
0000
0000
1030
0000
0100
0000
,
0001
0000
0100
0000
0010
0000
0001
0000
1000
0000
0001
0000
0100
0010
0100
0000
,
2010
0000
0000
0000
3001
0000
0000
1000
0000
0010
1000
0000
0001
0000
1000
0000
,
0102
0000
0000
0000
1003
0000
0000
0100
0000
0010
0100
0000
1000
0000
0001
0000
,
0100
0010
0100
0000
0001
0000
2000
0000
0000
0000
3100
0000
0010
0000
0100
0000
,
1000
0010
1000
0000
0001
0000
0020
0000
0000
0000
0130
0000
0010
0000
0001
0000
,
1002
0000
0000
0000
0103
0000
0000
0010
0000
1000
0100
0000
1000
0000
0001
0000
,
0210
0000
0000
0000
0310
0000
0000
0001
0000
1000
0001
0000
0100
0000
0010
0000
,
1000
0100
1000
0000
0001
0000
0200
0000
0000
0000
0310
0000
0100
0000
0001
0000
,
1000
0010
1000
0000
0100
0000
0020
0000
0000
0000
0031
0000
1000
0000
0001
0100
,
0001
0000
1000
0000
1100
0000
1000
0000
0010
0100
0010
0100
0010
0000
1000
0000
,
0001
0000
0100
0000
0101
0000
0001
0000
0010
0100
0010
0100
0010
0000
0001
0000
,
1000
0000
0010
0000
0110
0000
0001
0000
1000
0000
0001
0000
0110
0000
1000
0100
,
1000
0000
0001
0000
0100
0000
0000
0101
0000
0000
0001
0000
0010
0000
0000
1010
,
0000
0000
1000
0000
0001
0000
1000
0100
1000
0000
0010
0000
0100
0000
0001
0000
,
1000
0000
0001
0000
0100
0010
0100
0010
0100
0000
0001
0000
1000
0000
0100
0000
,
0010
0000
0100
0000
0110
0000
1000
0001
1000
0001
1000
0000
0110
0000
0000
0010
,
0100
0000
0001
0000
1000
0000
0010
0100
0001
0000
1000
0000
0100
1000
0001
0100
,
0000
0201
0300
1020
,
0030
2100
3000
0012
,
0003
0000
0000
0000
;

//---------------dance-single - ----------------
#NOTEDATA:;
#CHARTNAME:;
#STEPSTYPE:dance-single;
#DESCRIPTION:;
#CHARTSTYLE:;
#DIFFICULTY:Challenge;
#METER:9;
#RADARVALUES:0.522940,0.490673,0.202500,0.194712,0.794423,470.000000,444.000000,26.000000,25.000000,0.000000,0.000000,0.000000,0.000000,0.000000,0.522940,0.490673,0.202500,0.194712,0.794423,470.000000,444.000000,26.000000,25.000000,0.000000,0.000000,0.000000,0.000000,0.000000;
#CREDIT:;
#NOTES:
0000
0000
0000
0000
,
0000
0000
0000
0000
,
0010
0100
0010
0000
1000
0000
0001
1000
0100
0010
0100
1000
0100
0000
0100
1000
,
0000
0010
0001
0000
1000
0001
0000
0000
0100
0001
1000
0000
0100
1000
0000
0000
,
0110
0000
1100
0000
1001
0000
1000
0001
0100
0000
0001
1000
0001
0000
0010
0100
,
0000
1000
0010
0000
0100
0010
0000
0000
0100
0001
0010
0000
0001
1000
0001
0000
,
0101
0000
0000
0000
1000
0001
1000
0000
1100
0000
0000
1000
0010
0100
0010
0100
,
0001
1000
0001
1000
0100
0010
0001
0100
0000
0000
0000
0000
0010
1000
0001
0100
,
0010
0000
0000
0000
0100
0001
1000
0010
0100
0000
0000
0001
0010
0100
0000
1000
,
0000
0001
1000
0010
0100
0001
0000
1000
0000
0100
0000
0000
0000
0010
0001
0000
,
1002
0000
0000
1000
0003
0000
0000
1001
0000
1000
0001
0100
0010
1000
0001
1000
,
0020
0000
0000
1000
0030
0000
1000
0100
0000
0010
0100
1000
0001
0100
0010
1000
,
0010
0100
0001
0100
0010
1000
0002
0000
0000
1003
0010
1000
0000
0000
0100
0010
,
0001
0100
0010
1000
0100
0010
0002
0000
0000
1003
0100
0010
0000
0000
0001
0000
,
1002
0000
0000
0100
0003
0000
0000
0010
0000
1000
0100
0010
0001
0100
0010
1000
,
0200
0000
0000
0010
0300
0000
0001
0100
0000
0010
1000
0001
0100
0010
1000
0100
,
1000
0001
0100
0001
0010
0100
2000
0000
0000
3001
1000
0100
0000
0000
0010
0001
,
0100
0001
0010
0100
1000
0001
2000
0000
0000
3001
0010
0100
0000
0000
0001
0100
,
0000
0110
0000
1001
,
0100
1000
0001
0000
0101
0000
0100
0010
1000
0000
0001
1000
0100
0010
0001
1000
,
0000
0010
0100
0000
0001
0100
0000
0000
0200
0000
1000
0000
0010
0000
1300
0000
,
0100
0001
0010
0000
0100
0000
1000
0001
0100
0000
0010
1000
0100
0010
0000
0001
,
0000
0010
0001
0000
0001
1000
0000
0000
0020
0000
0001
0000
0130
1000
0010
0000
,
0200
0000
0000
0000
0301
1000
0001
0000
0020
0000
0000
0130
1000
0001
1000
0001
,
0100
0010
1000
0100
0010
0001
1000
0100
0000
0000
0000
0000
0010
0001
0100
0010
,
2000
0000
0000
0000
3001
1000
0100
0010
0002
0000
0000
0013
0100
1000
0000
0010
,
0000
0100
0001
1000
0100
0000
0001
0100
0000
0010
0000
1000
0000
0010
1000
0000
,
2010
0000
0000
0100
3000
0000
0000
1000
0000
1000
0010
0100
0001
0010
0001
1000
,
0100
0000
0000
0010
0100
0000
1000
0010
0000
0001
0010
0100
1000
0001
0100
0010
,
1000
0100
1000
0001
0100
0010
0200
0000
0000
0301
1000
0001
0000
0000
0010
0100
,
1000
0010
0100
0001
0100
0010
2000
0000
0000
3001
0010
0100
0000
0000
1000
0001
,
0200
0000
0000
0010
0300
0000
0000
1000
0000
0100
1000
0001
0100
0010
0100
0001
,
2000
0000
0000
0010
3000
0000
0100
0001
0000
0001
0010
0100
0010
0001
1000
0001
,
0100
0010
1000
0001
0100
0010
2000
0000
0000
3100
0010
0001
0000
0000
0010
0100
,
1000
0001
0100
0001
1000
0010
2000
0000
0000
3001
1000
0100
0000
0000
0010
0001
,
0100
0000
0010
0000
1001
0000
1000
0001
0100
0010
1000
0001
0000
0000
1000
0010
,
0100
0000
0001
1000
0100
0010
0001
1000
0100
0010
0100
1000
0000
0000
0100
0001
,
0000
0001
0010
0000
1010
0000
0001
0010
0100
1000
0000
1001
0000
0000
0100
0001
,
1000
0100
1000
0000
1100
0000
1000
0010
0000
0001
0010
0000
0011
0000
0001
1000
,
0000
0000
1001
0000
1010
0000
0010
1000
0010
0100
0000
0101
0000
0000
0010
0100
,
1000
0000
0001
0000
0100
0001
1000
0100
0010
0001
0000
1000
0000
0000
0010
0100
,
0000
0001
1000
0000
1100
0000
0100
1000
0010
0100
0001
0100
0000
0000
0000
0001
,
0010
0000
0100
0000
1100
0000
1000
0001
1000
0000
0010
0000
0100
0001
1000
0100
,
0000
1200
1300
0021
,
0031
0210
0310
1002
,
1003
0000
0000
0000
;

//---------------dance-single - ----------------
#NOTEDATA:;
#CHARTNAME:;
#STEPSTYPE:dance-single;
#DESCRIPTION:;
#CHARTSTYLE:;
#DIFFICULTY:Medium;
#METER:6;
#RADARVALUES:0.252569,0.261400,0.132404,0.264808,0.000000,227.000000,210.000000,17.000000,34.000000,0.000000,0.000000,0.000000,0.000000,0.000000,0.252569,0.261400,0.132404,0.264808,0.000000,227.000000,210.000000,17.000000,34.000000,0.000000,0.000000,0.000000,0.000000,0.000000;
#CREDIT:;
#NOTES:
0000
0000
0000
0000
,
0000
0000
0000
0000
,
0001
1000
0100
0000
0001
0100
0001
0000
,
1000
1001
0010
0001
,
1000
0001
0100
0000
1000
0100
1000
0000
,
0001
0000
1001
0000
0010
0000
1000
0001
,
0100
0000
1000
0001
0100
0000
1000
0100
,
1000
0000
0010
0000
0001
0000
1000
0001
,
0010
0000
0100
1000
0010
0000
0100
0000
,
0001
1000
0100
0000
0010
0000
0100
0000
,
0220
0000
0330
0000
1000
0010
0001
0000
,
0220
0000
0330
0000
0001
0100
1000
0000
,
0002
0000
1003
0000
2000
0000
3001
1000
,
0020
0000
0130
0000
2000
0000
3100
0010
,
2002
0000
3003
0000
0100
0010
0100
0010
,
2002
0000
3003
0000
0100
0010
0100
0010
,
2000
3100
0002
0013
,
2000
0000
3010
0000
0002
0000
0103
0010
,
1000
0000
0000
0000
,
0002
1003
0020
0130
,
0001
0100
1000
0000
1100
0000
0101
0000
,
1000
0001
1000
0000
0010
0000
0100
0000
,
0001
0100
0001
0000
0101
0000
1100
0000
,
0001
0000
1000
0010
0100
0000
1000
0100
,
0010
0000
0001
0000
0100
0000
1000
0001
,
0010
0000
0100
1000
0010
0000
0100
0001
,
1000
0000
0100
0000
0001
0000
1000
0001
,
2002
0000
3003
0000
1000
0010
0001
0000
,
0220
0000
0330
0000
0001
0100
1000
0000
,
0020
1030
0200
0301
,
0020
0000
0130
0000
2000
0000
3001
1000
,
0220
0000
0330
0000
0001
0010
0100
1000
,
0220
0000
0330
0000
1000
0100
0010
0001
,
2000
0000
3001
0000
0200
0000
0310
1000
,
0002
0000
0013
0000
2000
0000
3100
0010
,
0001
0000
0101
0000
0001
0001
1000
0000
,
0100
0100
0010
0000
0001
0100
0001
0000
,
1000
1000
1000
0000
0001
0010
0100
0000
,
1000
0100
1000
0100
1000
0001
1000
0000
,
0010
0100
0010
0000
1000
0000
1001
0000
,
0100
0010
0100
0000
0001
0000
1001
0000
,
0001
1000
0100
0000
0010
0100
0010
0000
,
0001
0001
1000
1000
0010
0010
0100
0100
,
0000
0010
0000
1000
,
0000
0100
0000
0001
;

//---------------dance-single - ----------------
#NOTEDATA:;
#CHARTNAME:;
#STEPSTYPE:dance-single;
#DESCRIPTION:;
#CHARTSTYLE:;
#DIFFICULTY:Easy;
#METER:3;
#RADARVALUES:0.175797,0.174267,0.062308,0.280385,0.000000,158.000000,150.000000,8.000000,36.000000,0.000000,0.000000,0.000000,0.000000,0.000000,0.175797,0.174267,0.062308,0.280385,0.000000,158.000000,150.000000,8.000000,36.000000,0.000000,0.000000,0.000000,0.000000,0.000000;
#CREDIT:;
#NOTES:
// measure 0
0000
0000
0000
0000
,  // measure 1
0000
0000
0000
0000
,  // measure 2
2000
3010
0020
0130
,  // measure 3
0001
1000
0000
0000
,  // measure 4
0002
0013
0020
0130
,  // measure 5
1000
0001
0000
2000
,  // measure 6
3100
0002
0103
2000
,  // measure 7
3010
0002
0013
0100
,  // measure 8
2000
3000
0002
0003
,  // measure 9
1000
0001
0100
0010
,  // measure 10
2002
3003
0010
1000
,  // measure 11
2020
3030
1000
0001
,  // measure 12
0100
0010
1000
0001
,  // measure 13
0010
0100
1000
0001
,  // measure 14
2002
3003
0010
0001
,  // measure 15
0022
0033
0001
1000
,  // measure 16
0100
0010
0001
1000
,  // measure 17
0010
0100
0001
1000
,  // measure 18
0100
0000
0000
0000
,  // measure 19
2000
3100
0200
0310
,  // measure 20
0001
1000
0001
1000
,  // measure 21
0002
0103
0200
0310
,  // measure 22
1000
0001
1000
0002
,  // measure 23
0103
2000
3100
0002
,  // measure 24
0013
2000
3010
0100
,  // measure 25
0002
0003
2000
3000
,  // measure 26
0001
1000
0100
0010
,  // measure 27
2002
3003
0100
0001
,  // measure 28
0202
0303
0001
1000
,  // measure 29
0010
0100
0001
1000
,  // measure 30
0100
0010
0001
1000
,  // measure 31
2002
3003
0100
1000
,  // measure 32
2200
3300
1000
0001
,  // measure 33
0010
0100
1000
0001
,  // measure 34
0100
0010
1000
0001
,  // measure 35
0010
0100
0010
0100
,  // measure 36
1000
0010
0100
0001
,  // measure 37
1000
0001
1000
0001
,  // measure 38
0010
0100
1000
0001
,  // measure 39
0100
0010
1000
0001
,  // measure 40
0010
0100
1000
0010
,  // measure 41
0100
0001
0010
0100
,  // measure 42
1000
0001
1000
0001
,  // measure 43
0000
0100
0000
0100
,  // measure 44
0000
0100
0000
0100
;

//---------------dance-single - ----------------
#NOTEDATA:;
#CHARTNAME:;
#STEPSTYPE:dance-single;
#DESCRIPTION:;
#CHARTSTYLE:;
#DIFFICULTY:Beginner;
#METER:1;
#RADARVALUES:0.091236,0.115853,0.000000,0.062308,0.000000,82.000000,82.000000,0.000000,8.000000,0.000000,0.000000,0.000000,0.000000,0.000000,0.091236,0.115853,0.000000,0.062308,0.000000,82.000000,82.000000,0.000000,8.000000,0.000000,0.000000,0.000000,0.000000,0.000000;
#CREDIT:;
#NOTES:
// measure 0
0000
0000
0000
0000
,  // measure 1
0000
0000
0000
0000
,  // measure 2
0010
0000
0100
0000
,  // measure 3
0010
0010
0000
0000
,  // measure 4
1000
0000
0001
0000
,  // measure 5
1000
1000
0000
0100
,  // measure 6
0100
0000
0010
0000
,  // measure 7
0100
0000
0010
0000
,  // measure 8
0001
0000
1000
0000
,  // measure 9
0001
0000
1000
0000
,  // measure 10
0020
0030
0000
0000
,  // measure 11
0200
0300
0000
0000
,  // measure 12
0001
0000
1000
0000
,  // measure 13
0100
0000
0010
0000
,  // measure 14
0002
0003
0000
0000
,  // measure 15
2000
3000
0000
0000
,  // measure 16
0010
0000
0100
0000
,  // measure 17
0001
0000
1000
0000
,  // measure 18
0100
0000
0000
0000
,  // measure 19
0010
0000
0001
0000
,  // measure 20
1000
1000
0000
0000
,  // measure 21
0010
0000
1000
0000
,  // measure 22
0001
0001
0000
0100
,  // measure 23
0100
0000
0010
0000
,  // measure 24
1000
0000
0001
0000
,  // measure 25
0010
0000
0100
0000
,  // measure 26
1000
1000
1000
0000
,  // measure 27
0002
0003
0000
0000
,  // measure 28
0200
0300
0000
0000
,  // measure 29
1000
0000
0010
0000
,  // measure 30
0100
0000
0001
0000
,  // measure 31
0020
0030
0000
0000
,  // measure 32
2000
3000
0000
0000
,  // measure 33
0001
0000
1000
0000
,  // measure 34
0010
0000
0100
0000
,  // measure 35
0001
0001
0001
0000
,  // measure 36
1000
1000
1000
0000
,  // measure 37
0010
0000
0010
0000
,  // measure 38
0100
0100
0100
0000
,  // measure 39
0010
0010
0010
0000
,  // measure 40
0001
0001
0001
0000
,  // measure 41
0100
0000
0100
0000
,  // measure 42
1000
1000
1000
0000
;
