#TITLE:Cracks;
#SUBTITLE:(Flux Pavilion Remix);
#ARTIST:Freestylers feat. Belle Humble;
#TITLETRANSLIT:;
#SUBTITLETRANSLIT:;
#ARTISTTRANSLIT:;
#GENRE:Cracks;
#CREDIT:;
#BANNER:Cracks (Flux Pavilion Remix)-bn.png;
#BACKGROUND:Cracks (Flux Pavilion Remix)-bg.png;
#LYRICSPATH:Cracks (Flux Pavilion Remix).lrc;
#CDTITLE:;
#MUSIC:Cracks (Flux Pavilion Remix).mp3;
#OFFSET:-0.031000;
#SAMPLESTART:65.196999;
#SAMPLELENGTH:27.429001;
#LASTBEATHINT:254.987564;
#SELECTABLE:YES;
#BPMS:0.000000=140.000000
,48.000000=70.000000
,56.000000=140.000000
,237.000000=70.000000
;
#STOPS:68.000000=1.286000,
101.000000=0.429000,
126.000000=2.143000,
167.000000=0.429000,
192.000000=-5.142857,
204.000000=2.143000
;
#BGCHANGES:;
#KEYSOUNDS:;
#ATTACKS:;

//---------------dance-single - Blank----------------
#NOTES:
     dance-single:
     :
     Challenge:
     9:
     0.347197,0.637747,0.177636,0.347197,0.290677,301.000000,274.000000,22.000000,43.000000,20.000000,36.000000,0.347197,0.637747,0.177636,0.347197,0.290677,301.000000,274.000000,22.000000,43.000000,20.000000,36.000000:
// measure 0
0000
0000
0000
0000
,  // measure 1
0000
0000
0000
0000
,  // measure 2
0000
0000
0000
0000
,  // measure 3
0000
0000
0000
0000
0000
0000
1000
0010
,  // measure 4
1001
0000
0001
1000
0001
0000
1000
0000
,  // measure 5
0100
0000
0100
0010
0001
0100
0001
0000
,  // measure 6
1100
0000
0001
0100
0001
0000
1000
0000
,  // measure 7
0001
0000
0010
0100
1000
0001
1000
0001
,  // measure 8
0100
0000
0010
0000
1001
0000
1000
0001
,  // measure 9
0100
0000
0010
0000
1010
0000
0010
1000
,  // measure 10
0100
0000
1000
0000
0001
1000
0100
1000
,  // measure 11
0001
0000
1000
0001
0100
0000
0010
0100
,  // measure 12
0002
0000
0000
0000
0000
0000
0000
0000
0000
0000
0000
0000
0000
0000
0000
0000
2003
0000
0000
0000
0000
0000
0000
0000
3010
0000
0000
0000
1000
0000
0010
1000
,  // measure 13
0200
0000
0000
0000
0000
0000
0000
0000
0000
0000
0000
0000
0000
0000
0000
0000
2300
0000
0000
0000
0000
0000
0000
0000
3001
0000
0000
0000
0100
0000
0010
0100
,  // measure 14
0001
0001
1000
1000
0001
0001
1000
1000
,  // measure 15
0001
0001
1000
1000
0001
0001
1000
1000
,  // measure 16
0001
1000
0001
1000
0001
1000
0001
1000
0001
1000
0001
1000
0001
1000
0001
1000
,  // measure 17
0001
0100
0000
2210
,  // measure 18
0000
0001
0000
0010
,  // measure 19
0001
0000
0000
0000
0000
0000
0010
0000
0000
0001
0000
0000
3310
0000
0000
0000
0000
0000
0000
0000
0000
0000
0000
0000
0000
0000
0000
0000
000M
0000
0000
0000
00M0
0000
0000
0000
0M00
0000
0000
0000
M000
0000
0000
0000
0M00
0000
0000
0000
,  // measure 20
00M0
000M
0000
0002
0000
0000
0000
0000
0000
2003
0000
0000
,  // measure 21
3010
0000
1000
0010
1000
0000
000M
00M0
0M00
M000
0000
0000
0212
0000
0000
0000
,  // measure 22
0000
1000
0000
0010
,  // measure 23
1000
0000
0010
1000
0313
0000
0000
0000
MM00
0M00
00M0
0000
0M00
0000
00M0
0M00
,  // measure 24
MM00
2000
0000
3020
,  // measure 25
2030
0000
0000
0000
0000
0000
3001
0000
0000
0000
0000
0000
0021
0000
0000
0000
0000
0030
1002
0000
0000
0000
0000
0003
,  // measure 26
1200
0000
0320
0032
,  // measure 27
0203
0000
1001
0000
,  // measure 28
0302
0000
2003
3002
,  // measure 29
2003
0000
0011
3000
,  // measure 30
2000
0000
0000
0000
0000
0000
0000
0000
3011
0000
0000
0000
1000
0000
0001
0010
,  // measure 31
0001
0000
1100
0200
,  // measure 32
0000
0000
0000
0000
,  // measure 33
0000
0000
0000
2300
,  // measure 34
0000
0200
0000
0001
,  // measure 35
0000
0000
0000
0000
0010
0000
0000
0000
0001
0000
0010
0001
3310
0000
0000
0000
,  // measure 36
0000
0000
0000
0002
,  // measure 37
0000
0000
0000
0000
0200
0000
0000
0000
0010
0000
1000
0010
1303
0000
0000
0000
,  // measure 38
0000
0000
0000
0200
,  // measure 39
0000
0000
0000
0000
0020
0000
0000
0000
1000
0000
0001
1000
0331
0000
0000
0000
,  // measure 40
0000
1111
0000
0200
,  // measure 41
0000
0010
1000
0301
,  // measure 42
1020
0000
0000
0000
0000
0030
2001
0000
0000
0000
0000
3000
0201
0000
0000
0000
0000
0000
0000
0000
0000
0000
0000
0000
,  // measure 43
2300
3020
0032
0000
,  // measure 44
1003
0000
0002
0000
,  // measure 45
1003
0001
2100
0000
,  // measure 46
0101
0000
3102
0000
,  // measure 47
1010
0000
0000
0000
0010
0000
1000
0010
1003
0000
0000
0000
0000
0000
0000
0000
,  // measure 48
FF0F
0000
0000
0000
,  // measure 49
0000
0000
0000
0000
,  // measure 50
0000
0000
0000
0000
,  // measure 51
1101
0000
0000
0000
0001
0000
0000
0010
0100
0000
0000
0100
1000
0000
0000
1000
,  // measure 52
0100
0000
0000
0100
1000
0000
0000
1000
0001
0000
0000
0001
1000
0000
0000
1000
,  // measure 53
0001
0000
0100
0001
0100
0000
0000
0100
0001
0000
0000
0001
0100
0000
0000
0100
,  // measure 54
0001
0000
0000
0001
1000
0000
0000
1000
0001
0000
0000
0001
1000
0000
0000
1000
,  // measure 55
0010
0000
0100
0001
0100
0000
0000
0100
0010
0000
0000
0010
0100
0000
0000
0100
,  // measure 56
0010
0000
0000
0010
1000
0000
0000
1000
0100
0000
0000
0100
0010
0000
0000
0010
,  // measure 57
0100
0000
0010
0100
0010
0000
0000
0010
0001
0000
0000
0001
1000
0000
0000
1000
,  // measure 58
0001
0000
0000
0001
0100
0000
0000
0100
0010
0000
0000
0010
0100
0000
0000
0100
,  // measure 59
0001
0000
1000
0001
2000
0000
0100
0100
0000
0000
0000
0000
3002
0000
0000
0010
,  // measure 60
0010
0010
0013
0000
0000
0000
0000
0000
0000
0000
0000
0000
0100
0000
0000
0000
,  // measure 61
1000
0001
0100
0001
0000
0000
1000
0000
0000
0010
1000
0010
0000
0000
0100
0000
,  // measure 62
0000
0000
0000
0000
0000
0000
0000
0000
0000
0010
0001
1000
0000
0000
0001
0100
,  // measure 63
0000
0000
1000
0100
0000
0000
0000
0000
0000
0000
0000
0000
0000
0000
0000
0000
;

//---------------dance-single - Blank----------------
#NOTES:
     dance-single:
     :
     Hard:
     7:
     0.288370,0.485167,0.161487,0.258379,0.080743,250.000000,230.000000,20.000000,32.000000,0.000000,0.000000,0.288370,0.485167,0.161487,0.258379,0.080743,250.000000,230.000000,20.000000,32.000000,0.000000,0.000000:
// measure 0
0000
0000
0000
0000
,  // measure 1
0000
0000
0000
0000
,  // measure 2
0000
0000
0000
0000
,  // measure 3
0000
0000
0000
0000
0000
0000
1000
0010
,  // measure 4
1000
0000
0100
0010
0001
0000
1000
0000
,  // measure 5
0001
0000
1000
0010
0100
0001
1000
0000
,  // measure 6
0001
0000
0010
0100
0010
0000
0001
0000
,  // measure 7
1000
0000
0001
0000
1000
0000
0010
0100
,  // measure 8
0001
0000
0010
0000
0100
0000
1000
0001
,  // measure 9
0100
0010
1000
0100
,  // measure 10
0010
0000
0001
0000
1000
0001
0100
0001
,  // measure 11
1000
0000
0010
1000
0001
0000
0010
0001
,  // measure 12
2000
0000
0000
0000
0000
0000
0000
0000
0000
0000
0000
0000
0000
0000
0000
0000
3001
0000
0000
0000
0000
0000
0000
0000
1000
0000
0000
0000
0001
0000
1000
0001
,  // measure 13
2000
0000
0000
0000
0000
0000
0000
0000
0000
0000
0000
0000
0000
0000
0000
0000
3001
0000
0000
0000
0000
0000
0000
0000
1000
0000
0000
0000
0001
0000
1000
0001
,  // measure 14
1000
1000
0100
0100
0010
0010
0001
0001
,  // measure 15
1000
1000
0100
0100
0010
0010
0001
0001
,  // measure 16
1000
0100
0010
0001
1000
0100
0010
0001
,  // measure 17
1000
0002
1000
0103
,  // measure 18
0000
0201
0000
0310
,  // measure 19
1000
0000
0100
1000
0100
0000
0000
0000
0000
0000
0000
0000
1100
0000
0000
0000
,  // measure 20
0000
0200
0000
0310
,  // measure 21
0001
0000
1000
0001
1000
0000
0000
0000
0000
0000
0000
0000
0110
0000
0000
0000
,  // measure 22
0000
0020
0000
0130
,  // measure 23
0001
0000
1000
0001
1000
0000
0000
0000
0000
0000
0000
0000
0110
0000
0000
0000
,  // measure 24
0000
2000
0000
3200
,  // measure 25
0320
0031
1100
1001
,  // measure 26
0021
0000
0000
0000
0000
0000
0000
0000
0031
0000
0000
0000
1000
0000
0001
0100
,  // measure 27
0001
0000
1010
0000
,  // measure 28
0020
0000
0000
0000
0000
0000
0000
0000
1030
0000
0000
0000
0001
0000
0100
0010
,  // measure 29
0100
0001
1100
0000
,  // measure 30
0200
0000
0000
0000
0000
0000
0000
0000
0310
0000
0000
0000
0001
0000
1000
0100
,  // measure 31
1000
0000
2002
3003
,  // measure 32
0000
0000
0000
0000
,  // measure 33
0000
0000
0000
2000
,  // measure 34
0001
3100
0000
1200
,  // measure 35
0000
0000
0000
0000
0310
0000
0000
0000
0001
0000
0100
0001
0100
0000
0000
0000
,  // measure 36
0000
0101
0000
0200
,  // measure 37
0000
0000
0000
0000
0310
0000
0000
0000
1000
0000
0001
1000
0001
0000
0000
0000
,  // measure 38
0000
0110
0000
0020
,  // measure 39
0000
0000
0000
0000
0130
0000
0000
0000
1000
0000
0001
1000
0001
0000
0000
0000
,  // measure 40
0000
0110
0000
0002
,  // measure 41
0000
0203
0320
1030
,  // measure 42
0101
1001
1020
0000
,  // measure 43
1030
0000
0000
0000
0001
0000
1000
0100
1000
0000
0000
0000
0000
0000
0000
0000
,  // measure 44
0011
0000
0020
0000
,  // measure 45
0031
0000
0000
0000
1000
0000
0100
0010
0100
0000
0000
0000
1000
0000
0000
0000
,  // measure 46
0101
0000
0200
0000
,  // measure 47
0310
0000
0000
0000
1000
0000
0001
0100
0001
0000
0000
0000
0000
0000
0000
0000
,  // measure 48
F00F
0000
0000
0000
,  // measure 49
0000
0000
0000
0000
,  // measure 50
0000
0000
0000
0000
,  // measure 51
1001
0010
0000
0100
,  // measure 52
0000
0001
0000
1000
,  // measure 53
0100
0000
0010
0100
0010
0000
0000
0000
0000
0000
0000
0000
0001
0000
0000
0000
,  // measure 54
0000
1000
0000
0001
,  // measure 55
0100
0000
0010
0100
0010
0000
0000
0000
0000
0000
0000
0000
1000
0000
0000
0000
,  // measure 56
0000
0100
0000
0010
,  // measure 57
0001
0000
1000
0001
1000
0000
0000
0000
0000
0000
0000
0000
0001
0000
0000
0000
,  // measure 58
0000
0100
0000
0010
,  // measure 59
0100
0000
0001
0100
0002
0000
0000
0000
0000
0000
0000
0000
2003
0000
0000
0000
,  // measure 60
3010
1000
0200
0000
0000
0000
0320
0000
,  // measure 61
0031
1000
0200
0000
0000
0000
2300
0000
,  // measure 62
3001
0100
0020
0000
0000
0000
0230
0000
,  // measure 63
0301
1000
0100
0000
0000
0000
0000
0000
;

//---------------dance-single - Blank----------------
#NOTES:
     dance-single:
     :
     Medium:
     5:
     0.243384,0.305816,0.185710,0.008074,0.000000,211.000000,188.000000,23.000000,1.000000,0.000000,0.000000,0.243384,0.305816,0.185710,0.008074,0.000000,211.000000,188.000000,23.000000,1.000000,0.000000,0.000000:
// measure 0
0000
0000
0000
0000
,  // measure 1
0000
0000
0000
0000
,  // measure 2
0000
0000
0000
0000
,  // measure 3
0000
0000
0000
0000
,  // measure 4
1000
0000
0010
1000
0010
0000
1000
0000
,  // measure 5
0001
0000
0100
0010
0100
0000
0001
0000
,  // measure 6
1000
0100
0010
0001
,  // measure 7
1000
0000
0001
0000
0100
0010
0100
0000
,  // measure 8
0001
0000
0010
0000
0100
0000
1000
0001
,  // measure 9
1000
0010
0100
0001
,  // measure 10
0010
0000
0100
0000
0010
0100
0010
0100
,  // measure 11
0010
0000
0001
0000
0100
0000
0010
1000
,  // measure 12
0010
0000
0000
0000
1000
0000
1000
1000
,  // measure 13
1000
0000
0000
0000
0001
0000
0001
0100
,  // measure 14
0001
0000
0000
0000
,  // measure 15
1000
0000
0000
0000
1000
0000
1000
0001
,  // measure 16
1000
0000
0000
0000
,  // measure 17
0000
1001
0000
0010
,  // measure 18
0000
1001
0000
0010
,  // measure 19
1000
0001
1001
0000
0000
0000
0010
0000
,  // measure 20
0000
1001
0000
0010
,  // measure 21
0001
1000
1001
0000
0000
0000
0010
0000
,  // measure 22
0000
1001
0000
0010
,  // measure 23
1000
0001
1001
0000
0000
0000
0010
0000
,  // measure 24
0000
1001
0000
0010
,  // measure 25
0100
1001
0001
1000
,  // measure 26
0001
0000
0010
0100
,  // measure 27
1000
0000
1001
0000
,  // measure 28
0100
0000
0010
0100
,  // measure 29
1001
0000
0100
0000
,  // measure 30
1001
0000
0000
0000
0100
0000
0010
0100
,  // measure 31
1001
0000
0100
0002
,  // measure 32
0000
0000
0000
0000
,  // measure 33
0000
0000
0000
1003
,  // measure 34
0010
1001
0000
0001
,  // measure 35
1000
1001
0010
0100
,  // measure 36
0001
0101
0000
1000
,  // measure 37
0100
0010
0100
0010
,  // measure 38
0001
1001
0000
0001
,  // measure 39
0000
1000
0010
0100
,  // measure 40
0000
1001
0000
0010
,  // measure 41
0000
1000
0001
1001
,  // measure 42
0100
0010
1000
0000
,  // measure 43
1001
0010
0100
0000
,  // measure 44
1001
0000
0010
0000
,  // measure 45
1000
0000
0001
1000
0001
0000
0000
0000
,  // measure 46
1001
0000
0100
0000
,  // measure 47
0010
0000
1000
0001
1001
0000
0000
0000
,  // measure 48
00F0
0000
0000
0000
,  // measure 49
0000
0000
0000
0000
,  // measure 50
0000
0000
0000
0000
,  // measure 51
0010
1000
1000
0100
,  // measure 52
0100
0001
0001
0100
,  // measure 53
0010
0001
0001
0100
,  // measure 54
0100
1000
1000
0100
,  // measure 55
0010
1000
1000
0010
,  // measure 56
0010
0001
0001
0010
,  // measure 57
0100
0001
0001
0100
,  // measure 58
0100
1000
1000
0100
,  // measure 59
0010
1000
0000
0000
,  // measure 60
0100
0010
0001
0000
0000
0000
0001
0000
,  // measure 61
1000
0001
1000
0000
0000
0000
0010
0000
,  // measure 62
0100
0001
0100
0000
0000
0000
0001
0000
,  // measure 63
0010
0100
0000
0000
0000
0000
0000
0000
;

//---------------dance-single - Blank----------------
#NOTES:
     dance-single:
     :
     Easy:
     3:
     0.148799,0.204281,0.024223,0.363346,0.000000,129.000000,126.000000,3.000000,45.000000,0.000000,0.000000,0.148799,0.204281,0.024223,0.363346,0.000000,129.000000,126.000000,3.000000,45.000000,0.000000,0.000000:
// measure 0
0000
0000
0000
0000
,  // measure 1
0000
0000
0000
0000
,  // measure 2
0000
0000
0000
0000
,  // measure 3
0000
0000
0000
0000
,  // measure 4
2000
0000
3100
0000
,  // measure 5
0010
0000
0001
0100
,  // measure 6
0001
0000
0010
0000
,  // measure 7
0100
0000
1000
0001
,  // measure 8
1000
0000
0010
0000
,  // measure 9
0100
0000
0001
0010
,  // measure 10
0100
0000
1000
0000
,  // measure 11
0001
0000
1000
0010
,  // measure 12
0100
0000
0001
0100
,  // measure 13
0001
0000
1000
0100
,  // measure 14
1000
0000
0000
0000
,  // measure 15
0001
0000
0100
0001
,  // measure 16
0100
0000
0000
0000
,  // measure 17
0000
0020
0000
0030
,  // measure 18
0000
0020
0000
1030
,  // measure 19
0001
2000
0000
3000
,  // measure 20
0000
0002
0000
0013
,  // measure 21
0001
2000
0000
3000
,  // measure 22
0000
0002
0000
1003
,  // measure 23
0001
2000
0000
3010
,  // measure 24
0000
0200
0000
0310
,  // measure 25
0100
0001
0010
0010
,  // measure 26
0010
0000
0100
0010
,  // measure 27
0200
0000
0310
0000
,  // measure 28
0200
0000
0310
0100
,  // measure 29
0020
0000
0130
0000
,  // measure 30
0020
0000
0130
0010
,  // measure 31
0200
0000
1300
0000
,  // measure 32
0000
0000
0000
0000
,  // measure 33
0000
0000
0000
1010
,  // measure 34
0000
0000
0000
0020
,  // measure 35
0000
1030
0001
2000
,  // measure 36
0000
3000
0000
0002
,  // measure 37
0000
0013
0001
0011
,  // measure 38
0000
0000
0000
2000
,  // measure 39
0000
3001
0100
0002
,  // measure 40
0000
0003
0000
2000
,  // measure 41
0000
3010
0100
0001
,  // measure 42
0020
0230
2300
0000
,  // measure 43
3100
0010
0200
0000
,  // measure 44
0310
0000
0200
0000
,  // measure 45
0310
0100
0220
0000
,  // measure 46
0330
0000
0020
0000
,  // measure 47
0031
1000
0200
0000
,  // measure 48
0300
0000
0000
0000
,  // measure 49
0000
0000
0000
0000
,  // measure 50
0000
0000
0000
0000
,  // measure 51
0000
2000
0000
3010
,  // measure 52
0000
0002
0000
0013
,  // measure 53
0001
2000
0000
3001
,  // measure 54
0000
2000
0000
3001
,  // measure 55
0100
0020
0000
0130
,  // measure 56
0000
0002
0000
0103
,  // measure 57
0010
2000
0000
3100
,  // measure 58
0000
2000
0000
3100
,  // measure 59
0010
0002
0000
2003
,  // measure 60
0000
3002
0000
2003
,  // measure 61
0000
3002
0000
0203
,  // measure 62
0000
0320
0000
2030
,  // measure 63
0000
3000
0000
0000
;

//---------------dance-single - Blank----------------
#NOTES:
     dance-single:
     :
     Beginner:
     1:
     0.118808,0.201051,0.008074,0.016149,0.000000,103.000000,102.000000,1.000000,2.000000,0.000000,0.000000,0.118808,0.201051,0.008074,0.016149,0.000000,103.000000,102.000000,1.000000,2.000000,0.000000,0.000000:
// measure 0
0000
0000
0000
0000
,  // measure 1
0000
0000
0000
0000
,  // measure 2
0000
0000
0000
0000
,  // measure 3
0000
0000
0000
0000
,  // measure 4
1000
0000
0000
0000
,  // measure 5
0001
0000
0010
0000
,  // measure 6
0001
0000
0000
0000
,  // measure 7
1000
0000
0100
0000
,  // measure 8
1000
0000
0000
0000
,  // measure 9
0001
0000
0100
0000
,  // measure 10
0001
0000
0000
0000
,  // measure 11
0010
0000
0100
0000
,  // measure 12
0010
0000
0010
0010
,  // measure 13
0010
0000
0100
0100
,  // measure 14
0100
0000
0000
0000
,  // measure 15
1000
0000
1000
1000
,  // measure 16
1000
0000
0000
0000
,  // measure 17
0000
1001
0000
0000
,  // measure 18
0000
0001
0000
0010
,  // measure 19
0000
0001
0000
0000
,  // measure 20
0000
1000
0000
0010
,  // measure 21
0000
1000
0000
0000
,  // measure 22
0000
0010
0000
1000
,  // measure 23
0000
0100
0000
0000
,  // measure 24
0000
0010
0000
0001
,  // measure 25
0000
0100
0100
0000
,  // measure 26
0100
0000
0100
0000
,  // measure 27
0010
0000
0010
0000
,  // measure 28
1000
0000
1000
0000
,  // measure 29
0100
0000
0001
0000
,  // measure 30
0001
0000
0001
0000
,  // measure 31
0010
0000
1000
1000
,  // measure 32
0000
0000
0000
0000
,  // measure 33
0000
0000
0000
0001
,  // measure 34
0000
0010
0000
0010
,  // measure 35
0000
0001
0001
0001
,  // measure 36
0000
1000
0000
1000
,  // measure 37
0000
0100
0000
0001
,  // measure 38
0000
0001
0000
0010
,  // measure 39
0000
1000
0000
1000
,  // measure 40
0000
0001
0000
1000
,  // measure 41
0000
0100
0100
0100
,  // measure 42
0100
0100
0100
0000
,  // measure 43
0010
0010
0010
0000
,  // measure 44
0000
0000
0001
0000
,  // measure 45
1000
1000
1000
0000
,  // measure 46
0000
0000
0010
0000
,  // measure 47
1000
0000
0100
0000
,  // measure 48
0000
0000
0000
0000
,  // measure 49
0000
0000
0000
0000
,  // measure 50
0000
0000
0000
0000
,  // measure 51
0000
0001
0000
0001
,  // measure 52
0000
0001
0000
1000
,  // measure 53
0000
0100
0000
0100
,  // measure 54
0000
0100
0000
0010
,  // measure 55
0000
0100
0000
0100
,  // measure 56
0000
0100
0000
1000
,  // measure 57
0000
0001
0000
0001
,  // measure 58
0000
0001
0000
1000
,  // measure 59
0000
0002
0000
0003
,  // measure 60
0000
0010
0000
0000
,  // measure 61
0000
2000
0000
3000
,  // measure 62
0000
0010
0000
0000
;
