#VERSION:0.83;
#TITLE:Conquest of Spaces;
#SUBTITLE:;
#ARTIST:Woodkid;
#TITLETRANSLIT:;
#SUBTITLETRANSLIT:;
#ARTISTTRANSLIT:;
#GENRE:The Golden Age;
#ORIGIN:;
#CREDIT:;
#BANNER:Conquest of Spaces-bn.png;
#BACKGROUND:Conquest of Spaces-bg.png;
#PREVIEWVID:;
#JACKET:Conquest of Spaces-jacket.png;
#CDIMAGE:;
#DISCIMAGE:;
#LYRICSPATH:;
#CDTITLE:;
#MUSIC:Conquest of Spaces.mp3;
#OFFSET:0.000000;
#SAMPLESTART:61.433334;
#SAMPLELENGTH:15.360001;
#SELECTABLE:YES;
#BPMS:0.000=125.000;
#STOPS:;
#DELAYS:;
#WARPS:;
#TIMESIGNATURES:0.000=4=4;
#TICKCOUNTS:0.000=2;
#COMBOS:0.000=1;
#SPEEDS:0.000=1.000=0.000=0;
#SCROLLS:0.000=1.000;
#FAKES:;
#LABELS:0.000=Song Start;
#LASTSECONDHINT:139.713348;
#BGCHANGES:-0.500=Conquest of Spaces-video.avi=1.000=1=0=1===CrossFade==,
290.000=Conquest of Spaces-bg.png=1.000=1=0=1===CrossFade==,
99999=-nosongbg-=1.000=0=0=0 // don't automatically add -songbackground-
;
#KEYSOUNDS:;
#ATTACKS:
;

//---------------dance-single - ----------------
#NOTEDATA:;
#CHARTNAME:;
#STEPSTYPE:dance-single;
#DESCRIPTION:;
#CHARTSTYLE:;
#DIFFICULTY:Challenge;
#METER:11;
#RADARVALUES:0.798435,0.840083,0.304599,0.106256,1.115684,789.000000,746.000000,43.000000,15.000000,0.000000,0.000000,0.000000,0.000000,0.000000,0.798435,0.840083,0.304599,0.106256,1.115684,789.000000,746.000000,43.000000,15.000000,0.000000,0.000000,0.000000,0.000000,0.000000;
#CREDIT:;
#NOTES:
0000
0000
0000
0000
,
0000
0000
0000
0000
,
0000
0000
0000
0000
,
0000
0000
0000
0000
,
0001
0100
0010
1000
0010
0100
0001
0100
0010
1000
0100
0010
0001
0010
0100
1000
,
0100
0010
0001
1000
0001
0010
0100
0010
0001
0010
0100
1000
0100
0010
0001
0010
,
0100
1000
0010
0100
0001
0010
0100
1000
0010
1000
0001
0100
0001
1000
0010
1000
,
0001
0100
0010
1000
0010
0100
0001
1000
0010
0100
0001
1000
0010
0100
0001
1000
,
0100
0000
0000
1100
0000
1000
0001
0000
0101
0000
0000
0000
1001
0000
0100
0000
,
0101
0000
0000
1001
0000
1000
0100
0000
1100
0000
0000
0000
0011
0000
0100
0000
,
0101
0000
0000
0110
0000
0010
1000
0000
1001
0000
0000
0000
0011
0000
1000
0000
,
1010
0000
0000
1001
0000
0001
1000
0000
0101
0000
0000
0000
1001
0000
0100
0000
,
0101
0000
1000
0100
0000
0100
1000
0000
0101
0000
0000
0000
1100
0000
0001
0000
,
0101
0000
1000
0100
0000
0100
1000
0000
0101
0000
0000
0000
1001
0000
0010
0000
,
1010
0000
0001
0010
0000
0010
0001
0000
1010
0000
0000
0000
1001
0000
1000
0000
,
1100
0000
0010
0100
0000
0100
0010
0000
1100
0000
0000
0000
0101
0000
0000
0000
,
0001
0000
0000
0010
0000
0010
0100
0000
1000
0000
0000
0000
0001
0000
1000
0000
,
0001
0000
0000
0100
0000
0000
0010
0000
1000
0000
0000
0000
0001
0000
0000
0000
,
0010
0000
0000
0100
0000
1000
0001
0000
0100
0000
0000
0000
0010
0000
1000
0000
,
0001
0000
0000
0010
0000
0000
0100
0000
1000
0000
0000
0000
0010
0000
0000
0000
,
0100
0000
0000
0001
0000
1000
0100
0000
0100
0000
0000
0000
0010
0000
0001
0000
,
1000
0000
0000
0010
0000
0000
0001
0000
0100
0000
0000
0000
0010
0000
0000
0000
,
0100
0000
0000
0001
0000
1000
0100
0000
0010
0000
0000
0000
0001
0000
1000
0000
,
0010
0000
0000
0100
0000
0000
0001
0000
0010
0000
0000
0000
0100
0000
0000
0000
,
1000
0100
0010
0001
0010
0100
1000
0100
0010
0001
0100
0010
1000
0010
0100
0001
,
0100
0010
1000
0001
1000
0010
0100
0010
1000
0010
0100
0001
0100
0010
1000
0010
,
0100
0001
0010
0100
1000
0010
0100
0001
0010
0001
1000
0100
1000
0001
0010
0001
,
1000
0100
0010
0001
0010
0100
1000
0001
0010
0100
1000
0100
0010
0001
1000
0100
,
0010
0001
1000
0100
1000
0001
0010
0001
1000
0100
0010
0001
1000
0100
0010
0001
,
1000
0100
1000
0001
0010
0100
1000
0001
0010
0001
1000
0100
0010
0001
1000
0100
,
1000
0010
0100
0001
0100
0010
1000
0001
0010
0100
1000
0010
0100
0001
0010
0100
,
1000
0100
0010
0001
0010
0100
1000
0001
0010
0100
1000
0100
0010
0000
0000
0000
,
0002
0000
0000
0100
0003
1000
0010
0000
1000
0000
0000
0000
1010
0000
0100
0000
,
2100
0000
0000
0001
3000
0001
0100
0000
0001
0000
1000
0000
0100
0000
0000
0000
,
0010
0000
0001
1000
0000
0010
0100
0000
0001
0000
1000
0000
0100
0000
1100
0000
,
0010
0000
0100
0001
0000
1000
0100
0000
0010
0000
0000
0000
1001
0000
0100
0000
,
0010
0000
1000
0100
0000
0100
0001
0000
0100
0000
0000
0000
0101
0000
0010
0000
,
1020
0000
0000
0100
0030
1000
0001
0000
0100
0000
0001
0000
1000
0000
0010
0000
,
0100
0000
0001
0010
0000
1000
0010
0000
0001
0000
1000
0000
0100
0000
0001
0000
,
0100
0000
1000
0001
0000
1000
0100
0000
1000
0000
0000
0000
1001
0000
0000
0000
,
0001
1000
0010
0100
0001
1000
0010
0100
0001
0010
0100
1000
0001
0010
0100
1000
,
0010
1000
0001
0100
0010
1000
0001
0100
0010
0100
0001
1000
0010
0100
0001
1000
,
0100
1000
0001
0010
0100
1000
0001
0010
0100
1000
0001
0100
0010
1000
0001
0010
,
0100
0010
0001
1000
0100
0010
0001
1000
0010
1000
0001
0100
0010
1000
0001
0100
,
0020
0000
2000
3000
,
0002
0000
0000
0033
,
0200
0000
2000
3000
,
0002
0000
0303
0101
,
0001
0100
0001
0100
0001
0100
0001
0100
0010
1000
0001
0100
0010
1000
0001
0100
,
0010
1000
0010
1000
0010
1000
0010
1000
0001
0010
0100
1000
0001
0010
0100
1000
,
0010
0100
0001
1000
0010
0100
0001
1000
0100
1000
0001
1000
0100
1000
0001
1000
,
0010
0100
0001
1000
0010
0100
0001
1000
0010
1000
0001
1000
0010
1000
0001
1000
,
0100
0010
0001
0010
0100
1000
0001
0010
0100
1000
0100
0010
0001
1000
0100
0010
,
0001
0010
0100
1000
0001
0010
0100
1000
0100
0010
0001
1000
0100
0010
0001
1000
,
0010
0100
0001
1000
0010
0100
0001
1000
0001
0010
0100
1000
0001
0010
0100
1000
,
0010
1000
0001
0100
0010
1000
0001
0100
0001
1000
0010
0100
0001
1000
0010
0100
,
0001
0010
0100
1000
0100
0010
0001
1000
0100
0010
0001
0010
0100
1000
0001
0010
,
0100
1000
0100
0010
0001
0010
0100
1000
0001
0010
0100
1000
0100
0010
0001
1000
,
0100
0010
0001
0010
0100
1000
0001
0010
0100
1000
0100
0010
0001
0010
0100
1000
,
0100
0010
0001
1000
0100
0010
0001
0010
0100
1000
0001
0010
0100
1000
0100
0010
,
0001
1000
0010
0100
0001
1000
0010
0100
0001
0100
0010
1000
0001
0100
0010
1000
,
0001
0010
0100
1000
0001
0010
0100
1000
0100
0010
0001
1000
0100
0010
0001
1000
,
0100
1000
0010
0100
0001
0100
0010
1000
0100
0010
0001
1000
0010
0100
0001
1000
,
0100
0010
0100
1000
0001
0010
0100
0010
0001
1000
0010
0100
0001
1000
0010
0100
,
0002
0000
0000
0100
0003
1000
0010
0000
1000
0000
0000
0000
1010
0000
0100
0000
,
2100
0000
0000
0001
3000
0001
0100
0000
0001
0000
0000
0000
1000
0000
0100
0000
,
0200
0000
0000
1000
0300
1000
0001
0000
0100
0000
0000
0000
0011
0000
0100
0000
,
1100
0000
0000
0001
0000
0100
0001
0000
1000
0000
0000
0000
1001
0000
0000
0000
,
0010
0000
1000
0100
0000
0100
0001
0000
0100
0000
0000
0000
0101
0000
0010
0000
,
1020
0000
0000
0100
0030
1000
0001
0000
0100
0000
0000
0000
0001
0000
1000
0000
,
0010
0000
0100
0001
0000
1000
0100
0000
0010
0000
0001
0000
1000
0000
0100
0000
,
1000
0000
1000
0010
0000
0100
0001
0000
1000
0000
0010
0100
2002
0000
3003
0000
;

//---------------dance-single - ----------------
#NOTEDATA:;
#CHARTNAME:;
#STEPSTYPE:dance-single;
#DESCRIPTION:;
#CHARTSTYLE:;
#DIFFICULTY:Hard;
#METER:8;
#RADARVALUES:0.445262,0.509142,0.205428,0.134590,0.322309,440.000000,411.000000,29.000000,19.000000,0.000000,0.000000,0.000000,0.000000,0.000000,0.445262,0.509142,0.205428,0.134590,0.322309,440.000000,411.000000,29.000000,19.000000,0.000000,0.000000,0.000000,0.000000,0.000000;
#CREDIT:;
#NOTES:
// measure 0
0000
0000
0000
0000
,  // measure 1
0000
0000
0000
0000
,  // measure 2
0000
0000
0000
0000
,  // measure 3
0000
0000
0000
0000
,  // measure 4
0002
0100
0010
0103
,  // measure 5
2000
0010
0100
3010
,  // measure 6
0002
0100
1000
0013
,  // measure 7
2000
0100
0001
3010
,  // measure 8
0100
0000
0000
1000
0000
1000
0001
0000
0100
0000
0000
0000
1001
0000
0100
0000
,  // measure 9
0001
0000
0000
0010
0000
0100
1000
0000
0010
0000
0000
0000
0110
0000
0000
0000
,  // measure 10
0001
0000
0000
1000
0000
0010
1000
0000
0100
0000
0000
0000
1001
0000
0100
0000
,  // measure 11
0010
0000
0000
0001
0000
1000
0001
0000
0100
0000
0000
0000
1001
0000
0000
0000
,  // measure 12
0001
0000
1000
0100
0000
0100
1000
0000
0001
0000
0000
0000
1100
0000
0001
0000
,  // measure 13
0100
0000
0010
1000
0000
1000
0010
0000
0100
0000
0000
0000
1001
0000
0000
0000
,  // measure 14
0001
0000
0010
0100
0000
0100
0010
0000
0001
0000
0000
0000
1001
0000
1000
0000
,  // measure 15
0100
0000
1000
0010
0000
0010
1000
0000
0100
0000
0000
0000
0110
0000
0000
0000
,  // measure 16
0001
0000
0000
0010
0000
0010
0100
0000
1000
0000
0000
0000
0001
0000
1000
0000
,  // measure 17
0001
0000
0000
0100
0000
0000
0010
0000
1000
0000
0000
0000
0001
0000
0000
0000
,  // measure 18
0010
0000
0000
0100
0000
1000
0001
0000
0100
0000
0000
0000
0010
0000
1000
0000
,  // measure 19
0001
0000
0000
0010
0000
0000
0100
0000
1000
0000
0000
0000
0010
0000
0000
0000
,  // measure 20
0100
0000
0000
0001
0000
1000
0100
0000
0100
0000
0000
0000
0010
0000
0001
0000
,  // measure 21
1000
0000
0000
0010
0000
0000
0001
0000
0100
0000
0000
0000
0010
0000
0000
0000
,  // measure 22
0100
0000
0000
0001
0000
1000
0100
0000
0010
0000
0000
0000
0001
0000
1000
0000
,  // measure 23
0010
0000
0000
0100
0000
0000
0001
0000
0010
0000
0000
0000
0100
0000
0000
0000
,  // measure 24
1000
0000
0000
0010
0000
0100
0001
0000
1000
0000
0000
0000
0010
0000
1000
0000
,  // measure 25
0100
0000
0000
0010
0000
0000
0001
0000
0100
0000
0000
0000
0010
0000
0000
0000
,  // measure 26
1000
0000
0000
0010
0000
0100
0001
0000
0010
0000
0000
0000
0100
0000
1000
0000
,  // measure 27
0001
0000
0000
0100
0000
0000
0010
0000
1000
0000
0000
0000
0100
0000
0000
0000
,  // measure 28
0010
0000
0000
0001
0000
1000
0010
0000
0100
0000
0000
0000
0001
0000
1000
0000
,  // measure 29
0010
0000
0000
1000
0000
0000
0100
0000
0010
0000
0000
0000
0001
0000
0000
0000
,  // measure 30
1000
0000
0000
0100
0000
0010
0001
0000
1000
0000
0000
0000
0010
0000
0100
0000
,  // measure 31
0001
0000
0000
0010
0000
0000
0100
0000
1000
0000
0000
0000
1001
0000
0000
0000
,  // measure 32
0002
0000
0000
0100
0003
1000
0010
0000
1000
0000
0000
0000
1010
0000
0100
0000
,  // measure 33
1100
0000
0000
0001
0000
0000
0100
0000
0000
0000
0010
0000
1000
0000
0000
0000
,  // measure 34
0001
0000
0000
0010
0000
0000
0100
0000
1000
0000
0000
0000
0010
0000
1000
0000
,  // measure 35
0001
0000
0000
0100
0000
0000
0010
0000
1000
0000
0000
0000
1001
0000
0000
0000
,  // measure 36
0010
0000
1000
0100
0000
0001
0100
0000
0010
0000
0000
0000
0110
0000
0010
0000
,  // measure 37
1010
0000
0000
0100
0000
0000
0001
0000
1000
0000
0100
0000
1000
0000
0010
0000
,  // measure 38
0100
0000
0000
0001
0000
0000
1000
0000
0010
0000
1000
0000
0100
0000
0001
0000
,  // measure 39
0100
0000
0000
1000
0000
0000
0001
0000
0100
0000
0000
0000
1001
0000
0000
0000
,  // measure 40
0020
1000
0100
1030
,  // measure 41
0200
1000
0001
1300
,  // measure 42
0002
0010
0100
1003
,  // measure 43
0200
0001
0010
1300
,  // measure 44
0020
0000
2000
3000
,  // measure 45
0002
0000
0000
0033
,  // measure 46
0200
0000
2000
3000
,  // measure 47
0002
0000
0303
0101
,  // measure 48
0002
0000
0000
0100
0003
1000
0010
0000
1000
0000
0000
0000
1100
0000
0010
0000
,  // measure 49
1010
0000
0000
0001
0000
0000
0010
0000
0000
0000
0100
0000
1000
0000
0000
0000
,  // measure 50
0001
0000
0000
0100
0000
0000
0010
0000
1000
0000
0000
0000
0100
0000
1000
0000
,  // measure 51
0001
0000
0000
0010
0000
0000
0100
0000
1000
0000
0000
0000
1001
0000
0000
0000
,  // measure 52
0100
0000
1000
0010
0000
0001
0010
0000
0100
0000
0000
0000
1001
0000
0100
0000
,  // measure 53
1010
0000
0000
0100
0000
0000
0001
0000
0010
0000
0100
0000
1000
0000
0001
0000
,  // measure 54
0100
0000
0000
0001
0000
0000
1000
0000
0010
0000
1000
0000
0100
0000
0001
0000
,  // measure 55
0100
0000
0000
1000
0000
0000
0001
0000
0010
0000
0000
0000
1001
0000
0000
0000
,  // measure 56
2000
0000
0000
0010
3000
0001
0100
0000
0001
0000
0000
0000
0101
0000
1000
0000
,  // measure 57
1100
0000
0000
0001
0000
0000
1000
0000
0000
0000
0010
0000
0100
0000
0000
0000
,  // measure 58
0001
0000
0000
0010
0000
0100
1000
0000
0001
0000
0000
0000
0100
0000
0001
0000
,  // measure 59
1000
0000
0000
0010
0000
0100
0001
0000
1000
0000
0000
0000
1001
0000
0000
0000
,  // measure 60
0100
0000
0001
0010
0000
1000
0010
0000
0100
0000
0000
0000
1010
0000
0100
0000
,  // measure 61
1010
0000
0000
1000
0000
0001
1000
0000
0001
0000
0010
0000
0001
0000
0100
0000
,  // measure 62
0010
0000
1000
0100
0000
0010
0001
0000
0100
0000
0001
0000
0010
0000
1000
0000
,  // measure 63
0010
0000
0001
0010
0000
0001
0010
0000
0100
0000
0000
0000
1001
0000
0000
0000
,  // measure 64
1000
0000
0000
0001
0000
0100
0010
0000
1000
0000
0001
0000
1000
0000
0100
0000
,  // measure 65
0010
0000
0000
0001
0000
0100
0010
0000
0100
0000
0001
0000
1000
0000
0001
0000
,  // measure 66
0010
0000
0000
0100
0000
1000
0010
0000
1000
0000
0100
0000
0010
0000
0001
0000
,  // measure 67
1000
0000
0000
0010
0000
1000
0001
0000
0010
0000
0100
0000
0010
0000
0001
0000
,  // measure 68
1000
0000
0000
0001
0000
0100
0010
0000
1000
0000
0001
0000
0100
0000
0001
0000
,  // measure 69
1000
0000
0000
0010
0000
1000
0100
0000
0010
0000
0001
0000
1000
0000
0100
0000
,  // measure 70
1000
0000
0000
0010
0000
1000
0001
0000
0010
0000
0100
0000
0010
0000
0001
0000
,  // measure 71
1000
0000
0000
0010
0000
1000
0001
0000
0100
0000
0010
0000
2002
0000
3003
0000
;

//---------------dance-single - ----------------
#NOTEDATA:;
#CHARTNAME:;
#STEPSTYPE:dance-single;
#DESCRIPTION:;
#CHARTSTYLE:;
#DIFFICULTY:Medium;
#METER:6;
#RADARVALUES:0.300552,0.356399,0.070837,0.162925,0.106256,297.000000,287.000000,10.000000,23.000000,0.000000,0.000000,0.000000,0.000000,0.000000,0.300552,0.356399,0.070837,0.162925,0.106256,297.000000,287.000000,10.000000,23.000000,0.000000,0.000000,0.000000,0.000000,0.000000;
#CREDIT:;
#NOTES:
0000
0000
0000
0000
,
0000
0000
0000
0000
,
0000
0000
0000
0000
,
0000
0000
0000
0000
,
0002
0010
1000
0013
,
2000
0100
0001
3100
,
0002
0010
1000
0013
,
2000
0100
0001
3100
,
0001
0010
0100
1001
,
0100
1000
0010
1001
,
0010
0100
0010
1001
,
0100
0001
0100
1001
,
0010
1000
0100
1001
,
0100
1000
0010
1001
,
0010
1000
0100
1001
,
0100
0010
0100
1001
,
0010
1000
0100
0100
,
0010
0001
2000
3000
,
0010
1000
0100
0010
,
0200
0000
2300
0000
,
3001
0010
0100
1000
,
0010
1000
0002
0003
,
0100
0010
0100
0001
,
0010
0100
0020
0030
,
0100
1000
0010
0001
,
1000
0100
0001
0010
,
0100
0001
0010
1000
,
0001
0010
1000
0100
,
0010
1000
0100
0001
,
1000
0100
0001
0010
,
0100
0001
0010
1000
,
0001
0010
1000
0100
,
0010
0000
0000
0001
0000
0000
1000
0000
0010
0000
0000
0000
1000
0000
0001
0000
,
1000
0000
0000
0100
0000
0000
0010
0000
0000
0000
0001
0000
0000
0000
0000
0000
,
1000
0000
0000
0010
0000
0000
1000
0000
0000
0000
0000
0000
0001
0000
0100
0000
,
0010
0000
0000
1000
0000
0000
0100
0000
0000
0000
0000
0000
0000
0000
0000
0000
,
0010
0000
0000
0001
0000
0000
1000
0000
0100
0000
0000
0000
0010
0000
0100
0000
,
0010
0000
0000
0001
0000
0000
1000
0000
0000
0000
0010
0000
0000
0000
0000
0000
,
0100
0000
0000
0001
0000
0000
0010
0000
0100
0000
0000
0000
1000
0000
0001
0000
,
2000
0000
0000
3000
,
0002
0100
1000
0103
,
2000
0010
0001
3010
,
0200
1000
0010
1300
,
0020
0001
0100
0031
,
0200
0000
0020
0030
,
2000
0000
0000
3300
,
0002
0000
2000
3000
,
0020
0000
0033
0011
,
1000
0000
0000
0010
0000
0000
0100
0000
0001
0000
0000
0000
0010
0000
0100
0000
,
0010
0000
0000
0001
0000
0000
1000
0000
0000
0000
0100
0000
0000
0000
0000
0000
,
0010
0000
0000
0100
0000
0000
1000
0000
0000
0000
0000
0000
0010
0000
1000
0000
,
0100
0000
0000
0010
0000
0000
0001
0000
0000
0000
0000
0000
0000
0000
0000
0000
,
1000
0000
0000
0010
0000
0000
0100
0000
0001
0000
0000
0000
1000
0000
0010
0000
,
1000
0000
0000
0100
0000
0000
0010
0000
0000
0000
0001
0000
0000
0000
1000
0000
,
0100
0000
0000
0010
0000
0000
0001
0000
1000
0000
0000
0000
0001
0000
0100
0000
,
0002
0000
0000
0003
,
1000
0000
0000
0010
0000
0000
0100
0000
0001
0000
0000
0000
0010
0000
0100
0000
,
1000
0000
0000
0001
0000
0000
0100
0000
0000
0000
0010
0000
1000
0000
0000
0000
,
0001
0000
0000
0010
0000
0000
0100
0000
1000
0000
0000
0000
0001
0000
0000
0000
,
1000
0000
0000
0100
0000
0000
0010
0000
0100
0000
0000
0000
0010
0000
0000
0000
,
0001
0000
0000
0100
0000
0000
0010
0000
1000
0000
0000
0000
0001
0000
0010
0000
,
0100
0000
0000
1000
0000
0000
0001
0000
0000
0000
0100
0000
0000
0000
0010
0000
,
1000
0000
0000
0100
0000
0000
0010
0000
0001
0000
0000
0000
1000
0000
0100
0000
,
1000
0000
0000
0010
0000
0000
0100
0000
0001
0000
0000
0000
1000
0000
0000
0000
,
0001
0000
0000
0001
0000
0000
0001
0000
0010
0000
0000
0000
1000
0000
0000
0000
,
0100
0000
0000
0100
0000
0000
0100
0000
0010
0000
0000
0000
0001
0000
0000
0000
,
1000
0000
0000
1000
0000
0000
1000
0000
0010
0000
0000
0000
0100
0000
0000
0000
,
0001
0000
0000
0010
0000
0000
0100
0000
1000
0000
0000
0000
0001
0000
0000
0000
,
0010
0000
0000
0100
0000
0000
0010
0000
0100
0000
0000
0000
1000
0000
0001
0000
,
0100
0000
0000
0010
0000
0000
1000
0000
0010
0000
0000
0000
0100
0000
0001
0000
,
1000
0000
0000
0010
0000
0000
0100
0000
0001
0000
0000
0000
0010
0000
0100
0000
,
1000
0000
0000
0001
0000
0000
0100
0000
0010
0000
0000
0000
2002
0000
3003
0000
;

//---------------dance-single - ----------------
#NOTEDATA:;
#CHARTNAME:;
#STEPSTYPE:dance-single;
#DESCRIPTION:;
#CHARTSTYLE:;
#DIFFICULTY:Easy;
#METER:3;
#RADARVALUES:0.197332,0.229114,0.007084,0.212511,0.000000,195.000000,194.000000,1.000000,30.000000,0.000000,0.000000,0.000000,0.000000,0.000000,0.197332,0.229114,0.007084,0.212511,0.000000,195.000000,194.000000,1.000000,30.000000,0.000000,0.000000,0.000000,0.000000,0.000000;
#CREDIT:;
#NOTES:
0000
0000
0000
0000
,
0000
0000
0000
0000
,
0000
0000
0000
0000
,
0000
0000
0000
0000
,
2000
0100
3001
0000
,
0002
0010
1003
0000
,
0020
0100
1030
0000
,
0200
0010
0301
0000
,
1000
0100
0001
0000
,
0001
1000
0100
0000
,
0010
0001
0100
0000
,
0010
1000
0001
0000
,
0010
1000
0010
0000
,
0100
0001
0010
0000
,
0100
1000
0001
0000
,
1000
0010
0100
0000
,
0002
0000
1000
0003
,
0020
0000
0100
0030
,
2000
0000
0100
3000
,
0002
0000
1000
0003
,
0200
0000
0001
0300
,
0020
0000
0100
0030
,
2000
0000
0100
3000
,
0002
0000
0010
0003
,
2000
0001
3100
0000
,
0002
0010
1003
0000
,
0020
0100
1030
0000
,
2000
0100
3001
0000
,
0002
1000
0013
0000
,
0200
1000
0310
0000
,
0020
0001
0130
0000
,
0002
0100
1003
0000
,
0001
0010
0100
1000
,
1000
0010
0001
0000
,
0001
0100
1000
0100
,
0001
0001
1000
0000
,
0100
1000
0010
0000
,
0010
0100
0001
0001
,
1000
0010
0001
0100
,
0010
0000
0100
0000
,
0001
0000
0000
0000
,
2000
0000
0000
0000
,
3100
0000
0000
0000
,
0002
0000
0000
0000
,
0013
0000
0100
0000
,
2000
0000
0000
0000
,
3010
0000
0100
0000
,
0002
0000
0000
1003
,
0001
0100
0010
1000
,
1000
0100
0001
0000
,
0001
0010
1000
0100
,
0001
1000
1000
0000
,
0100
0010
1000
0000
,
0010
0001
0100
0100
,
1000
0010
0001
0100
,
0010
0000
0100
0000
,
1000
0100
0010
0001
,
0001
0100
1000
0100
,
0001
0010
1000
0010
,
0001
0010
1000
0000
,
0010
0001
0100
0000
,
0100
0010
1000
1000
,
0001
0100
1000
0010
,
0100
0000
0010
0000
,
0002
0100
1003
0000
,
2000
0010
3001
0000
,
0020
1000
0130
0000
,
0200
0001
0310
0000
,
1000
0001
0100
0000
,
0010
0001
0010
0000
,
1000
0001
0010
0000
,
0100
0000
1000
0000
0001
0000
2002
3003
;

//---------------dance-single - ----------------
#NOTEDATA:;
#CHARTNAME:;
#STEPSTYPE:dance-single;
#DESCRIPTION:;
#CHARTSTYLE:;
#DIFFICULTY:Beginner;
#METER:1;
#RADARVALUES:0.143698,0.178200,0.007084,0.014167,0.000000,142.000000,141.000000,1.000000,2.000000,0.000000,0.000000,0.000000,0.000000,0.000000,0.143698,0.178200,0.007084,0.014167,0.000000,142.000000,141.000000,1.000000,2.000000,0.000000,0.000000,0.000000,0.000000,0.000000;
#CREDIT:;
#NOTES:
0000
0000
0000
0000
,
0000
0000
0000
0000
,
0000
0000
0000
0000
,
0000
0000
0000
0000
,
0001
0000
0000
0000
,
0010
0000
0000
0000
,
1000
0000
0000
0000
,
0010
0000
0000
0000
,
0001
0001
0001
0000
,
1000
1000
1000
0000
,
0100
0100
0100
0000
,
0010
0010
0010
0000
,
0100
0100
0100
0000
,
1000
1000
1000
0000
,
0001
0001
0001
0000
,
0010
0010
0010
0000
,
0100
0000
0000
0000
,
1000
0000
0000
0000
,
0001
0000
0100
0000
,
1000
0000
0000
0000
,
0010
0000
0000
0000
,
0100
0000
0000
0000
,
0001
0000
0010
0000
,
0100
0000
0000
0000
,
1000
0000
0010
0000
,
0001
0000
0010
0000
,
1000
0000
0100
0000
,
0010
0000
0001
0000
,
1000
0000
0010
0000
,
0100
0000
0001
0000
,
0010
0000
0100
0000
,
1000
0000
0001
0000
,
0100
0000
0100
0000
,
0010
0010
0010
0000
,
1000
1000
1000
0000
,
0001
0001
0001
0000
,
0100
0000
0010
0000
,
1000
1000
1000
0000
,
0100
0100
0100
0000
,
0010
0000
0000
0000
,
0001
0000
0000
0000
,
1000
0000
0000
0000
,
0010
0000
0000
0000
,
0100
0000
0000
0000
,
0001
0000
0000
0000
,
0010
0000
0000
0000
,
1000
0000
0000
0000
,
0010
0000
0000
0000
,
0100
0100
0100
0000
,
0001
0001
0001
0000
,
0010
0010
0010
0000
,
0100
0100
0100
0000
,
1000
1000
1000
0000
,
0010
0010
0010
0000
,
0100
0100
0100
0000
,
0001
0000
0000
0000
,
1000
0000
0010
0000
,
1000
1000
1000
0000
,
0001
0001
0001
0000
,
0100
0100
0100
0000
,
0010
0010
0010
0000
,
1000
1000
1000
0000
,
0100
0000
0010
0010
,
0010
0000
0000
0000
,
0001
0000
1000
0000
,
0001
0000
0100
0000
,
1000
0000
0100
0000
,
0001
0000
0100
0000
,
0010
0000
1000
0000
,
0100
0000
0001
0000
,
0100
0000
1000
0000
,
0010
0000
0000
0000
0000
0000
2002
3003
;
