#VERSION:0.83;
#TITLE:Colors;
#SUBTITLE:;
#ARTIST:Halsey;
#TITLETRANSLIT:;
#SUBTITLETRANSLIT:;
#ARTISTTRANSLIT:;
#GENRE:Badlands;
#ORIGIN:;
#CREDIT:;
#BANNER:Colors-bn.png;
#BACKGROUND:Colors-bg.png;
#PREVIEWVID:Colors-preview.avi;
#JACKET:Colors-jacket.png;
#CDIMAGE:;
#DISCIMAGE:;
#LYRICSPATH:;
#CDTITLE:;
#MUSIC:Colors.mp3;
#OFFSET:-0.056323;
#SAMPLESTART:42.055519;
#SAMPLELENGTH:19.200001;
#SELECTABLE:YES;
#BPMS:0.000=100.000;
#STOPS:170.000=0.600;
#DELAYS:;
#WARPS:;
#TIMESIGNATURES:0.000=4=4;
#TICKCOUNTS:0.000=4;
#COMBOS:0.000=1;
#SPEEDS:0.000=1.000=0.000=0;
#SCROLLS:0.000=1.000;
#FAKES:;
#LABELS:0.000=Song Start;
#LASTSECONDHINT:144.075516;
#BGCHANGES:0.000=Colors.avi=1.000=0=0=0=StretchNoLoop====,
99999=-nosongbg-=1.000=0=0=0 // don't automatically add -songbackground-
;
#KEYSOUNDS:;
#ATTACKS:
;

//---------------dance-single - ----------------
#NOTEDATA:;
#CHARTNAME:;
#STEPSTYPE:dance-single;
#DESCRIPTION:;
#CHARTSTYLE:;
#DIFFICULTY:Hard;
#METER:7;
#RADARVALUES:0.399768,0.367546,0.289487,0.379091,0.048248,406.000000,364.000000,42.000000,55.000000,0.000000,0.000000,0.000000,0.000000,0.000000,0.399768,0.367546,0.289487,0.379091,0.048248,406.000000,364.000000,42.000000,55.000000,0.000000,0.000000,0.000000,0.000000,0.000000;
#CREDIT:;
#NOTES:
0000
0000
0000
0000
,
0000
0000
0000
0000
0000
0010
1000
0100
,
0010
0100
0010
0001
1000
0001
0100
0010
,
1000
0000
1000
0100
0000
0100
0010
0000
0000
0000
0001
0000
1000
0000
0010
0000
,
0100
0001
1000
0010
1000
0100
0010
0001
,
1000
0000
1000
0010
0000
0010
0100
0000
0000
0000
0001
0000
1000
0000
0001
0000
,
0010
0100
0010
0001
1000
0010
0100
0010
,
1000
0000
1000
0100
0000
0100
0010
0000
0000
0000
0001
0000
1000
0000
0001
0000
,
0100
0010
1000
0010
0100
0001
1000
0010
,
1000
0000
1000
0001
0000
0001
0200
0000
0000
0000
0000
0000
0000
0000
0301
0000
,
1000
0001
0100
0010
0100
0001
1000
0001
,
0010
0000
0000
0022
0000
0000
0000
0000
0000
0000
0033
0000
0000
0000
0100
0000
,
1000
0010
0100
0010
1000
0100
0010
0100
,
2200
0000
0000
0000
0000
0000
3300
0010
,
1000
0001
0100
0010
1000
0001
0010
0100
,
0010
0000
0000
0001
0000
0000
1001
0000
0000
0000
0001
0000
0100
0000
0001
0000
,
1000
0010
0100
0010
1000
0100
0010
0001
,
0100
0000
1001
0000
0010
1000
0010
0001
,
0102
0000
1003
0010
2100
0000
3001
0010
,
0100
0000
0000
0010
0000
0000
1001
0000
0000
0000
0100
0000
0010
0000
1000
0000
,
0100
0001
0100
1000
0010
0001
0010
1000
,
0100
0010
0001
2000
0000
3001
0100
0000
,
0001
0000
0010
0000
1200
0000
0000
0000
1300
0000
0010
0000
0201
0000
0000
0300
,
1200
0000
0001
0000
1300
0001
0100
0000
,
1000
0000
0001
0000
1200
0000
0000
0000
0301
0000
1000
0000
0201
0000
0000
0300
,
1200
0000
0010
0000
1300
0010
1000
0100
,
1002
0000
0013
0100
2001
0000
3100
0010
,
0102
0000
0000
1000
0000
0000
0103
0000
0000
0000
0010
0000
0100
0000
1000
0000
,
0010
0001
0010
1000
0100
0001
0100
1000
,
0010
0100
0001
1000
0000
0001
0100
0000
,
1000
0000
0010
0000
0201
0000
0000
0000
0301
0000
0010
0000
1200
0000
0000
0300
,
0201
0000
1000
0000
0301
1000
0010
0000
,
0010
0000
1000
0000
0201
0000
0000
0000
0310
0000
0001
0000
1200
0000
0000
0300
,
0110
0100
1002
0000
0103
0010
1000
0000
,
0002
0000
0000
0000
1003
0010
1000
0100
,
2000
0000
3100
1000
0002
0000
0103
0001
,
1000
0000
0000
0010
0000
0000
2020
0000
0000
3030
0010
0000
1000
0000
0001
0000
,
0010
1000
0010
0001
1000
0100
0001
0100
,
1000
0010
0100
0002
0000
1003
0010
0000
,
1000
0100
0020
0000
0031
1000
0020
0000
,
0230
0000
1000
0000
0301
0010
0100
0000
,
1000
0010
2000
0000
3100
0001
0200
0000
,
0310
0001
0100
1002
,
1003
0000
0010
0000
0120
0000
0000
0000
1030
0000
0001
0000
0100
0000
0000
0010
,
0000
1100
0000
0100
0001
0100
1000
0010
,
0001
0010
1000
0001
0100
1000
0100
0001
,
1000
0200
0000
0310
0100
0000
1000
0010
,
0201
0000
0000
0000
0301
0000
0010
0000
1200
0000
0000
0300
0201
0000
0000
0000
,
1000
0000
0301
1000
0100
0000
0001
1000
,
1200
0000
0000
0000
1300
0000
0001
0000
0201
0000
0000
0300
1200
0000
0000
0000
,
0010
0000
1300
0010
1000
0100
2100
0000
,
3010
0000
0100
0001
0020
0000
0031
1000
,
0020
0000
0130
1000
0100
0001
1000
0010
,
0201
0000
0000
0000
0301
0000
0010
0000
1200
0000
0000
0300
0201
0000
0000
0000
,
0301
0000
1000
0010
0001
0010
2001
0000
,
3100
0010
0001
0100
0010
1000
0100
1000
,
0010
0100
0001
1000
0100
0010
0100
1000
,
1020
0000
0000
0000
0130
0000
0001
0000
0021
0000
0000
0030
0210
0000
0000
0300
,
2001
0000
3010
1000
0001
0100
0002
0000
,
0000
0003
0000
0000
;

//---------------dance-single - ----------------
#NOTEDATA:;
#CHARTNAME:;
#STEPSTYPE:dance-single;
#DESCRIPTION:;
#CHARTSTYLE:;
#DIFFICULTY:Medium;
#METER:5;
#RADARVALUES:0.259948,0.263210,0.041355,0.089603,0.000000,264.000000,258.000000,6.000000,13.000000,0.000000,0.000000,0.000000,0.000000,0.000000,0.259948,0.263210,0.041355,0.089603,0.000000,264.000000,258.000000,6.000000,13.000000,0.000000,0.000000,0.000000,0.000000,0.000000;
#CREDIT:;
#NOTES:
0000
0000
0000
0000
,
0000
0000
0000
0000
,
1000
0010
0001
0100
,
0010
0000
1000
0000
0100
0010
0100
0000
,
0010
0001
1000
0100
,
0010
0000
0001
0000
1000
0010
0100
0000
,
0010
1000
0100
0001
,
0100
0000
0010
0000
1000
0001
0100
0000
,
0010
1000
0100
0010
,
0001
0000
1000
0000
0010
1000
0100
0000
,
0010
0000
0001
0000
1000
0001
1000
0000
,
0010
0010
0200
0000
,
0310
0000
1000
0000
0001
1000
0100
0000
,
0020
0000
0000
0000
,
0031
0000
0100
0000
0010
1000
0100
0000
,
0010
0100
2000
0000
,
3010
0000
1000
0000
0001
1000
0010
0100
,
0002
0000
0003
0000
1000
0001
1000
0001
,
1000
1100
0001
0101
,
1000
0000
0001
0000
0100
0000
0010
1000
,
0100
0010
0001
1000
,
0010
0100
0010
0100
0000
0000
0001
0000
,
2000
0001
0010
0001
,
3100
0000
1000
0000
0010
1000
0100
0000
,
0002
0010
1000
0010
,
0103
0000
1000
0000
0010
1000
0001
1000
,
0010
1010
0001
0011
,
0100
0000
0010
0000
1000
0000
0001
1000
,
0100
0001
0100
1000
,
0010
0100
0010
0100
0000
0000
0001
0000
,
0200
1000
0010
0001
,
0310
0000
1000
0000
0001
1000
0100
0000
,
0020
0001
0100
1000
,
0130
0000
0010
0000
0001
1000
0001
0000
,
0200
0000
0000
0000
0310
0100
0010
0100
,
0010
1000
0100
0001
,
0100
0010
0001
1000
,
0010
0001
0010
1000
,
0001
0100
1000
0100
,
0002
0100
1000
0100
,
1003
0010
0100
0001
,
2000
0100
0001
0100
,
3001
0010
0100
1000
,
1100
0001
0101
1000
,
0010
0000
0100
0000
0001
1000
0010
0000
,
0100
0000
0010
0000
1000
0000
0001
1000
,
0001
1000
0000
0000
0100
0000
0020
0000
,
0001
0100
1000
0130
,
0001
0000
1000
0001
0010
0000
0200
0000
,
1000
0010
0001
0310
,
0100
0000
1000
0001
0100
0010
1000
0000
,
0001
0010
0100
0010
,
0001
0000
1000
0001
1000
0001
1000
0100
,
1000
0000
0001
0100
0001
0000
1000
0000
,
0001
0000
0100
0010
0100
0010
0100
0000
,
0001
1000
0010
0100
,
0010
0000
1000
0001
1000
0001
1000
0010
,
1000
0000
0001
0010
0001
0000
0100
0000
,
0010
1000
0001
0100
;

//---------------dance-single - ----------------
#NOTEDATA:;
#CHARTNAME:;
#STEPSTYPE:dance-single;
#DESCRIPTION:;
#CHARTSTYLE:;
#DIFFICULTY:Easy;
#METER:3;
#RADARVALUES:0.181176,0.182222,0.027570,0.144744,0.000000,184.000000,180.000000,4.000000,21.000000,0.000000,0.000000,0.000000,0.000000,0.000000,0.181176,0.182222,0.027570,0.144744,0.000000,184.000000,180.000000,4.000000,21.000000,0.000000,0.000000,0.000000,0.000000,0.000000;
#CREDIT:;
#NOTES:
0000
0000
0000
0000
,
0000
0000
0000
0000
,
1000
0100
1000
0100
,
0010
0000
0010
0000
,
0001
0100
0001
0100
,
0010
0000
0010
0000
,
1000
0001
0100
0010
,
1000
0000
1000
0000
,
0001
1000
0010
0100
,
0001
0000
0001
0000
,
1000
0100
0010
0001
,
0100
0000
0000
0000
,
0001
0010
0100
1000
,
0010
0000
0000
0000
,
1000
0100
0001
0100
,
1000
0010
0100
0001
,
1000
0010
1000
0001
,
0100
0000
0010
0100
,
0020
0030
2000
3000
,
0001
0010
0100
1000
,
0001
1000
0100
0100
,
1000
0001
1000
1000
,
0010
1000
0001
0010
,
0200
0000
0300
0000
,
0010
0001
1000
0010
,
0200
0000
0301
1000
,
2002
3003
0010
0010
,
1000
0100
0010
0001
,
1000
0100
0001
0100
,
1000
0010
0100
0001
,
1000
0010
1000
0010
,
0200
0000
0300
0000
,
0001
0010
0001
0010
,
0200
0000
0300
0000
,
1000
0000
0001
1000
,
0001
0000
0100
0000
,
1000
0100
0001
0100
,
1000
0001
0100
0100
,
0001
1000
0001
0001
,
0010
0100
0010
0100
,
2000
0000
3000
0000
,
0010
0100
0010
0100
,
0002
0000
0003
2002
,
3003
0010
0010
0001
,
1000
0010
0100
0001
,
0010
0100
1000
0001
,
1000
0100
0100
0010
,
0001
1000
0100
0020
,
0000
0030
0000
0001
,
1000
0010
0100
0002
,
0000
1003
0001
2002
,
3003
0100
0100
0010
,
0000
1000
0001
1000
,
0100
0001
0100
2000
,
0000
3001
1000
2002
,
3003
0010
0010
0100
,
0000
0001
1000
0010
,
0100
0010
0100
0002
,
0000
2003
0000
3100
;

//---------------dance-single - ----------------
#NOTEDATA:;
#CHARTNAME:;
#STEPSTYPE:dance-single;
#DESCRIPTION:;
#CHARTSTYLE:;
#DIFFICULTY:Beginner;
#METER:1;
#RADARVALUES:0.106342,0.121481,0.013785,0.000000,0.000000,108.000000,106.000000,2.000000,0.000000,0.000000,0.000000,0.000000,0.000000,0.000000,0.106342,0.121481,0.013785,0.000000,0.000000,108.000000,106.000000,2.000000,0.000000,0.000000,0.000000,0.000000,0.000000,0.000000;
#CREDIT:;
#NOTES:
// measure 0
0000
0000
0000
0000
,  // measure 1
0000
0000
0000
0000
,  // measure 2
1000
0000
0001
0000
,  // measure 3
0100
0000
0000
0000
,  // measure 4
0010
0000
1000
0000
,  // measure 5
0100
0000
0000
0000
,  // measure 6
0010
0000
0001
0000
,  // measure 7
1000
0000
0000
0000
,  // measure 8
0010
0000
0100
0000
,  // measure 9
0001
0000
0000
0000
,  // measure 10
0010
0000
0001
0000
,  // measure 11
1000
0000
0000
0000
,  // measure 12
0100
0000
0010
0000
,  // measure 13
0100
0000
0000
0000
,  // measure 14
1000
0000
0001
0000
,  // measure 15
1000
0000
0010
0000
,  // measure 16
0100
0000
0001
0000
,  // measure 17
1000
0000
0100
0000
,  // measure 18
1001
0000
0001
0000
,  // measure 19
1000
0000
0010
0000
,  // measure 20
0100
0000
0001
0000
,  // measure 21
0010
0000
0100
0000
,  // measure 22
1000
0000
0100
0000
,  // measure 23
0001
0000
0100
0000
,  // measure 24
1000
0000
0100
0000
,  // measure 25
0001
0000
0100
0000
,  // measure 26
1000
0000
0010
0000
,  // measure 27
0100
0000
0001
0000
,  // measure 28
1000
0000
0010
0000
,  // measure 29
1000
0000
0010
0000
,  // measure 30
0001
0000
0010
0000
,  // measure 31
1000
0000
0100
0000
,  // measure 32
0010
0000
0100
0000
,  // measure 33
0010
0000
0100
0000
,  // measure 34
0010
0000
0001
0000
,  // measure 35
0100
0000
0100
0000
,  // measure 36
0010
0000
0010
0000
,  // measure 37
1000
0000
1000
0000
,  // measure 38
0001
0000
0001
0000
,  // measure 39
0100
0000
0100
0000
,  // measure 40
0010
0000
0010
0000
,  // measure 41
1000
0000
1000
0000
,  // measure 42
0001
0000
0000
1001
,  // measure 43
0000
0010
0000
0001
,  // measure 44
0000
0001
0000
1000
,  // measure 45
0000
0100
0000
0001
,  // measure 46
0000
0100
0000
1000
,  // measure 47
0000
0010
0000
0100
,  // measure 48
0000
0001
0000
1000
,  // measure 49
0000
0010
0000
0001
,  // measure 50
0000
0010
0000
1000
,  // measure 51
0000
0000
0000
0001
,  // measure 52
0000
0001
0000
0100
,  // measure 53
0000
0010
0000
0100
,  // measure 54
0000
0010
0000
1000
,  // measure 55
0000
0000
0000
0001
,  // measure 56
0000
0010
0000
0100
,  // measure 57
0000
1000
0000
0100
,  // measure 58
0000
0010
0000
0001
;
