#VERSION:0.83;
#TITLE:Clint Eastwood;
#SUBTITLE:;
#ARTIST:Gorillaz;
#TITLETRANSLIT:;
#SUBTITLETRANSLIT:;
#ARTISTTRANSLIT:;
#GENRE:Gorillaz;
#ORIGIN:;
#CREDIT:[Ness];
#BANNER:Clint Eastwood-bn.png;
#BACKGROUND:Black.png;
#PREVIEWVID:Clint Eastwood-preview.avi;
#JACKET:Clint Eastwood-jacket.png;
#CDIMAGE:;
#DISCIMAGE:Clint Eastwood-bg.png;
#LYRICSPATH:;
#CDTITLE:;
#MUSIC:Clint Eastwood.mp3;
#OFFSET:-0.033000;
#SAMPLESTART:115.176102;
#SAMPLELENGTH:17.674362;
#SELECTABLE:YES;
#BPMS:0.000=84.020;
#STOPS:;
#DELAYS:;
#WARPS:;
#TIMESIGNATURES:0.000=4=4;
#TICKCOUNTS:0.000=2;
#COMBOS:0.000=1;
#SPEEDS:0.000=1.000=0.000=0;
#SCROLLS:0.000=1.000;
#FAKES:;
#LABELS:0.000=Song Start;
#LASTSECONDHINT:135.746933;
#BGCHANGES:0.000=Clint Eastwood-video.avi=1.000=1=0=1===CrossFade==,
99999=-nosongbg-=1.000=0=0=0 // don't automatically add -songbackground-
;
#KEYSOUNDS:;
#ATTACKS:
;

//---------------dance-single - ----------------
#NOTEDATA:;
#CHARTNAME:[Ness];
#STEPSTYPE:dance-single;
#DESCRIPTION:[Ness];
#CHARTSTYLE:;
#DIFFICULTY:Hard;
#METER:8;
#RADARVALUES:0.411963,0.394394,0.318059,0.035340,0.194370,408.000000,363.000000,45.000000,5.000000,0.000000,0.000000,0.000000,0.000000,0.000000,0.411963,0.394394,0.318059,0.035340,0.194370,408.000000,363.000000,45.000000,5.000000,0.000000,0.000000,0.000000,0.000000,0.000000;
#CREDIT:[Ness];
#NOTES:
0000
0000
0000
0000
,
0000
0000
0000
0000
,
0000
0000
0000
0000
,
0000
0000
0000
0000
,
0000
0000
0000
0000
0000
0001
0100
0000
0010
0000
1000
0000
1100
0000
1100
0000
,
1000
0000
0001
0000
0100
0010
0100
0000
0010
0000
0100
0000
0110
0000
0110
0000
,
0001
1000
0100
0010
0001
0001
1001
1001
,
0100
0010
1000
0100
0010
0010
1001
0100
,
0001
0000
0001
1000
0000
1000
0100
0000
0010
0000
0001
0000
1010
0000
1010
0000
,
0001
0000
0010
0000
0001
1000
0100
0000
1000
0000
0001
0000
0110
0000
0110
0000
,
0001
0100
1000
0001
0010
1000
1001
1001
,
0100
1000
0001
0100
0010
0100
1001
1001
,
0100
0000
0010
1000
0000
0000
1000
0000
0100
0000
0010
0001
0000
0000
0001
0000
,
0010
0000
0100
1000
0000
0000
1000
0000
0010
0000
0100
0001
0000
0000
0000
0000
,
0001
1000
0010
0100
0002
0000
2003
0000
,
3010
0000
0100
0001
0000
0000
0010
0000
0100
1000
0100
0000
1000
0000
0001
0000
,
0100
0000
0010
0100
0000
0000
0001
0000
1000
0000
0100
1000
0000
0000
1000
0000
,
0001
0000
0100
0001
0000
0000
1000
0000
0010
0100
0010
0000
1000
0000
0001
0000
,
0100
0000
0010
0100
0000
0000
0001
0010
0000
0100
1000
0000
0100
0000
1000
0000
,
0001
0000
1000
0100
1000
0000
0001
0000
0100
0000
0010
0100
0010
0000
1000
0000
,
0001
0000
0010
0000
0100
0000
1000
0100
0000
0010
0000
0001
0010
0000
0001
1000
,
0001
0000
0100
0001
0100
0000
0010
0000
0000
1000
0000
1000
0001
0000
1000
0000
,
0100
0000
0010
0100
0010
0000
0001
0000
1000
0100
0000
1000
0100
0000
0010
0000
,
0001
0000
0100
0000
0010
0100
0010
0000
0000
0000
0100
0001
0100
0000
0010
0000
,
1000
0000
0001
1000
0001
0000
0010
0000
0100
0000
0100
0000
1000
0000
1000
0000
,
0001
1000
0100
0000
0010
0001
0010
0000
0001
0000
0001
0000
1000
0000
1000
0001
,
1000
0000
0010
0000
1000
0000
0001
0000
0200
0000
0310
0000
1000
0001
1000
0000
,
0010
0000
0100
0000
0002
0000
1003
0000
2000
0000
3001
0000
1000
0100
1000
0000
,
0001
0000
1000
0000
0100
0000
0100
0000
0010
0000
0001
0000
0100
0000
0001
0100
,
0001
0000
1000
0000
0100
0000
0010
0000
0100
0000
1000
0100
1000
0000
0001
0000
,
0100
0000
0010
0100
0010
0000
1000
0000
0001
0000
1000
0000
0101
0000
0101
0000
,
0001
0000
1000
0000
0100
0010
0001
0000
0100
0000
0001
0000
1010
0000
1010
0000
,
0100
0010
1000
0010
0100
0100
0011
0011
,
0100
0010
0001
0100
0010
0010
1001
0100
,
1000
0000
1000
0001
0000
0001
0100
0000
0010
0000
1000
0000
0011
0000
0011
0000
,
1000
0000
0010
0000
1000
0001
0100
0000
0001
0000
1000
0000
0110
0000
0110
0000
,
1000
0100
0001
1000
0010
0001
1001
1001
,
0100
0001
1000
0100
0010
0100
1001
1001
,
0100
0000
0010
0001
0000
0000
0001
0000
1000
0000
1000
0010
0000
0000
0100
0000
,
0001
0000
1000
0100
0000
0000
0010
0000
0001
0000
1000
0010
0000
0000
0100
0000
,
0001
0000
1000
0001
1000
0000
0000
0000
0010
0000
0001
0000
1100
0000
0101
0000
,
1000
0000
0001
0000
0100
0010
1000
0000
0001
0000
0010
0000
1010
0000
0101
0000
,
1000
0001
0100
0010
1000
0001
1100
1100
,
0001
1000
0100
0010
0001
1000
0110
0001
,
0010
0000
0100
1000
0000
0000
1100
0000
0100
0000
0010
0001
0000
0000
0011
0000
,
0010
0000
0100
1000
0000
0000
1010
0000
0010
0000
0100
0001
0000
0000
0100
0000
,
1001
0101
1001
1100
1001
0000
0000
0000
;

//---------------dance-single - ----------------
#NOTEDATA:;
#CHARTNAME:[Ness];
#STEPSTYPE:dance-single;
#DESCRIPTION:[Ness];
#CHARTSTYLE:;
#DIFFICULTY:Medium;
#METER:5;
#RADARVALUES:0.249399,0.262929,0.127224,0.042408,0.000000,247.000000,229.000000,18.000000,6.000000,0.000000,0.000000,0.000000,0.000000,0.000000,0.249399,0.262929,0.127224,0.042408,0.000000,247.000000,229.000000,18.000000,6.000000,0.000000,0.000000,0.000000,0.000000,0.000000;
#CREDIT:[Ness];
#NOTES:
0000
0000
0000
0000
,
0000
0000
0000
0000
,
0000
0000
0000
0000
,
0000
0000
0000
0000
,
0000
0000
0000
0000
0001
0000
1000
0001
,
0100
0000
0010
0000
0100
0000
0001
0010
,
1000
0000
0010
0000
0100
0000
1000
0100
,
0010
0000
0001
0000
1000
0000
0001
0100
,
1000
0000
0100
0000
0010
0000
1000
0100
,
1001
0000
0010
0000
0001
0000
1000
0010
,
0110
0000
1000
0000
0001
0000
0010
0001
,
0101
0000
0100
0000
0010
0000
1000
0001
,
1001
0000
0010
0000
1000
0010
1000
0000
,
1000
0001
1000
0000
0001
0100
0001
0000
,
0001
0010
0001
0000
0020
0000
0130
0000
,
1000
0100
0001
0000
0001
0001
0001
0100
,
1000
0100
1000
0000
0200
0000
0310
0000
,
0001
0001
0001
0000
1000
1000
1000
0010
,
1000
0100
0001
0000
0100
0010
0100
0000
,
0010
0001
0100
0000
0001
0100
0010
0000
,
1000
0100
1000
0000
0002
0000
2003
0000
,
3001
0000
1000
0100
0010
0000
0001
0000
,
0010
1000
0002
0103
,
0010
0000
1000
0010
0200
0000
0301
0000
,
0010
0100
1000
0000
0001
1000
0001
0100
,
0001
0000
1000
0000
0010
1000
0001
1000
,
0010
0000
0100
0000
0010
0000
1000
0100
,
0010
0001
0100
0000
0001
0000
0010
0001
,
0100
0010
1000
0000
0001
0000
1000
0000
,
0001
0100
0010
0000
1000
0100
1000
0100
,
0001
0100
1000
0000
0001
0000
1000
0001
,
0100
0000
0110
0000
0001
0000
1000
0010
,
0100
0000
1001
0000
0010
0000
0001
1000
,
0100
0000
1001
0000
0010
0000
0100
0001
,
1000
0000
1001
0000
0010
0000
0001
0100
,
0101
0000
0101
0000
1000
0000
0010
0100
,
0110
0000
0110
0000
1000
0000
0001
1000
,
1100
0000
1100
0000
1000
0000
0010
0100
,
0110
0000
1001
0000
0010
0001
0100
0000
,
1000
0100
0001
0010
,
0100
1000
0001
0000
1000
0001
0100
0000
,
0010
0010
0010
0000
1000
0010
0100
0000
,
0001
0001
0001
0000
0010
0001
1000
0000
,
0001
1000
0100
0000
0001
0100
1000
0000
,
1000
0000
1001
0000
0010
0100
0010
0000
,
1000
0100
0010
0000
0100
0010
0100
0000
,
0010
0010
0010
0000
1001
0000
0000
0000
;

//---------------dance-single - ----------------
#NOTEDATA:;
#CHARTNAME:[Ness];
#STEPSTYPE:dance-single;
#DESCRIPTION:[Ness];
#CHARTSTYLE:;
#DIFFICULTY:Easy;
#METER:3;
#RADARVALUES:0.136311,0.164331,0.035340,0.000000,0.000000,135.000000,130.000000,5.000000,0.000000,0.000000,0.000000,0.000000,0.000000,0.000000,0.136311,0.164331,0.035340,0.000000,0.000000,135.000000,130.000000,5.000000,0.000000,0.000000,0.000000,0.000000,0.000000,0.000000;
#CREDIT:[Ness];
#NOTES:
// measure 0
0000
0000
0000
0000
,  // measure 1
0000
0000
0000
0000
,  // measure 2
0000
0000
0000
0000
,  // measure 3
0000
0000
0000
0000
,  // measure 4
0000
0000
1000
0000
,  // measure 5
0100
1000
0001
0000
,  // measure 6
0010
0001
0100
0000
,  // measure 7
0001
0001
1000
1000
,  // measure 8
0100
1001
0010
0100
,  // measure 9
0001
1000
0100
0000
,  // measure 10
0010
0100
1000
0000
,  // measure 11
0001
1000
0010
0000
,  // measure 12
0100
0001
0010
0000
,  // measure 13
0100
0000
1000
0000
,  // measure 14
0001
0000
1001
0000
,  // measure 15
0010
0000
1000
1000
,  // measure 16
1000
0000
0001
0000
,  // measure 17
0100
0000
0010
0000
,  // measure 18
1000
0000
0001
0001
,  // measure 19
0010
0100
0010
0010
,  // measure 20
0100
1000
0100
0010
,  // measure 21
0100
0010
0100
1000
,  // measure 22
0001
1000
0001
0000
,  // measure 23
0010
1000
0010
0000
,  // measure 24
0100
1000
0100
0000
,  // measure 25
0010
0001
0100
0100
,  // measure 26
0010
0010
1000
0000
,  // measure 27
0001
1000
0001
0000
,  // measure 28
0010
0100
0010
0000
,  // measure 29
0100
1000
0100
0000
,  // measure 30
1000
0001
1001
0000
,  // measure 31
1000
0100
0010
0000
,  // measure 32
0001
1000
0001
0000
,  // measure 33
0100
0010
1000
0000
,  // measure 34
0001
0000
0010
0000
,  // measure 35
0001
1000
0100
0000
,  // measure 36
0010
0100
1000
0000
,  // measure 37
0001
0010
0001
0000
,  // measure 38
1000
0010
0100
0001
,  // measure 39
1000
0001
0100
0010
,  // measure 40
1000
0000
1001
0000
,  // measure 41
1000
1000
0100
0000
,  // measure 42
0001
0001
0100
0010
,  // measure 43
0100
0010
0100
0100
,  // measure 44
0001
1000
0100
0000
,  // measure 45
0010
0000
0001
0000
,  // measure 46
1000
0001
1001
0000
;

//---------------dance-single - ----------------
#NOTEDATA:;
#CHARTNAME:[Ness];
#STEPSTYPE:dance-single;
#DESCRIPTION:[Ness];
#CHARTSTYLE:;
#DIFFICULTY:Beginner;
#METER:1;
#RADARVALUES:0.083806,0.115031,0.014136,0.000000,0.000000,83.000000,81.000000,2.000000,0.000000,0.000000,0.000000,0.000000,0.000000,0.000000,0.083806,0.115031,0.014136,0.000000,0.000000,83.000000,81.000000,2.000000,0.000000,0.000000,0.000000,0.000000,0.000000,0.000000;
#CREDIT:[Ness];
#NOTES:
// measure 0
0000
0000
0000
0000
,  // measure 1
0000
0000
0000
0000
,  // measure 2
0000
0000
0000
0000
,  // measure 3
0000
0000
0000
0000
,  // measure 4
0000
0000
0010
0000
,  // measure 5
0000
0000
1000
0000
,  // measure 6
0000
0000
0001
0000
,  // measure 7
0000
0000
0100
0000
,  // measure 8
0000
0000
0001
0000
,  // measure 9
1000
0000
0100
0000
,  // measure 10
0010
0000
0001
0000
,  // measure 11
1000
0000
0001
0000
,  // measure 12
0100
0000
0100
0000
,  // measure 13
0100
0000
0100
0000
,  // measure 14
0100
0100
0100
0000
,  // measure 15
0010
0000
1000
0000
,  // measure 16
0001
0000
1000
0000
,  // measure 17
0100
0000
0010
0000
,  // measure 18
0001
0000
0100
0100
,  // measure 19
0100
0000
0010
0010
,  // measure 20
0010
0000
1000
0000
,  // measure 21
0001
0000
0010
0010
,  // measure 22
0010
0000
0100
0000
,  // measure 23
1000
0000
0001
0000
,  // measure 24
0010
0010
0010
0000
,  // measure 25
0100
0000
1000
0000
,  // measure 26
0001
0000
0100
0000
,  // measure 27
0000
0010
0010
0000
,  // measure 28
0000
0100
0000
0000
,  // measure 29
0001
0000
1000
0000
,  // measure 30
0001
0000
0010
0000
,  // measure 31
0000
0000
0100
0000
,  // measure 32
0000
0000
1000
0000
,  // measure 33
0000
0000
0001
0000
,  // measure 34
0000
0000
0100
0000
,  // measure 35
0010
0000
1000
0000
,  // measure 36
0100
0000
0001
0000
,  // measure 37
0100
0000
0010
0000
,  // measure 38
0100
0000
0001
0000
,  // measure 39
0100
0000
1000
0000
,  // measure 40
0010
0000
1001
0000
,  // measure 41
0100
0000
1000
0000
,  // measure 42
0001
0000
0010
0000
,  // measure 43
0010
0000
0100
0000
,  // measure 44
0010
0000
0001
0000
,  // measure 45
0001
0000
0010
0000
,  // measure 46
0100
0000
1001
0000
;
