#VERSION:0.81;
#TITLE:Classic;
#SUBTITLE:;
#ARTIST:The Knocks featuring POWERS;
#TITLETRANSLIT:;
#SUBTITLETRANSLIT:;
#ARTISTTRANSLIT:;
#GENRE:So Classic;
#ORIGIN:;
#CREDIT:;
#BANNER:Classic-bn.png;
#BACKGROUND:Classic-bg.png;
#PREVIEWVID:Classic-preview.avi;
#JACKET:Classic-jacket.png;
#CDIMAGE:;
#DISCIMAGE:;
#LYRICSPATH:;
#CDTITLE:;
#MUSIC:Classic.mp3;
#OFFSET:-0.066000;
#SAMPLESTART:63.586403;
#SAMPLELENGTH:18.805092;
#SELECTABLE:YES;
#BPMS:0.000=102.000;
#STOPS:;
#DELAYS:;
#WARPS:;
#TIMESIGNATURES:0.000=4=4;
#TICKCOUNTS:0.000=4;
#COMBOS:0.000=1;
#SPEEDS:0.000=1.000=0.000=0;
#SCROLLS:0.000=1.000;
#FAKES:;
#LABELS:0.000=Song Start;
#LASTSECONDHINT:134.065521;
#BGCHANGES:-0.300=Classic.avi=1.000=0=0=0=StretchNoLoop====,
99999=-nosongbg-=1.000=0=0=0 // don't automatically add -songbackground-
;
#KEYSOUNDS:;
#ATTACKS:
;

//---------------dance-single - ----------------
#NOTEDATA:;
#CHARTNAME:;
#STEPSTYPE:dance-single;
#DESCRIPTION:;
#CHARTSTYLE:;
#DIFFICULTY:Challenge;
#METER:9;
#RADARVALUES:0.518600,0.455966,0.365211,0.204518,0.401733,419.000000,50.000000,28.000000,0.000000,0.000000,0.000000,0.000000,0.000000,0.518600,0.455966,0.365211,0.204518,0.401733,419.000000,50.000000,28.000000,0.000000,0.000000,0.000000,0.000000,0.000000;
#CREDIT:;
#NOTES:
0000
0000
0000
0000
,
0000
0000
0000
0000
,
0000
0000
0000
0000
,
0000
0000
0000
0000
,
0000
0000
0000
0000
,
1000
0010
0100
0001
0000
0001
1000
0001
0000
0001
0100
0000
0101
0000
0000
0000
,
0001
0000
0000
0010
0000
0010
0100
0010
0000
0100
1000
0000
1100
0000
0000
0000
,
1000
0001
0100
0010
0000
0010
1000
0001
0000
0001
0010
0000
0011
0000
0000
0000
,
0010
0000
0000
0100
0000
1000
0010
0100
0000
0010
0100
0000
0101
0000
0001
0000
,
2000
0000
0000
3010
1000
0000
1000
0000
0001
0000
0011
0000
0010
0000
0100
0000
,
0020
0000
0000
0031
0010
0000
0100
0000
1000
0000
0001
0000
0101
0000
0000
0000
,
0001
0000
0100
0010
1000
0000
0010
0100
0001
0000
1000
0000
0010
0000
2200
0000
,
0000
3300
0010
0100
0001
1000
0010
0100
,
0020
0000
0000
1030
0010
0000
0100
0000
0001
0000
0101
0000
0100
0000
0001
0000
,
2000
0000
0000
3100
1000
0000
0010
0000
0100
0000
0001
0000
1001
0000
0000
0000
,
0001
0000
0010
0100
1000
0000
0010
0100
0001
0000
1000
0000
0100
0000
0022
0000
,
0000
0033
0100
1000
0010
0100
0001
0000
,
1000
0000
0010
0100
0001
0000
0010
0100
1000
0000
0010
0000
0100
0000
0202
0000
,
0000
0303
0001
0100
0010
0000
2020
0000
0000
3030
1000
0000
0001
0000
0200
0000
,
0010
0000
0000
0010
0000
0000
0010
0000
0000
0000
0301
0000
0010
0000
1000
0000
,
0100
0000
1000
0010
0000
0000
0100
0000
0000
0000
0001
0000
0100
0000
0020
0000
,
1000
0000
0000
0100
0000
0000
1000
0000
0000
0000
0130
0000
0001
0000
1000
0000
,
0010
0100
0000
1001
0000
0100
0001
2000
,
0100
0000
0000
0010
0000
0000
0100
0000
0000
0000
3001
0000
0100
0000
1000
0000
,
0100
0000
0001
0010
0000
0000
0100
0000
0000
0000
0100
0000
1000
0000
0010
0000
,
0100
0000
0000
0001
1000
0000
0010
0000
0100
0000
0010
0000
1000
0000
0001
0000
,
0010
0000
0000
0100
1000
0000
0001
0000
0000
0000
0100
0010
0100
0010
0100
0010
,
1000
0001
0100
0010
0000
1000
0001
1000
0000
1000
0100
0000
1100
0000
0000
0000
,
0100
0000
0010
0001
0000
0001
1000
0010
0000
1000
0001
0000
1001
0000
0000
0000
,
1000
0010
1000
0100
0000
0010
0001
0100
0000
0001
0010
0000
0011
0000
0000
0000
,
0001
0000
1000
0010
0000
1000
0100
1000
0000
0001
0010
0000
0110
0000
0000
0000
,
1000
0000
0100
1000
0001
0000
0001
0000
1000
0000
1100
0000
1001
0000
0000
0000
,
0001
0101
1001
0000
0001
0101
1001
0000
,
0001
0000
0100
0010
1000
0000
1000
0000
1010
0000
1001
0000
1100
0000
0000
0000
,
0010
0000
1000
0100
2000
0000
0100
0000
0000
0000
3100
0000
0010
0000
0001
0000
,
0100
0000
0001
1000
0010
0000
0010
0000
0100
0000
0110
0000
0101
0000
0000
0000
,
1000
0110
0101
0000
1000
0110
0101
0000
,
1000
0000
0001
0100
0001
0000
0001
0000
0101
0000
1001
0000
1100
0000
0000
0000
,
0010
0000
2000
0100
0000
3100
0010
0001
,
0200
0000
0000
0301
0100
0000
0100
0000
0010
0000
1000
0000
1010
0000
0001
0000
,
2000
0000
0000
3010
1000
0000
0001
0000
0100
0000
0010
0000
1001
0000
0000
0000
,
0010
0000
0001
1000
0100
0000
1000
0001
0010
0000
0100
0000
1000
0000
0202
0000
,
0000
0303
1000
0001
0010
0100
1000
0001
,
2000
0000
0000
3100
1000
0000
0001
0000
0010
0000
0011
0000
0001
0000
0010
0000
,
0200
0000
0000
1300
0100
0000
1000
0000
0001
0000
0010
0000
0110
0000
0000
0000
,
0010
0000
0001
1000
0100
0000
1000
0100
0010
0000
0001
0000
1000
0000
0202
0000
,
0000
0303
0001
0100
1000
0001
0010
0000
,
0100
0000
1000
0001
0010
0000
1000
0001
0100
0000
0001
1000
0000
0000
0202
0000
,
0000
0303
0000
0000
0010
0100
0020
0000
0000
0000
0031
0000
1000
0000
0000
0000
,
0001
1000
0010
0100
0000
0001
1000
0001
0000
0001
0010
0000
0011
0000
0000
0000
,
0010
0000
0100
1000
0000
1000
0001
0100
0000
0001
1000
0000
1001
0000
0000
0000
,
0001
0100
0001
0010
0000
0100
1000
0010
0000
1000
0100
0000
1100
0000
0000
0000
,
1000
0000
0001
0100
0000
0001
0010
0001
0000
1000
0100
0000
0110
0000
0000
0000
,
0100
0010
0001
0100
0000
0010
1000
0100
0000
0100
0010
0000
1001
0000
0000
0000
,
0010
0000
1000
0100
0000
1000
0010
1000
0000
0010
0100
0000
0101
0000
0000
0000
,
0100
0001
1000
0100
0000
0010
0100
1000
0000
0010
1000
0000
1100
0000
0000
0000
,
1000
0000
0010
1000
0000
0001
0100
0010
0000
0100
0001
0000
1001
0000
0000
0000
;

//---------------dance-single - ----------------
#NOTEDATA:;
#CHARTNAME:;
#STEPSTYPE:dance-single;
#DESCRIPTION:;
#CHARTSTYLE:;
#DIFFICULTY:Hard;
#METER:7;
#RADARVALUES:0.338081,0.333073,0.189910,0.160693,0.124172,276.000000,26.000000,22.000000,0.000000,0.000000,0.000000,0.000000,0.000000,0.338081,0.333073,0.189910,0.160693,0.124172,276.000000,26.000000,22.000000,0.000000,0.000000,0.000000,0.000000,0.000000;
#CREDIT:;
#NOTES:
// measure 0
0000
0000
0000
0000
,  // measure 1
0000
0000
0000
0000
,  // measure 2
0000
0000
0000
0000
,  // measure 3
0000
0000
0000
0000
,  // measure 4
0000
0000
0000
0000
,  // measure 5
1000
0000
0010
1000
0010
0000
1000
0000
0100
0000
0010
0000
0100
0000
0000
0000
,  // measure 6
0010
0001
1000
0000
0010
1000
0001
0000
,  // measure 7
0100
0000
0010
0100
0010
0000
1000
0000
0001
0000
0100
0000
0001
0000
0000
0000
,  // measure 8
0010
0000
0100
0000
1000
0001
0100
0010
,  // measure 9
1000
0000
0000
0100
0000
0000
0010
0000
0000
0000
1001
0000
0000
0000
0010
0000
,  // measure 10
0100
0000
0000
0010
0000
0000
0002
0000
0000
0000
0000
0000
0103
0000
0000
0000
,  // measure 11
0010
1000
0100
0010
0100
0000
1000
0020
,  // measure 12
0000
0000
0130
0000
0001
1000
0010
0100
,  // measure 13
0001
0000
0000
0010
0000
0000
0100
0000
0000
0000
1001
0000
0000
0000
0001
0000
,  // measure 14
0100
0000
0000
0010
0000
0000
2000
0000
0000
0000
0000
0000
3100
0000
0000
0000
,  // measure 15
0010
0001
1000
0010
0100
0000
0001
0020
,  // measure 16
0000
0000
0130
0000
1000
0001
0100
0000
,  // measure 17
0010
1000
0100
0010
0100
0000
1000
0020
,  // measure 18
0000
0000
0130
0001
0000
1000
0001
2000
,  // measure 19
0000
0000
0000
0000
0000
0000
3100
0010
,  // measure 20
0000
0001
0000
0000
0000
0100
0010
0200
,  // measure 21
0000
0000
0000
0000
0000
0000
0301
1000
,  // measure 22
0000
0010
0000
0100
0000
0010
1000
0020
,  // measure 23
0000
0000
0000
0000
0000
0000
1030
0100
,  // measure 24
0000
0010
0000
0000
0000
0000
0001
0100
,  // measure 25
0002
0000
1003
0010
2000
0000
3001
1000
,  // measure 26
0002
0000
0103
0010
0000
0100
0000
0001
,  // measure 27
1001
0000
0000
0010
0000
0000
1000
0000
0000
0000
0100
0000
0100
0000
0000
0000
,  // measure 28
0010
0000
0000
0001
0000
0000
1000
0000
0000
0000
0010
0000
0110
0000
0000
0000
,  // measure 29
0010
0000
0000
1000
0000
0000
0100
0000
0000
0000
0010
0000
0100
0000
0000
0000
,  // measure 30
1000
0000
0000
0001
0000
0000
0100
0000
0000
0000
0001
0000
1001
0000
0000
0000
,  // measure 31
0010
0000
1000
0010
1000
0000
0100
0000
0010
0000
0001
0000
0100
0000
0000
0000
,  // measure 32
0001
0010
0100
0000
0010
0100
1000
0000
,  // measure 33
0100
0000
1000
0001
0100
0000
0010
0000
0100
0000
0001
0000
1000
0000
0000
0000
,  // measure 34
0010
0000
2000
0100
0000
3100
0000
0010
,  // measure 35
0001
0000
1000
0010
0100
0000
0010
0000
1000
0000
0100
0000
0010
0000
0000
0000
,  // measure 36
0001
1000
0010
0000
0100
0001
1000
0000
,  // measure 37
0010
0000
0100
0001
1000
0000
0010
0000
0100
0000
0010
0000
1000
0000
0000
0000
,  // measure 38
0000
0000
0002
0010
0000
0013
0100
1000
,  // measure 39
0001
0000
0000
0010
0000
0000
0200
0000
0000
0000
0000
0000
1300
0000
0010
0000
,  // measure 40
0100
0000
0000
0010
0000
0000
2000
0000
0000
0000
0000
0000
3001
0000
0000
0000
,  // measure 41
0010
0100
0010
0001
0100
0000
0010
2000
,  // measure 42
0000
0000
3100
0000
0010
0001
1000
0010
,  // measure 43
0100
0000
0000
0001
0000
0000
2000
0000
0000
0000
3010
0000
1000
0000
0100
0000
,  // measure 44
0010
0000
0000
0100
0000
0000
2000
0000
0000
0000
0000
0000
3001
0000
0000
0000
,  // measure 45
0010
0100
0010
0001
0100
0000
0010
2000
,  // measure 46
0000
3100
0010
0001
,  // measure 47
1000
0000
0001
0000
0100
0000
0010
0000
1000
0000
0000
0010
0000
0000
0200
0000
,  // measure 48
0000
0300
0202
0000
0303
0000
1001
0000
,  // measure 49
0010
0000
0000
1000
0000
0000
1010
0000
0000
0000
1001
0000
0000
1001
0000
0000
,  // measure 50
0100
0000
0000
0010
0000
0000
0101
0000
0000
0000
0110
0000
0000
0110
0000
0000
,  // measure 51
0001
0000
0000
0010
0000
0000
0011
0000
0000
0000
1001
0000
0000
1001
0000
0000
,  // measure 52
1000
0000
0000
0010
0000
0000
0110
0000
0000
0000
1000
0000
0010
0000
1000
0000
,  // measure 53
0100
0000
0000
1100
0000
0000
1100
0000
0000
0000
0010
0000
0000
0100
0000
0000
,  // measure 54
0010
0000
0000
0101
0000
0000
0101
0000
0000
0000
0010
0000
0000
0100
0000
0000
,  // measure 55
0010
0000
0000
1001
0000
0000
0110
0000
0000
0000
0010
0000
0000
0100
0000
0000
,  // measure 56
0110
0000
0000
1001
0000
0000
0110
0000
0000
0000
0001
0000
0000
0001
0000
0000
,  // measure 57
0001
0000
0000
0000
;

//---------------dance-single - ----------------
#NOTEDATA:;
#CHARTNAME:;
#STEPSTYPE:dance-single;
#DESCRIPTION:;
#CHARTSTYLE:;
#DIFFICULTY:Medium;
#METER:5;
#RADARVALUES:0.275474,0.248709,0.036521,0.058434,0.000000,251.000000,5.000000,8.000000,0.000000,0.000000,0.000000,0.000000,0.000000,0.275474,0.248709,0.036521,0.058434,0.000000,251.000000,5.000000,8.000000,0.000000,0.000000,0.000000,0.000000,0.000000;
#CREDIT:;
#NOTES:
0000
0000
0000
0000
,
0000
0000
0000
0000
,
0000
0000
0000
0000
,
0000
0000
0000
0000
,
0000
0000
0000
0000
,
1000
0100
1000
0000
0010
0100
0010
0000
,
1000
0001
1000
0000
0001
1000
0001
0000
,
0010
0001
0010
0000
0100
1000
0100
0000
,
0010
0000
0010
0000
0100
1000
0100
0000
,
1000
0010
0100
0001
,
0010
0100
0020
0030
,
0001
0010
0100
1000
0001
0000
1000
0001
,
0000
0010
1000
0100
,
0010
0100
1000
1000
,
0010
0100
0001
1000
,
0100
1000
0010
0100
0010
0000
1000
0100
,
0000
0010
0001
1000
,
0010
0100
0010
1000
0001
0000
0010
0000
,
0100
0000
1000
0100
1000
0000
0100
0000
,
2002
0000
0000
0000
3003
0000
0010
0010
,
0000
0010
0000
0000
0000
0100
0010
0200
,
0000
0000
0000
0000
0000
0300
0010
0010
,
0000
0001
0000
0100
0000
0010
0100
0020
,
0000
0000
0000
0000
0000
0030
1000
1000
,
0000
0100
0000
0000
0000
0000
1000
0100
,
1000
0000
0001
0100
0001
0000
1000
0100
,
1000
0000
0010
0100
0000
0100
0000
0000
,
1001
0000
0101
0000
1000
0010
1000
0000
,
0100
0000
0010
0000
0100
0000
1000
0010
,
0100
0000
0010
1000
0100
0000
1000
0010
,
0100
0000
0010
1000
0100
0000
0010
0000
,
0001
0100
0010
0000
0100
0001
1000
0000
,
0001
0100
0010
0000
0100
0001
1000
0000
,
0010
1000
0100
0000
1000
0010
0100
0000
,
0010
1000
0100
0000
1000
0010
0100
0000
,
0010
1000
0001
0000
1000
0010
0100
0000
,
0010
1000
0001
0000
1000
0010
0100
0000
,
0001
0100
1000
0000
1000
0100
0001
0000
,
0001
0010
0100
1000
,
1001
0000
0010
0000
1000
0100
0010
0000
,
0001
0000
0100
0000
0010
0100
0001
0000
,
1000
0010
0100
0001
,
2000
0000
0000
0000
3000
0100
0010
0100
,
0010
0000
0001
0000
0100
0000
0010
1000
,
0010
0100
0001
1000
,
0010
0100
0010
0000
1000
0000
0100
0020
,
0000
0001
0000
0031
,
1000
0001
1000
0000
0100
0000
1000
0020
,
0000
0000
0030
0000
,
1001
0000
0001
0000
1000
0100
0001
0000
,
0001
0100
1000
0000
1000
0100
0001
0000
,
1000
0000
0010
0000
1000
0010
0001
0000
,
0001
0010
1000
0000
1000
0010
0001
0000
,
1000
0000
0010
0000
0100
0001
1000
0000
,
0001
1000
0001
0000
0100
0001
1000
0000
,
0010
1000
0001
0000
0100
0001
1000
0000
,
0010
1000
0001
0000
0100
0001
1000
0000
;

//---------------dance-single - ----------------
#NOTEDATA:;
#CHARTNAME:;
#STEPSTYPE:dance-single;
#DESCRIPTION:;
#CHARTSTYLE:;
#DIFFICULTY:Easy;
#METER:3;
#RADARVALUES:0.221214,0.207257,0.080347,0.087651,0.000000,189.000000,11.000000,12.000000,0.000000,0.000000,0.000000,0.000000,0.000000,0.221214,0.207257,0.080347,0.087651,0.000000,189.000000,11.000000,12.000000,0.000000,0.000000,0.000000,0.000000,0.000000;
#CREDIT:;
#NOTES:
0000
0000
0000
0000
,
0000
0000
0000
0000
,
0000
0000
0000
0000
,
0000
0000
0000
0000
,
0000
0000
0000
0000
,
0010
1000
0100
0010
,
0100
1000
0100
0010
,
0001
1000
0010
0100
,
0010
1000
0100
0010
,
0100
0100
1000
0001
,
0100
0100
0020
0030
,
1000
0010
0100
0001
,
1000
0010
0100
0001
,
1000
1000
0001
0001
,
0010
0100
2000
3000
,
0010
1000
0100
0010
,
0100
0100
0010
0010
,
0001
1000
0010
0100
,
0010
0010
1000
1000
,
0200
0000
0300
0020
,
0000
0000
0030
0001
,
2000
0000
3000
0020
,
0000
0000
0030
0100
,
0002
0000
0003
2000
,
0000
0000
3000
0100
,
0100
0010
0010
0001
,
0001
1000
1000
1000
,
1010
1001
1000
0001
,
0100
0100
0010
0010
,
0101
1001
0001
1000
,
0010
0010
0100
0100
,
0020
1000
0100
0130
,
0001
0001
0010
0010
,
2000
0100
0001
3001
,
0010
0010
1000
1000
,
0200
0001
0010
0310
,
1000
1000
0100
0100
,
0001
0001
0010
1000
,
0100
0002
0000
0003
,
1001
0010
0001
0001
,
1000
0100
1000
1000
,
0010
1000
0100
0010
,
0100
0100
0010
0100
,
0010
0001
0100
0001
,
0010
0100
1000
1000
,
0010
1000
0100
0010
,
0100
0100
0010
0010
,
0001
1000
0010
0100
,
0001
0001
1000
1000
,
1001
1100
0010
0010
,
0100
0100
0010
0010
,
0110
1001
0010
0010
,
0100
0100
0010
0010
,
1100
0101
0001
1000
,
0001
1000
0001
1000
,
0010
0010
0100
0100
,
0001
1000
0010
0100
;

//---------------dance-single - ----------------
#NOTEDATA:;
#CHARTNAME:;
#STEPSTYPE:dance-single;
#DESCRIPTION:;
#CHARTSTYLE:;
#DIFFICULTY:Beginner;
#METER:1;
#RADARVALUES:0.107477,0.124354,0.014608,0.000000,0.000000,101.000000,2.000000,0.000000,0.000000,0.000000,0.000000,0.000000,0.000000,0.107477,0.124354,0.014608,0.000000,0.000000,101.000000,2.000000,0.000000,0.000000,0.000000,0.000000,0.000000,0.000000;
#CREDIT:;
#NOTES:
0000
0000
0000
0000
,
0000
0000
0000
0000
,
0000
0000
0000
0000
,
0000
0000
0000
0000
,
0000
0000
0000
0000
,
0010
0010
0010
0000
,
0100
0000
0100
0000
,
0010
0010
0010
0000
,
0100
0000
0100
0000
,
0001
0000
0001
0000
,
1000
0000
1000
0000
,
0010
0000
0100
0000
,
0010
0000
0000
0000
,
1000
0000
0001
0000
,
1000
0000
1000
0000
,
0100
0000
0010
0000
,
0100
0000
0000
0000
,
0010
0000
0001
0000
,
0100
0000
0010
0000
,
1000
0000
0000
0000
,
0000
0000
0000
0000
,
0010
0000
0000
0000
,
0000
0000
0000
0000
,
0100
0000
0000
0000
,
0000
0000
0000
0000
,
0001
0000
1000
0000
,
0010
0000
0100
0000
,
0010
0010
0010
0000
,
1000
0000
0100
0000
,
0010
0010
0010
0000
,
0001
0000
0100
0000
,
0001
0001
0001
0000
,
0100
0000
1000
0000
,
1000
1000
1000
0000
,
0100
0000
0010
0000
,
0001
0001
0001
0000
,
1000
1000
1000
0000
,
0100
0100
0100
0000
,
0010
0010
0000
0000
,
0001
0000
0100
0000
,
0010
0000
1000
0000
,
0110
0000
0001
0000
,
0100
0000
0000
0000
,
0010
0000
1000
0000
,
0100
0000
0010
0000
,
0001
0000
1000
0000
,
0100
0000
0000
0000
,
0010
0000
0001
0000
,
0100
0000
0000
0000
,
1001
0000
0000
0010
,
0010
0000
0000
0001
,
0001
0000
0000
1000
,
1000
0000
0000
0100
,
0100
0000
0000
0010
,
0010
0010
0000
0001
,
0000
1000
0000
0010
,
0010
0010
0000
0100
;
