#TITLE:Cheap Thrills;
#SUBTITLE:;
#ARTIST:Sia;
#TITLETRANSLIT:;
#SUBTITLETRANSLIT:;
#ARTISTTRANSLIT:;
#GENRE:This Is Acting;
#CREDIT:;
#BANNER:Cheap Thrills-bn.png;
#BACKGROUND:Cheap Thrills-bg.png;
#LYRICSPATH:;
#CDTITLE:;
#MUSIC:Cheap Thrills.mp3;
#OFFSET:-0.060000;
#SAMPLESTART:31.684664;
#SAMPLELENGTH:21.666666;
#SELECTABLE:YES;
#BPMS:0.000000=90.000000
;
#STOPS:
;
#BGCHANGES:;
#KEYSOUNDS:;
#ATTACKS:;

//---------------dance-single - ----------------
#NOTES:
     dance-single:
     :
     Hard:
     7:
     0.354777,0.433844,0.166572,0.484573,0.204429,328.000000,306.000000,22.000000,64.000000,0.000000,0.000000,0.354777,0.433844,0.166572,0.484573,0.204429,328.000000,306.000000,22.000000,64.000000,0.000000,0.000000:
0000
0000
0000
0000
,
0000
0000
0000
0000
,
1000
0100
0001
0100
,
1000
0000
0000
0000
0100
0000
0000
0000
0001
0000
0000
0000
0100
0000
0000
0001
,
1000
0000
0001
1000
0000
0000
0100
1000
0100
1000
0100
0000
0010
0000
0000
0001
,
0010
0001
0000
0100
0000
0000
0010
1000
0100
0000
0010
0000
0100
0000
1000
0100
,
1000
0100
0000
1000
0000
0000
0010
1000
0001
0000
0010
0000
0001
0000
0000
0100
,
0001
0100
0000
0001
0000
0000
1000
0010
1000
0000
0010
0000
0100
0000
0001
1000
,
0000
0100
0000
0010
0001
0000
0100
0000
0000
0001
0000
1000
0010
0000
0100
0000
,
0010
1000
0100
1000
0020
0000
0130
0001
,
1000
0000
0010
0000
1010
0000
0000
1000
0001
0000
0010
0000
0011
0000
0000
0001
,
1000
0001
0000
0100
0000
0010
0000
0100
0000
0000
0000
0000
0000
0000
0010
1000
,
0002
0000
0000
1003
0000
0000
1100
0000
1000
0001
0000
0100
0000
0010
0100
0000
,
0010
0000
1000
0002
0000
0003
0101
0000
1001
0000
1100
0000
0110
0000
0010
0100
,
0020
0000
0000
0031
0000
0000
0101
0000
0001
1000
0000
0100
0000
0010
0100
0000
,
0010
0000
0001
2000
0000
3000
1100
0000
1001
0000
0011
0000
0110
0000
0000
0000
,
1000
0100
0001
0010
0200
0000
1000
0010
,
2300
0000
3200
0000
0302
0000
0203
0000
2300
0000
0000
0000
3020
0000
0000
0130
,
0001
1000
0010
0001
0200
0000
1000
0000
,
0302
0023
2030
3020
0032
0000
2003
0000
,
3100
0010
0001
0100
0020
0000
0001
0100
,
0032
0023
2030
3020
0230
0000
0302
0000
,
1003
0100
0001
0100
2000
0000
3020
0000
,
0130
0001
1000
0100
,
0010
0010
0001
0001
,
1000
1000
0100
0100
,
1000
0010
0001
0100
,
0010
0000
1000
0001
0100
0010
0100
0000
,
0001
0100
0010
1000
0200
0000
0001
1000
,
0010
0000
0310
0001
0200
0000
0310
1000
,
0001
0100
1000
0100
0002
0000
2003
0000
,
0000
0000
3200
0000
0000
0000
0000
0000
0310
0000
0000
0000
0001
0000
1000
0001
,
0200
0000
0000
0310
0000
0000
1010
0000
1000
0001
0000
0010
0000
0100
0010
0000
,
0001
0000
1000
0002
0000
0003
0101
0000
0110
0000
1010
0000
1001
0000
1000
0100
,
0020
0000
0000
0031
0000
0000
1001
0000
1000
0010
0000
1000
0000
0100
0010
0000
,
0001
0000
1000
0200
0000
0300
1100
0000
0110
0000
0101
0000
1001
0000
0000
0000
,
0001
0010
1000
0010
0200
0000
0001
0010
,
0302
0203
2300
3200
0302
0000
2003
0000
,
3010
1000
0100
0010
0002
0000
2003
0000
,
3200
0302
0203
2300
3020
0000
0230
0000
,
0310
1000
0001
0100
0020
0000
1000
0100
,
2030
3020
0032
0023
0230
0000
0302
0000
,
1003
0100
0010
0001
0200
0000
0320
0000
,
1030
0000
0000
0100
0010
0000
0001
0000
0100
0000
0000
0010
1000
0000
0001
0000
,
0200
0000
0301
0100
0010
0000
1000
0000
,
0100
0000
0010
0001
0100
0010
1000
0000
,
0200
0000
1300
0001
0100
0000
0010
0000
,
0200
0000
0000
0301
1000
0001
0100
0000
;

//---------------dance-single - ----------------
#NOTES:
     dance-single:
     :
     Medium:
     5:
     0.246613,0.253076,0.000000,0.106000,0.000000,228.000000,228.000000,0.000000,14.000000,0.000000,0.000000,0.246613,0.253076,0.000000,0.106000,0.000000,228.000000,228.000000,0.000000,14.000000,0.000000,0.000000:
0000
0000
0000
0000
,
0000
0000
0000
0000
,
1000
0100
0001
0100
,
1000
0100
0001
0100
,
1000
0000
0001
0000
0100
0010
1000
0000
,
0010
0100
0001
0000
1000
0010
1000
0000
,
0100
0000
0010
0000
0001
1000
0100
0000
,
0010
0100
1000
0000
0100
0010
0001
0000
,
1000
0000
0010
1000
0010
0000
0001
1000
,
0001
0000
0100
1000
0100
0000
0001
0000
,
0010
0000
0001
0100
0001
0000
0010
0001
,
0010
0100
1000
0000
,
0020
0000
2030
0000
3001
0100
0010
1000
,
0100
0010
0100
0000
0010
0000
0010
0000
,
0002
0000
2003
0000
3010
0100
0001
1000
,
0100
0010
0100
0000
0010
0000
0010
0000
,
0001
0100
0001
0100
0001
0000
0100
0000
,
0002
0100
1000
0103
,
0010
1000
0010
1000
0010
0000
1000
0000
,
0020
0100
1000
0130
,
0001
1000
0001
1000
0100
0000
0010
0000
,
0200
1000
0010
1300
,
0001
1000
0010
0100
0001
0000
1000
0000
,
0010
0010
0100
0100
,
0010
0010
0001
0001
,
1000
1000
0100
0100
,
1000
0010
0001
0100
,
0010
0000
1000
0001
0100
0010
0100
0000
,
0001
1000
0100
0010
,
0001
1000
0010
0100
,
0010
1000
0100
0010
,
0001
0000
1000
0001
,
2000
0000
3002
0000
1003
0100
0010
0001
,
0100
0010
0100
0000
0010
0000
0010
0000
,
2000
0000
3002
0000
0103
0010
1000
0100
,
0010
0100
0010
0000
0100
0000
0100
0000
,
1000
0100
1000
0100
1000
0000
0100
0000
,
2000
0100
0001
3100
,
0010
0001
0010
0001
0010
0000
0001
0000
,
0020
0100
0001
0130
,
0001
1000
0001
1000
0100
0000
0010
0000
,
0200
1000
0010
1300
,
0001
1000
0010
0100
0001
0000
1000
0000
,
0010
1000
0001
0001
,
0100
0000
0001
0100
0010
0000
1000
0000
,
0100
0000
0010
0001
0100
0010
1000
0000
,
0100
0000
1000
0001
0100
0000
0010
0000
,
0100
0000
0000
0001
1000
0001
0100
0000
;

//---------------dance-single - ----------------
#NOTES:
     dance-single:
     :
     Easy:
     3:
     0.207674,0.216922,0.075715,0.068143,0.000000,192.000000,182.000000,10.000000,9.000000,0.000000,0.000000,0.207674,0.216922,0.075715,0.068143,0.000000,192.000000,182.000000,10.000000,9.000000,0.000000,0.000000:
// measure 0
0000
0000
0000
0000
,  // measure 1
0000
0000
0000
0000
,  // measure 2
1000
0100
0001
0100
,  // measure 3
1000
0100
0001
0100
,  // measure 4
1000
0001
0100
1000
,  // measure 5
0010
0001
1000
1000
,  // measure 6
0100
0010
0001
0100
,  // measure 7
0010
1000
0100
0001
,  // measure 8
1000
0010
0010
0001
,  // measure 9
0001
0100
0100
0001
,  // measure 10
0010
0001
0001
0010
,  // measure 11
0010
0100
1000
0000
,  // measure 12
0020
2030
3001
0010
,  // measure 13
0100
0100
0110
0110
,  // measure 14
0002
2003
3010
0001
,  // measure 15
0100
0100
0110
0110
,  // measure 16
0001
0100
0001
0100
,  // measure 17
0010
1000
0001
0100
,  // measure 18
0010
1000
0010
1000
,  // measure 19
0001
0100
0010
1000
,  // measure 20
0001
0100
0001
0100
,  // measure 21
0010
1000
0100
0010
,  // measure 22
0001
0010
0001
0010
,  // measure 23
0100
1000
0100
1000
,  // measure 24
0010
0010
0001
0001
,  // measure 25
1000
1000
0100
0100
,  // measure 26
1000
0010
0001
0100
,  // measure 27
0010
1000
0100
0100
,  // measure 28
0001
1000
0100
0010
,  // measure 29
0001
1000
0010
0100
,  // measure 30
0010
1000
0100
0010
,  // measure 31
0001
0000
1000
0001
,  // measure 32
2000
3002
1003
0010
,  // measure 33
0100
0100
0110
0110
,  // measure 34
2000
3002
0103
1000
,  // measure 35
0010
0010
0110
0110
,  // measure 36
1000
0100
1000
0100
,  // measure 37
0010
0001
0010
0001
,  // measure 38
0100
0001
0100
0001
,  // measure 39
1000
0010
1000
0010
,  // measure 40
0100
0001
0100
0001
,  // measure 41
1000
0100
1000
0100
,  // measure 42
0010
0001
1000
0100
,  // measure 43
0010
0100
0010
0010
,  // measure 44
0100
0001
0010
1000
,  // measure 45
0200
0300
0110
0110
,  // measure 46
0010
0001
1000
0010
,  // measure 47
0100
0000
0000
0010
0100
0010
0100
0000
;

//---------------dance-single - ----------------
#NOTES:
     dance-single:
     :
     Beginner:
     1:
     0.103837,0.126538,0.000000,0.068143,0.000000,96.000000,96.000000,0.000000,9.000000,0.000000,0.000000,0.103837,0.126538,0.000000,0.068143,0.000000,96.000000,96.000000,0.000000,9.000000,0.000000,0.000000:
// measure 0
0000
0000
0000
0000
,  // measure 1
0000
0000
0000
0000
,  // measure 2
1000
0000
0001
0000
,  // measure 3
1000
0000
0001
0000
,  // measure 4
1000
0000
0100
0000
,  // measure 5
0010
0000
1000
0000
,  // measure 6
0100
0000
0001
0000
,  // measure 7
0010
0000
0100
0000
,  // measure 8
1000
0000
0010
0000
,  // measure 9
0001
0000
0100
0000
,  // measure 10
0010
0000
0001
0000
,  // measure 11
0010
0000
1000
0000
,  // measure 12
0010
0010
0010
0000
,  // measure 13
0100
0000
1000
1000
,  // measure 14
1000
1000
1000
0000
,  // measure 15
0001
0000
0100
0100
,  // measure 16
0100
0000
0010
0000
,  // measure 17
2000
0000
0000
3000
,  // measure 18
0001
0000
0010
0000
,  // measure 19
0200
0000
0000
0300
,  // measure 20
0010
0000
0001
0000
,  // measure 21
0200
0000
0000
0300
,  // measure 22
0010
0000
1000
0000
,  // measure 23
0002
0000
0000
0003
,  // measure 24
0010
0000
0001
0000
,  // measure 25
1000
0000
0100
0000
,  // measure 26
1000
0000
0001
0000
,  // measure 27
0010
0000
0100
0000
,  // measure 28
0001
0000
0100
0000
,  // measure 29
0001
0000
0010
0000
,  // measure 30
0010
0000
0100
0000
,  // measure 31
0001
0000
1000
1000
,  // measure 32
1000
1000
1000
0000
,  // measure 33
0010
0000
0100
0100
,  // measure 34
0100
0100
0100
0000
,  // measure 35
0001
0000
0010
0010
,  // measure 36
0010
0000
0100
0000
,  // measure 37
2000
0000
0000
3000
,  // measure 38
0010
0000
0100
0000
,  // measure 39
0002
0000
0000
0003
,  // measure 40
0100
0000
0001
0000
,  // measure 41
2000
0000
0000
3000
,  // measure 42
0100
0000
0010
0000
,  // measure 43
0002
0003
2000
3000
,  // measure 44
0100
0000
0010
0000
,  // measure 45
0100
0000
0010
0010
,  // measure 46
0010
0000
0001
0000
,  // measure 47
1000
0000
0100
0100
;
