#VERSION:0.83;
#TITLE:Chained To The Rhythm;
#SUBTITLE:;
#ARTIST:Katy Perry;
#TITLETRANSLIT:;
#SUBTITLETRANSLIT:;
#ARTISTTRANSLIT:;
#GENRE:Chained To The Rhythm;
#ORIGIN:;
#CREDIT:;
#BANNER:Chained To The Rhythm-banner.png;
#BACKGROUND:Chained To The Rhythm-bg.png;
#PREVIEWVID:Chained To The Rhythm-preview.avi;
#JACKET:Chained To The Rhythm-jacket.png;
#CDIMAGE:;
#DISCIMAGE:;
#LYRICSPATH:;
#CDTITLE:;
#MUSIC:Chained To The Rhythm.mp3;
#OFFSET:-0.005000;
#SAMPLESTART:55.608444;
#SAMPLELENGTH:20.210529;
#SELECTABLE:YES;
#BPMS:0.000=95.000;
#STOPS:;
#DELAYS:;
#WARPS:;
#TIMESIGNATURES:0.000=4=4;
#TICKCOUNTS:0.000=2;
#COMBOS:0.000=1;
#SPEEDS:0.000=1.000=0.000=0;
#SCROLLS:0.000=1.000;
#FAKES:;
#LABELS:0.000=Song Start;
#LASTSECONDHINT:116.300026;
#BGCHANGES:-1.000=Chained To The Rhythm-video.avi=1.000=1=0=0=StretchNoLoop==CrossFade==,
99999=-nosongbg-=1.000=0=0=0 // don't automatically add -songbackground-
;
#KEYSOUNDS:;
#ATTACKS:
;

//---------------dance-single - ----------------
#NOTEDATA:;
#CHARTNAME:;
#STEPSTYPE:dance-single;
#DESCRIPTION:;
#CHARTSTYLE:;
#DIFFICULTY:Challenge;
#METER:9;
#RADARVALUES:0.423345,0.520676,0.168376,0.437777,0.441986,352.000000,332.000000,20.000000,52.000000,0.000000,0.000000,0.000000,0.000000,0.000000,0.423345,0.520676,0.168376,0.437777,0.441986,352.000000,332.000000,20.000000,52.000000,0.000000,0.000000,0.000000,0.000000,0.000000;
#CREDIT:;
#NOTES:
0000
0000
0000
0000
,
0000
0000
0000
0000
0000
0000
0010
1000
,
0002
0010
2003
0100
,
3002
0000
0000
0000
0010
0000
0000
0000
1003
0100
0000
0001
0000
0100
0000
2000
,
0000
0000
0000
0000
3010
0000
0100
0002
0000
0000
0000
0000
0013
0000
0100
0000
,
2000
0000
0000
0000
3010
0000
0100
0000
0001
0000
0010
0100
0000
1000
0000
0002
,
0000
0000
0000
0000
0103
0000
0010
2000
0000
0000
0000
0000
3010
0000
0100
0002
,
0000
0000
0000
0000
0103
0000
0010
2000
0000
0000
0000
0000
3100
0000
0000
0010
,
0001
1000
0010
0100
0001
1000
0010
0100
0001
1000
0000
0001
1000
0000
0000
0010
,
0100
0001
0010
0100
1000
0010
0100
0001
0010
0100
0000
0010
0100
0000
1000
0000
,
0020
0001
0230
1000
,
0320
0000
0000
0000
0100
0000
0000
0000
1030
0000
0001
0010
0000
0100
0000
2000
,
0000
0000
0000
0000
3100
0000
0010
0002
0000
0000
0000
0000
0013
0000
0100
0000
,
2000
0000
0000
0000
3100
0000
0010
0000
0001
1000
0000
0100
0000
0010
0000
0002
,
0000
0000
0000
0000
0013
0000
0100
2000
0000
0000
0000
0000
3100
0000
0010
0002
,
0000
0000
0000
0000
0013
0000
0100
2000
0000
0000
0000
0000
3010
0000
0000
0100
,
0001
1000
0010
0100
0001
1000
0010
0100
0001
1000
0000
0001
1000
0000
0000
0010
,
1000
0100
0010
0001
1000
0100
0010
0001
1000
0100
0000
0010
0001
0000
1000
0000
,
0200
0000
0000
0000
0000
1000
0000
0020
,
0000
0000
0000
0000
0000
0000
0000
0000
0330
0001
0100
0000
0010
1000
0000
0001
,
0000
0010
0200
0000
0000
0000
0000
0000
0000
0000
0000
0000
0300
0000
1000
0001
,
1000
0001
0200
0000
0000
0000
0310
0000
,
1001
0000
1000
0010
1000
0000
1000
0100
0001
0000
1000
0000
0001
0000
0000
0000
,
1100
0000
0101
0000
1100
0000
0001
1000
0001
0000
1000
0000
0020
0000
0001
0000
,
1030
0000
0001
1000
0001
0000
0001
0010
1000
0000
0001
0000
1001
0000
0000
0000
,
1000
0001
1000
0001
1000
0000
0010
1000
0010
0000
0100
0000
0002
0000
0000
0000
,
1003
0000
0000
0000
2002
0000
3003
0001
0010
0000
0100
0000
0110
0000
2000
0000
,
3001
0000
0000
0000
2002
0000
3003
0001
1000
0000
0010
0000
1010
0000
0001
0000
,
0100
0000
0000
1001
0000
0000
0100
0010
0010
1000
0000
0000
,
0100
0000
0000
0000
0010
0000
0000
0000
0010
0000
0000
0000
1000
0000
0000
0000
0000
0000
0000
0000
0000
0000
0000
0000
0100
0000
0000
0000
0010
0000
0000
0000
0010
0000
0000
0000
1000
0000
0000
0001
0000
0000
0100
0000
0000
0010
0000
0000
,
1000
0000
0000
0000
1001
0000
0001
0100
1000
0000
0001
0000
1000
0000
0000
0000
,
0101
0000
1100
0000
0101
0000
1000
0001
1000
0000
0010
0000
0200
0000
1000
0000
,
0301
0000
1000
0100
1000
0000
0001
0100
0001
0000
1000
0000
1001
0000
0000
0000
,
0010
1000
0001
0100
0010
0000
1000
0001
1000
0000
0010
0000
0200
0000
0000
0000
,
0301
0000
0000
0000
2002
0000
3003
0001
1000
0000
0010
0000
1010
0000
0200
0000
,
0310
0000
0000
0000
2002
0000
3003
1000
0001
0000
0010
0000
0011
0000
1000
0000
,
0100
0000
0000
1001
0000
0000
0100
0010
0010
0001
0000
0000
,
1000
0000
0000
0000
0010
0000
0000
0000
0010
0000
0000
0000
0001
0000
0000
0000
0000
0000
0000
0000
0000
0000
0000
0000
1000
0000
0000
0000
0010
0000
0000
0000
0010
0000
0000
0000
0001
0000
0000
1000
0000
0000
0100
0000
0000
0010
0000
0000
,
0002
0000
0000
0000
0103
0000
0010
1000
0200
0000
0000
0000
0310
0000
0001
0100
,
0020
0000
0000
0000
1030
0000
0100
0010
0001
0000
0100
0000
0010
0000
1000
0000
,
0200
0000
1300
0001
2000
0000
3010
1000
0002
0000
0000
0000
0013
0000
0100
1000
,
0020
0000
0130
0001
0000
0000
1000
0100
0000
0000
0001
0100
0010
0000
1000
0000
,
0002
0000
0000
0000
0013
0000
0100
1000
0020
0000
0000
0000
0130
0000
0001
1000
,
0200
0000
1300
0100
0000
0000
0001
0100
0000
0000
0000
0000
0010
0000
1000
0000
,
0002
0000
0000
0000
0200
0300
0020
0030
,
2000
0000
0000
0000
0000
0000
0000
0000
3003
0000
0001
1000
0100
0010
0000
0000
;

//---------------dance-single - ----------------
#NOTEDATA:;
#CHARTNAME:;
#STEPSTYPE:dance-single;
#DESCRIPTION:;
#CHARTSTYLE:;
#DIFFICULTY:Hard;
#METER:7;
#RADARVALUES:0.369224,0.424254,0.109444,0.463033,0.324123,307.000000,294.000000,13.000000,55.000000,0.000000,0.000000,0.000000,0.000000,0.000000,0.369224,0.424254,0.109444,0.463033,0.324123,307.000000,294.000000,13.000000,55.000000,0.000000,0.000000,0.000000,0.000000,0.000000;
#CREDIT:;
#NOTES:
0000
0000
0000
0000
,
0000
0000
0000
0000
0000
0000
0010
1000
,
0002
0010
2003
0100
,
3002
0000
0000
0000
0010
0000
0000
0000
1003
0100
0000
0010
0000
0100
0000
2000
,
0000
0000
0000
0000
3010
0000
0100
0002
0000
0000
0000
0000
0013
0000
0100
0000
,
2000
0000
0000
0000
3010
0000
0100
0000
0001
0000
0010
0100
0000
1000
0000
0002
,
0000
0000
0000
0000
0103
0000
0010
2000
0000
0000
0000
0000
3010
0000
0100
0002
,
0000
0000
0000
0000
0103
0000
0010
2000
0000
0000
0000
0000
3100
0000
0000
0010
,
0001
0010
0001
0000
1000
0100
1000
0000
0010
0000
0000
0100
0000
0000
0000
0000
,
0001
0100
0001
0000
1000
0010
1000
0000
0001
0000
0000
0100
0000
0000
0000
0000
,
2000
0100
3002
0010
,
2003
0000
0000
0000
0100
0000
0000
0000
3001
0000
0010
0100
0000
1000
0000
0002
,
0000
0000
0000
0000
0103
0000
0010
2000
0000
0000
0000
0000
3010
0000
0100
0000
,
0002
0000
0000
0000
0103
0000
0010
0000
1000
0001
0000
0100
0000
0010
0000
2000
,
0000
0000
0000
0000
3010
0000
0100
0002
0000
0000
0000
0000
0103
0000
0010
2000
,
0000
0000
0000
0000
3010
0000
0100
0002
0000
0000
0000
0000
0013
0000
0000
0100
,
1000
0100
1000
0000
0001
0100
0001
0000
1000
0000
0000
0010
0000
0000
0000
0000
,
0100
0010
0100
0000
0001
1000
0001
0000
0100
0000
0000
0010
0000
0000
0000
0000
,
0200
0000
0000
0000
0000
0001
0000
0020
,
0000
0000
0000
0000
0000
0000
0000
0000
0330
0000
0100
0000
0010
1000
0000
0001
,
0000
0010
0200
0000
0000
0000
0000
0000
0000
0000
0000
0000
0300
0000
1000
0001
,
1000
0001
0200
0000
0000
0000
0310
0000
,
1001
0000
1000
0001
1000
0000
0001
1000
0001
0000
1000
0000
0001
0000
0000
0000
,
2000
0000
3002
0000
2003
0000
3001
1000
0001
0000
1000
0000
0002
0000
1000
0000
,
1003
0000
0001
1000
0001
0000
1000
0001
1000
0000
0001
0000
1001
0000
0000
0000
,
0001
1000
0001
1000
0001
0000
1000
0001
1000
0000
0001
0000
2000
0000
0000
0000
,
3001
0000
0000
0000
2002
0000
3003
0001
1000
0000
0001
0000
1001
0000
0000
0000
,
0000
0000
0000
0000
2002
0000
3003
0001
1000
0000
0001
0000
1001
0000
0001
0000
,
0100
0000
0000
1001
0000
0000
0100
0010
0010
0100
0000
0000
,
0100
0000
0000
0000
0010
0000
0000
0000
0010
0000
0000
0000
0100
0000
0000
0000
0000
0000
0000
0000
0000
0000
0000
0000
0100
0000
0000
0000
0010
0000
0000
0000
0010
0000
0000
0000
1000
0000
0000
0001
0000
0000
1000
0000
0000
0001
0000
0000
,
1000
0000
0000
0000
0001
0000
1000
0001
1000
0000
0001
0000
1000
0000
0000
0000
,
0002
0000
2003
0000
3002
0000
1003
0001
1000
0000
0001
0000
2000
0000
0001
0000
,
3001
0000
1000
0001
1000
0000
0001
1000
0001
0000
1000
0000
1001
0000
0000
0000
,
1000
0001
1000
0001
1000
0000
0001
1000
0001
0000
1000
0000
0002
0000
0000
0000
,
1003
0000
0000
0000
2002
0000
3003
1000
0001
0000
1000
0000
1001
0000
0000
0000
,
0000
0000
0000
0000
2002
0000
3003
1000
0001
0000
1000
0000
1001
0000
1000
0000
,
0100
0000
0000
1001
0000
0000
0100
0010
0010
0100
0000
0000
,
0100
0000
0000
0000
0010
0000
0000
0000
0010
0000
0000
0000
0100
0000
0000
0000
0000
0000
0000
0000
0000
0000
0000
0000
0100
0000
0000
0000
0010
0000
0000
0000
0010
0000
0000
0000
0001
0000
0000
1000
0000
0000
0001
0000
0000
1000
0000
0000
,
0002
0000
0013
0001
0200
0000
0310
0001
,
2000
0000
3010
0100
0001
0100
0010
1000
,
0200
0000
1300
0010
0200
0000
0301
0010
,
0200
0000
1300
0000
0001
1000
0010
0100
,
0002
0000
0013
0100
2000
0000
3010
0100
,
0002
0000
0013
0000
0100
1000
0001
0100
,
0002
0000
0000
0000
0200
0300
0020
0030
,
2000
0000
0000
0000
0000
0000
0000
0000
3003
0000
0001
1000
0100
0010
0000
0000
;

//---------------dance-single - ----------------
#NOTEDATA:;
#CHARTNAME:;
#STEPSTYPE:dance-single;
#DESCRIPTION:;
#CHARTSTYLE:;
#DIFFICULTY:Medium;
#METER:6;
#RADARVALUES:0.281428,0.289264,0.033675,0.319914,0.025256,234.000000,230.000000,4.000000,38.000000,0.000000,0.000000,0.000000,0.000000,0.000000,0.281428,0.289264,0.033675,0.319914,0.025256,234.000000,230.000000,4.000000,38.000000,0.000000,0.000000,0.000000,0.000000,0.000000;
#CREDIT:;
#NOTES:
0000
0000
0000
0000
,
0000
0000
0000
0000
0000
0000
0010
1000
,
0002
0013
2000
3100
,
0002
0000
0013
0000
1000
0100
0010
0100
,
2000
0000
3010
0100
0002
0000
0013
0100
,
2000
0000
3010
0100
0001
0010
0100
1000
,
0002
0000
0103
0010
2000
0000
3010
0100
,
0002
0000
0103
0010
2000
0000
3100
0000
,
0010
0000
0001
0000
1000
0000
0100
0000
0010
0000
0000
0010
0000
0000
0000
0000
,
0001
0000
0100
0000
0010
0000
1000
0000
0001
0000
0000
0001
0000
0000
0000
0000
,
2000
3100
0002
0013
,
2000
0000
3100
0000
0001
0010
0100
1000
,
0002
0000
0103
0010
2000
0000
3010
0100
,
0002
0000
0103
0010
1000
0001
0100
0010
,
2000
0000
3010
0100
0002
0000
0103
0010
,
2000
0000
3010
0100
0002
0000
0013
0000
,
0100
0000
1000
0000
0001
0000
0100
0000
0010
0000
0000
0010
0000
0000
0000
0000
,
0100
0000
0001
0000
1000
0000
0100
0000
0010
0000
0000
0010
0000
0000
0000
0000
,
0200
0000
0000
0000
0000
0010
0000
0020
,
0000
0000
0330
0001
,
0200
0000
0000
0000
,
0020
0000
0000
0330
,
1000
0001
1000
0001
1000
0001
1000
0000
,
0010
0010
0010
1000
0001
1000
0001
0000
,
1000
0001
1000
0001
1000
0001
1000
0000
,
0001
1000
0001
1000
0001
1000
0002
0000
,
1003
0000
1001
0000
0001
1000
0001
0000
,
0000
0000
1001
0000
1000
0001
1000
0000
,
0010
0000
0100
0000
0010
0100
0010
0000
,
0100
0010
0100
0000
0010
0100
0002
0000
,
1003
0000
0001
1000
0001
1000
0001
0000
,
0010
0010
0010
0001
1000
0001
1000
0000
,
0001
1000
0001
1000
0001
1000
0001
0000
,
1000
0001
1000
0001
1000
0001
2000
0000
,
3001
0000
1001
0000
1000
0001
1000
0000
,
0000
0000
1001
0000
0001
1000
0001
0000
,
0010
0000
0100
0000
0010
0100
0010
0000
,
0100
0010
0100
0000
0010
0100
2000
0000
,
3002
0013
0200
0310
,
0002
0000
0103
0000
0010
0000
1000
0001
,
0200
0310
2000
3100
,
0020
0000
0031
0000
0100
0000
0010
1000
,
0002
0013
0200
1300
,
0001
0000
0010
0000
0100
0000
1000
0001
,
2000
0000
0100
0010
,
0002
0000
0000
0000
0000
0000
0000
0000
3003
0000
1000
0001
1000
0001
0000
0000
;

//---------------dance-single - ----------------
#NOTEDATA:;
#CHARTNAME:;
#STEPSTYPE:dance-single;
#DESCRIPTION:;
#CHARTSTYLE:;
#DIFFICULTY:Easy;
#METER:4;
#RADARVALUES:0.212875,0.250354,0.067350,0.319914,0.000000,177.000000,169.000000,8.000000,38.000000,0.000000,0.000000,0.000000,0.000000,0.000000,0.212875,0.250354,0.067350,0.319914,0.000000,177.000000,169.000000,8.000000,38.000000,0.000000,0.000000,0.000000,0.000000,0.000000;
#CREDIT:;
#NOTES:
// measure 0
0000
0000
0000
0000
,  // measure 1
0000
0000
0000
1000
,  // measure 2
0002
0013
2000
3100
,  // measure 3
0002
0013
1000
0001
,  // measure 4
2000
3100
0002
0013
,  // measure 5
2000
3100
0001
1000
,  // measure 6
0002
0103
2000
3010
,  // measure 7
0002
0103
2000
3010
,  // measure 8
0200
0310
0110
0110
,  // measure 9
0020
0130
0110
0110
,  // measure 10
2000
3010
0002
0103
,  // measure 11
2000
3010
0001
1000
,  // measure 12
0002
0103
2000
3010
,  // measure 13
0002
0103
1000
0001
,  // measure 14
2000
3100
0002
0013
,  // measure 15
2000
3100
0002
0013
,  // measure 16
2000
3001
1001
1001
,  // measure 17
0002
1003
1001
1001
,  // measure 18
0200
0000
0000
0000
,  // measure 19
0020
0000
0000
0330
,  // measure 20
0002
0000
0000
0000
,  // measure 21
2000
0000
0000
3003
,  // measure 22
0001
1000
0001
1000
,  // measure 23
0001
1000
0001
0000
1000
0000
0001
0000
,  // measure 24
1000
0001
1000
0001
,  // measure 25
1000
0001
1000
0000
0001
0000
1000
0000
,  // measure 26
0001
0000
1000
0000
0001
1000
0001
0000
,  // measure 27
0000
0000
1000
0000
0001
1000
0001
0000
,  // measure 28
0010
0100
0010
0010
,  // measure 29
0100
0100
0010
0010
,  // measure 30
0001
1000
0001
1000
,  // measure 31
0001
1000
0001
0000
1000
0000
0001
0000
,  // measure 32
1000
0001
1000
0001
,  // measure 33
1000
0001
1000
0000
0001
0000
1000
0000
,  // measure 34
0001
0000
1000
0000
0001
1000
0001
0000
,  // measure 35
0000
0000
1000
0000
0001
1000
0001
0000
,  // measure 36
0010
0100
0010
0010
,  // measure 37
0100
0100
0010
0010
,  // measure 38
0002
0013
0200
0310
,  // measure 39
0002
0103
0010
1000
,  // measure 40
0200
0310
0002
0103
,  // measure 41
0020
1030
0100
0010
,  // measure 42
0002
0013
0200
1300
,  // measure 43
0001
0010
0100
1000
,  // measure 44
0002
0000
0100
0010
,  // measure 45
2000
0000
0000
0000
3003
0001
1000
0000
;

//---------------dance-single - ----------------
#NOTEDATA:;
#CHARTNAME:;
#STEPSTYPE:dance-single;
#DESCRIPTION:;
#CHARTSTYLE:;
#DIFFICULTY:Beginner;
#METER:2;
#RADARVALUES:0.125079,0.154064,0.016838,0.328333,0.000000,104.000000,102.000000,2.000000,39.000000,0.000000,0.000000,0.000000,0.000000,0.000000,0.125079,0.154064,0.016838,0.328333,0.000000,104.000000,102.000000,2.000000,39.000000,0.000000,0.000000,0.000000,0.000000,0.000000;
#CREDIT:;
#NOTES:
// measure 0
0000
0000
0000
0000
,  // measure 1
0000
0000
0000
0010
,  // measure 2
0020
0030
0200
0300
,  // measure 3
0000
0000
0001
0001
,  // measure 4
0002
0003
2000
3000
,  // measure 5
0000
0000
0100
0100
,  // measure 6
0200
0300
0020
0030
,  // measure 7
0200
0300
0020
0030
,  // measure 8
0001
0001
0001
0000
,  // measure 9
1000
1000
1000
0000
,  // measure 10
0020
0030
0200
0300
,  // measure 11
0000
0000
0001
0001
,  // measure 12
0002
0003
2000
3000
,  // measure 13
0000
0100
0100
0100
,  // measure 14
0200
0300
0020
0030
,  // measure 15
0200
0300
0020
0030
,  // measure 16
0001
0001
0001
0000
,  // measure 17
1000
1000
1000
0000
,  // measure 18
0020
0000
0030
0000
,  // measure 19
0200
0000
0300
0000
,  // measure 20
0002
0000
0003
0000
,  // measure 21
2000
0000
3000
0000
,  // measure 22
1001
0000
0010
0000
,  // measure 23
1000
1000
1000
1000
,  // measure 24
1000
0000
0100
0000
,  // measure 25
0001
0001
0001
0001
,  // measure 26
0001
0001
0001
0000
,  // measure 27
1000
1000
1000
0000
,  // measure 28
0020
0030
0200
0300
,  // measure 29
0200
0300
0200
0300
,  // measure 30
0001
0001
0001
0000
,  // measure 31
1000
1000
1000
1000
,  // measure 32
1000
0000
0100
0000
,  // measure 33
0001
0001
0001
0001
,  // measure 34
0001
0001
0001
0000
,  // measure 35
1000
1000
1000
0000
,  // measure 36
0020
0030
0200
0300
,  // measure 37
0200
0300
0200
0300
,  // measure 38
0200
0300
0002
0003
,  // measure 39
2000
3000
0000
0100
,  // measure 40
0200
0300
2000
3000
,  // measure 41
0002
0003
0000
0100
,  // measure 42
0200
0300
0002
0003
,  // measure 43
2000
3000
0000
0100
,  // measure 44
0200
0000
0000
0300
,  // measure 45
0020
0000
0030
0110
;
