#VERSION:0.83;
#TITLE:Catgroove;
#SUBTITLE:;
#ARTIST:Parov Stelar;
#TITLETRANSLIT:;
#SUBTITLETRANSLIT:;
#ARTISTTRANSLIT:;
#GENRE:Coco;
#ORIGIN:;
#CREDIT:;
#BANNER:Catgroove-bn.png;
#BACKGROUND:Catgroove-bg.png;
#PREVIEWVID:;
#JACKET:Catgroove-jacket.png;
#CDIMAGE:;
#DISCIMAGE:;
#LYRICSPATH:;
#CDTITLE:;
#MUSIC:Catgroove.mp3;
#OFFSET:-0.296000;
#SAMPLESTART:67.795143;
#SAMPLELENGTH:14.999992;
#SELECTABLE:YES;
#BPMS:0.000=128.000;
#STOPS:;
#DELAYS:;
#WARPS:;
#TIMESIGNATURES:0.000=4=4;
#TICKCOUNTS:0.000=2;
#COMBOS:0.000=1;
#SPEEDS:0.000=1.000=0.000=0;
#SCROLLS:0.000=1.000;
#FAKES:;
#LABELS:0.000=Song Start;
#LASTSECONDHINT:107.230125;
#BGCHANGES:;
#KEYSOUNDS:;
#ATTACKS: TIME=15.36:LEN=3.75:MODS=Drunk, 50% Tornado, Overhead;

//---------------dance-single - ----------------
#NOTEDATA:;
#CHARTNAME:;
#STEPSTYPE:dance-single;
#DESCRIPTION:;
#CHARTSTYLE:;
#DIFFICULTY:Challenge;
#METER:10;
#RADARVALUES:0.698536,0.669124,0.404415,0.064339,0.670962,532.000000,488.000000,44.000000,7.000000,0.000000,0.000000,0.000000,0.000000,0.000000,0.698536,0.669124,0.404415,0.064339,0.670962,532.000000,488.000000,44.000000,7.000000,0.000000,0.000000,0.000000,0.000000,0.000000;
#CREDIT:;
#ATTACKS:TIME=15.36:LEN=3.75:MODS=Drunk, 50% Tornado, Overhead;
#NOTES:
0000
0000
0000
0000
,
0000
0000
0000
0000
,
0000
0000
0000
0000
,
0000
0000
0000
0000
0000
0000
0000
0100
,
1001
0000
0000
0000
0000
0000
1000
0000
0000
0010
0000
0000
1000
0000
0000
0000
0000
0000
1010
0000
0000
0000
0000
0000
1000
0000
0000
0001
0000
0000
0000
0000
0000
0010
0000
0000
0000
0000
0000
0000
0000
0000
0001
0000
0000
0000
0010
0000
,
0001
0000
0010
0001
1000
0000
1001
0000
1000
0001
0000
0100
0000
0000
0010
0000
,
0110
0000
0000
0000
0000
0000
1000
0000
0000
0100
0000
0000
1000
0000
0000
0000
0000
0000
1100
0000
0000
0000
0000
0000
0001
0000
0000
1000
0000
0000
0000
0000
0000
0100
0000
0000
0000
0000
0000
0000
0000
0000
0010
0000
0000
0000
0100
0000
,
0010
0000
0001
1000
0100
0000
1100
0000
1000
0001
0000
0100
0000
0000
0110
0000
,
2002
0000
0000
0000
,
0000
0000
0000
0000
,
0000
0000
0000
3003
,
1001
0010
0010
1001
0100
0100
1001
0100
,
1001
0000
1000
0010
0100
0000
0010
0000
1001
0000
0001
0010
0100
0000
0010
0000
,
0001
0000
0100
0000
1000
0000
0100
0000
0010
0000
1000
0001
0000
0000
1000
0000
,
0100
0000
0010
0100
0000
1000
0100
0000
0010
0000
0001
1000
0010
0000
0100
0000
,
0010
0000
1000
0000
0001
0000
0100
0000
0010
0000
2000
0200
0000
0000
3300
0000
,
1100
0000
1000
0010
0100
0000
0010
0000
1001
0000
0100
0001
0010
0000
0100
0000
,
0010
0000
0001
0000
1000
0000
0001
0000
0010
0000
0100
1000
0000
0000
0100
0000
,
0010
0000
0001
1000
0000
0010
0100
0000
0010
0000
1000
0001
0100
0000
0010
0000
,
1000
0000
0001
0000
0010
0000
0100
0000
0010
0000
0002
0200
0000
0000
0303
0000
,
0110
0000
1000
0001
0000
0000
1000
0100
0000
0000
1100
0000
0000
1001
0000
0000
,
0010
0000
0001
0100
0000
0000
0001
1000
0000
0000
0101
0000
0000
1001
0000
0000
,
2010
0000
0001
0000
3100
0000
0001
0100
,
1000
0000
0100
0000
0001
0000
0000
0000
1000
0010
0000
0100
0001
0000
1000
0000
,
1001
0000
1000
0100
1000
0000
0001
0100
0001
0000
1000
0100
1000
0000
0001
0100
,
0001
0000
1000
0100
1000
0000
0001
0100
0001
0000
0010
0000
1000
0000
0010
0000
,
0001
0000
1000
0010
1000
0000
0001
0010
0001
0000
1000
0010
1000
0000
0001
0010
,
0001
0000
1000
0010
1000
0000
0001
0010
0001
0000
0100
0000
1000
0000
0100
0000
,
0001
0000
1000
0100
0010
0000
0001
0100
0010
0000
1000
0100
0010
0000
0001
0100
,
0010
0000
1000
0010
0100
0000
0001
0010
0100
0000
1000
0000
0100
0000
0001
0000
,
0100
0000
0010
1000
0001
0000
0010
0001
1000
0000
0010
1000
0001
0000
0010
0001
,
1000
0000
0010
0100
0001
0000
0010
0100
1000
0000
0010
0000
0001
0000
0010
0000
,
1000
0000
0100
1000
0001
0000
0100
0001
1000
0000
0100
1000
0001
0000
0010
0001
,
0100
0000
0010
1000
0100
0000
0010
0001
1000
0000
0010
0000
0100
0000
0001
0000
,
1000
0000
0001
0100
0010
0000
1000
0001
0100
0000
0010
1000
0001
0000
0100
0010
,
1000
0000
0001
0100
0010
0000
1000
0001
0100
0000
0010
0000
1000
0000
0001
0000
,
1001
0000
0000
0000
0000
0000
1000
0000
0000
0010
0000
0000
1000
0000
0000
0000
0000
0000
1010
0000
0000
0000
0000
0000
1000
0000
0000
0001
0000
0000
0000
0000
0000
0010
0000
0000
0000
0000
0000
0000
0000
0000
0001
0000
0000
0000
0010
0000
,
0001
0000
0010
0001
1000
0000
1001
0000
1000
0001
0000
0100
0000
0000
0110
0000
,
1001
0000
0000
0000
0000
0000
1000
0000
0000
0100
0000
0000
1000
0000
0000
0000
0000
0000
1100
0000
0000
0000
0000
0000
0001
0000
0000
1000
0000
0000
0000
0000
0000
0100
0000
0000
0000
0000
0000
0000
0000
0000
0010
0000
0000
0000
0100
0000
,
0010
0000
0001
1000
0100
0000
1100
0000
1000
0001
0000
0100
0000
0000
0110
0000
,
1001
0000
0000
0000
0000
0000
0001
0000
0000
0010
0000
0000
0001
0000
0000
0000
0000
0000
0011
0000
0000
0000
0000
0000
0001
0000
0000
1000
0000
0000
0000
0000
0000
0010
0000
0000
0000
0000
0000
0000
0000
0000
1000
0000
0000
0000
0010
0000
,
1000
0000
0010
1000
0001
0000
1001
0000
0001
1000
0000
0100
0000
0000
0010
0000
,
0110
0000
0000
0000
0000
0000
0001
0000
0000
0100
0000
0000
0001
0000
0000
0000
0000
0000
0101
0000
0000
0000
0000
0000
1000
0000
0000
0001
0000
0000
0000
0000
0000
0100
0000
0000
0000
0000
0000
0000
0000
0000
0010
0000
0000
0000
0100
0000
,
0010
0000
1000
0001
0000
1000
0010
0000
1000
0000
1001
0000
0100
0000
0010
0000
,
1001
0000
0000
0000
0000
0000
0001
0000
0000
0100
0000
0000
0001
0000
0000
0000
0000
0000
0101
0000
0000
0000
0000
0000
0001
0000
0000
1000
0000
0000
0000
0000
0000
0100
0000
0000
0000
0000
0000
0000
0000
0000
1000
0000
0000
0000
0100
0000
,
1000
0000
0100
1000
0001
0000
1001
0000
0001
1000
0000
0010
0000
0000
0110
0000
,
1001
0000
0000
0000
0000
0000
0001
0000
0000
0010
0000
0000
0001
0000
0000
0000
0000
0000
0011
0000
0000
0000
0000
0000
1000
0000
0000
0001
0000
0000
0000
0000
0000
0010
0000
0000
0000
0000
0000
0000
0000
0000
0100
0000
0000
0000
0010
0000
,
0100
1000
0000
0100
0000
0000
1100
0000
0000
0000
0001
0010
0100
0000
1000
0100
,
1000
0000
0010
0100
0010
0000
1000
0001
1000
0000
0010
1000
0010
0000
1000
0001
,
1000
0000
0100
1000
0100
0000
0001
1000
0001
0000
0010
0001
0010
0000
0100
0010
,
0100
0000
0001
1000
0001
0000
0100
0001
0100
0000
1000
0001
1000
0000
0010
1000
,
0010
0000
0100
0010
0100
0000
0001
0010
0001
0000
1000
0001
1000
0000
0100
1000
,
0100
0000
0010
0100
0010
0000
0001
1000
0001
0000
0100
0001
0100
0000
0010
1000
,
0010
0000
0100
0001
0100
0000
0001
1000
0001
0000
0100
0010
0100
0000
0001
1000
,
0001
0000
0010
0100
1000
0000
0010
0100
0001
0000
1000
0010
0100
0000
0001
1000
,
0100
0000
0010
0001
1000
0000
0010
1000
0001
0000
0010
0100
1000
0000
0010
0100
,
1001
0000
0000
0000
;

//---------------dance-single - ----------------
#NOTEDATA:;
#CHARTNAME:;
#STEPSTYPE:dance-single;
#DESCRIPTION:;
#CHARTSTYLE:;
#DIFFICULTY:Hard;
#METER:8;
#RADARVALUES:0.414920,0.463240,0.101104,0.045956,0.206803,316.000000,305.000000,11.000000,5.000000,0.000000,0.000000,0.000000,0.000000,0.000000,0.414920,0.463240,0.101104,0.045956,0.206803,316.000000,305.000000,11.000000,5.000000,0.000000,0.000000,0.000000,0.000000,0.000000;
#CREDIT:;
#NOTES:
// measure 0
0000
0000
0000
0000
,  // measure 1
0000
0000
0000
0000
,  // measure 2
0000
0000
0000
0000
,  // measure 3
0000
0000
0000
0000
0000
0000
0000
1000
,  // measure 4
1001
0000
0000
0010
0000
0000
0001
0000
0100
0000
0000
0010
0000
0000
1000
0000
,  // measure 5
0010
0000
1000
0000
0100
0000
0100
0000
0010
0000
0000
0001
0000
0000
1000
0000
,  // measure 6
0010
0000
0000
1000
0000
0000
0001
0000
0100
0000
0000
0010
0000
0000
0100
0000
,  // measure 7
0001
0000
0010
0000
0100
0000
1000
0000
0010
0000
0000
0100
0000
0000
0010
0000
,  // measure 8
2002
0000
0000
0000
,  // measure 9
0000
0000
0000
0000
,  // measure 10
0000
0000
0000
3003
,  // measure 11
1000
0000
0001
0100
0000
0100
0010
0000
,  // measure 12
1001
0000
0100
0010
1000
0000
0010
0100
,  // measure 13
0001
0000
0001
0000
0010
0000
0010
0000
0100
0000
1000
0001
0000
0000
0000
0000
,  // measure 14
1000
0000
0010
0100
0000
0010
0100
0000
0001
0000
1000
0100
2000
0000
0000
0000
,  // measure 15
3001
0000
0010
0000
0001
0000
0100
0000
0010
0000
0000
1000
0000
0000
0000
0000
,  // measure 16
1001
0000
0010
0100
0001
0000
0010
0100
,  // measure 17
1000
0000
1000
0000
0010
0000
0010
0000
0100
0000
0000
0001
0000
0000
0000
0000
,  // measure 18
0010
0000
0001
1000
0000
0001
0010
0000
0001
0000
1000
0010
1000
0000
0000
0000
,  // measure 19
0010
0000
0100
0000
0001
0000
1000
0000
0100
0000
0000
0010
0000
0000
0000
0000
,  // measure 20
1001
0000
0100
0001
0000
0000
1000
0010
0000
0000
1000
0000
0000
0001
0000
0000
,  // measure 21
0100
0000
0010
0100
0000
0000
0010
1000
0000
0000
0100
0000
0000
0010
0000
0000
,  // measure 22
0001
0000
1000
0000
0100
0000
0010
0001
,  // measure 23
0100
0000
1000
0000
0100
0000
0000
0000
0010
0100
0000
0010
0100
0000
0010
0000
,  // measure 24
0001
1000
0100
0000
0001
1000
0010
0000
,  // measure 25
0100
0001
1000
0000
0001
0100
0010
1000
,  // measure 26
0100
0000
0000
0000
0010
0000
0001
1000
0000
0000
0000
0000
0001
0000
0100
0000
,  // measure 27
0010
1000
0100
0000
0010
0100
0010
0001
,  // measure 28
1000
0000
0000
0000
0010
0000
1000
0001
0000
0000
0000
0000
0100
0000
0010
0000
,  // measure 29
1000
0100
0010
0000
0001
1000
0010
0100
,  // measure 30
0001
0000
0000
0000
0010
0000
0100
0010
0000
0000
0000
0000
0001
0000
1000
0000
,  // measure 31
0010
0100
0001
0000
1000
0010
1000
0100
,  // measure 32
0010
0000
0000
0000
0001
0000
1000
0001
0000
0000
0000
0000
0100
0000
0010
0000
,  // measure 33
1000
0001
0100
0000
0010
1000
0100
0010
,  // measure 34
0001
0000
0000
0000
1000
0000
0010
0100
0000
0000
0000
0000
0010
0000
1000
0000
,  // measure 35
0100
0010
0001
0000
1000
0001
0100
0010
,  // measure 36
1001
0000
0000
0100
0000
0000
0010
0000
1000
0000
0000
0010
0000
0000
0100
0000
,  // measure 37
0001
0000
0010
0000
0100
0000
1000
0000
0010
0000
0000
0100
0000
0000
0001
0000
,  // measure 38
1000
0000
0000
0100
0000
0000
0010
0000
0001
0000
0000
0100
0000
0000
0010
0000
,  // measure 39
1000
0000
0100
0000
0010
0000
0001
0000
1000
0000
0000
0010
0000
0000
0100
0000
,  // measure 40
0001
0000
0000
0010
0000
0000
0100
0000
1000
0000
0000
0010
0000
0000
0100
0000
,  // measure 41
0001
0000
1000
0000
0010
0000
0100
0000
0001
0000
0000
0010
0000
0000
0100
0000
,  // measure 42
1000
0000
0000
0010
0000
0000
0100
0000
0001
0000
0000
1000
0000
0000
0010
0000
,  // measure 43
0100
0000
0000
0001
0000
0000
1001
0000
0000
0000
0220
0000
0000
0000
0330
0000
,  // measure 44
1001
0000
0000
0000
0010
0000
0000
0000
1000
0000
0000
0100
0000
0000
0010
0000
,  // measure 45
0001
0000
1000
0000
0010
0000
0100
0000
0001
0000
0000
1000
0000
0000
0100
0000
,  // measure 46
0010
0000
0000
0000
0001
0000
0000
0000
1000
0000
0000
0010
0000
0000
0100
0000
,  // measure 47
0001
0000
0000
0010
0000
0000
0100
0000
0000
0000
0000
0000
1000
0000
0000
0000
,  // measure 48
1001
0000
0100
1000
0001
0000
0010
0000
,  // measure 49
0001
0000
0100
0010
1000
0000
0010
0000
,  // measure 50
0100
0000
0001
1000
0100
0000
0010
0000
,  // measure 51
0001
0000
1000
0000
0010
0000
0100
0001
,  // measure 52
0100
0000
0010
1000
0100
0000
0010
0000
,  // measure 53
0001
0000
1000
0100
0010
0000
0001
0000
,  // measure 54
1000
0000
0010
0100
0001
0000
1000
0000
,  // measure 55
0010
0000
0100
0000
0010
1000
0001
0100
,  // measure 56
1001
0000
0000
0000
;

//---------------dance-single - ----------------
#NOTEDATA:;
#CHARTNAME:;
#STEPSTYPE:dance-single;
#DESCRIPTION:;
#CHARTSTYLE:;
#DIFFICULTY:Medium;
#METER:5;
#RADARVALUES:0.324320,0.386033,0.156251,0.027574,0.000000,247.000000,230.000000,17.000000,3.000000,0.000000,0.000000,0.000000,0.000000,0.000000,0.324320,0.386033,0.156251,0.027574,0.000000,247.000000,230.000000,17.000000,3.000000,0.000000,0.000000,0.000000,0.000000,0.000000;
#CREDIT:;
#ATTACKS:TIME=15.36:LEN=3.75:MODS=Drunk, 50% Tornado, Overhead;
#NOTES:
0000
0000
0000
0000
,
0000
0000
0000
0000
,
0000
0000
0000
0000
,
0000
0000
0000
0000
0000
0000
0000
0001
,
1000
0010
0100
0010
,
1000
0000
0100
0000
0010
0000
0001
1000
,
0001
0100
0010
1000
,
0100
0010
0100
1000
,
2002
0000
0000
0000
,
0000
0000
0000
0000
,
0000
0000
0000
3003
,
0010
0000
0000
0100
0000
0000
0010
0000
,
0001
1000
0010
0100
,
0001
0100
0001
0000
1000
0000
0010
0000
,
1000
0000
0100
0000
0010
0100
0010
0000
,
0001
1000
0001
0000
0100
0000
0100
0000
,
0010
0010
1000
1000
,
0001
0100
0010
0000
1000
0000
1000
0000
,
0001
0010
0100
0000
0010
0001
0010
0000
,
0100
1000
0001
0100
,
0010
0000
1010
0000
0100
0001
0100
0000
,
0010
0000
0011
0000
0100
1000
0100
0000
,
0110
0110
1001
0000
,
0010
0000
0100
0000
0010
0000
1000
0001
,
0100
0100
1000
0001
,
0100
0000
0100
0000
0001
1000
0001
1000
,
0100
0100
0010
0010
,
0100
0000
0100
0000
1000
0001
1000
0001
,
0100
0000
1000
0001
0100
0000
0100
0000
,
0100
0000
0100
0000
1000
0001
1000
0001
,
0100
0000
0100
1000
0001
0000
0100
0000
,
0100
0000
0100
0000
1000
0001
1000
0001
,
0010
0000
0100
0010
0001
0000
1000
0000
,
0010
0000
0100
0000
0001
1000
0001
1000
,
0100
0000
0010
0100
1000
0000
0001
0000
,
0010
0000
0100
0000
0010
0100
0010
0100
,
0010
0001
0100
1001
,
0100
0001
1000
0000
0010
1000
0100
0000
,
0010
0100
0010
1001
,
0010
1000
0100
0000
1000
0100
1000
0000
,
0010
1000
0100
1001
,
0100
0001
1000
0000
0100
1000
0001
0000
,
0100
0000
0010
0000
0100
0001
1000
0000
,
0101
0000
1100
0000
0110
0000
0001
1000
,
0001
1001
0010
1000
,
0010
1001
0010
0001
,
0010
1001
0010
1000
,
0010
0200
0300
0100
,
1001
1000
0001
0001
,
0100
0100
0010
0010
,
1000
0100
0001
0100
,
1000
0001
0100
0100
,
0010
1000
0100
0100
,
0001
0010
0100
1000
,
0010
0100
0010
1000
,
0001
0100
1000
0010
,
1001
0000
0000
0000
;

//---------------dance-single - ----------------
#NOTEDATA:;
#CHARTNAME:;
#STEPSTYPE:dance-single;
#DESCRIPTION:;
#CHARTSTYLE:;
#DIFFICULTY:Easy;
#METER:4;
#RADARVALUES:0.203521,0.257355,0.018383,0.055148,0.000000,155.000000,153.000000,2.000000,6.000000,0.000000,0.000000,0.000000,0.000000,0.000000,0.203521,0.257355,0.018383,0.055148,0.000000,155.000000,153.000000,2.000000,6.000000,0.000000,0.000000,0.000000,0.000000,0.000000;
#CREDIT:;
#ATTACKS:TIME=15.36:LEN=3.75:MODS=Drunk, 50% Tornado, Overhead;
#NOTES:
0000
0000
0000
0000
,
0000
0000
0000
0000
,
0000
0000
0000
0000
,
0000
0000
0000
0000
,
0010
0100
0010
0100
,
0010
0100
0010
0001
,
1000
0001
1000
0001
,
1000
0001
1000
0010
,
2002
0000
0000
0000
,
0000
0000
0000
0000
,
0000
0000
0000
3003
,
0100
0100
0100
0100
,
0200
0300
0020
0030
,
1000
0100
0010
0001
,
0001
0010
0100
1000
,
1000
0100
0010
0001
,
0002
0003
2000
3000
,
0010
0100
0001
1000
,
1000
0001
0100
0010
,
0010
0100
0001
1000
,
0100
0100
0100
0010
,
0100
0100
0100
0010
,
0001
0001
0001
0000
,
1000
0000
0100
0000
,
1000
0000
0010
0000
,
0001
0000
0010
0010
,
0010
0000
0100
0000
,
1000
0000
0001
0001
,
0001
0000
0100
0000
,
1000
0000
0100
0100
,
0100
0000
0010
0000
,
1000
0000
0001
0001
,
0001
0000
0010
0000
,
0100
0000
1000
1000
,
1000
0000
0010
0000
,
0001
0000
0100
0100
,
0100
0000
0010
0000
,
1000
0010
0100
0001
,
0001
0000
1000
0000
,
0001
0010
0100
1000
,
0001
0000
0100
0000
,
1000
0100
0001
0100
,
1000
0000
0010
0000
,
0100
0001
1000
0010
,
0100
0000
0010
0000
,
1000
0001
0100
0100
,
0001
0100
0001
0100
,
0010
0010
0010
0000
,
1000
0100
1000
0000
,
0001
0010
0001
0000
,
1000
0010
1000
0000
,
0001
0000
0100
0000
,
0010
1000
0100
0000
,
0001
0010
0100
0000
,
0010
0001
1000
0000
,
0010
0100
0001
0000
,
1001
0000
0000
0000
;

//---------------dance-single - ----------------
#NOTEDATA:;
#CHARTNAME:;
#STEPSTYPE:dance-single;
#DESCRIPTION:;
#CHARTSTYLE:;
#DIFFICULTY:Beginner;
#METER:1;
#RADARVALUES:0.137869,0.180149,0.036765,0.018383,0.000000,105.000000,101.000000,4.000000,2.000000,0.000000,0.000000,0.000000,0.000000,0.000000,0.137869,0.180149,0.036765,0.018383,0.000000,105.000000,101.000000,4.000000,2.000000,0.000000,0.000000,0.000000,0.000000,0.000000;
#CREDIT:;
#ATTACKS:TIME=15.36:LEN=3.75:MODS=Drunk, 50% Tornado, Overhead;
#NOTES:
0000
0000
0000
0000
,
0000
0000
0000
0000
,
0000
0000
0000
0000
,
0000
0000
0000
0000
,
0010
0000
0010
0000
,
0010
0000
0010
0000
,
0100
0000
0100
0000
,
0100
0000
0100
0000
,
2002
0000
0000
0000
,
0000
0000
0000
0000
,
0000
0000
0000
3003
,
0010
0000
0010
0000
,
1001
0000
0100
0000
,
0010
0010
0010
0000
,
0001
0001
0001
0000
,
1000
0000
0100
0000
,
0010
0000
0001
0000
,
1000
1000
1000
0000
,
0100
0100
0100
0000
,
0010
0000
0001
0000
,
0010
0000
0000
0000
,
0010
0000
0000
0000
,
0100
0100
0100
0000
,
1000
0000
0001
0000
,
0100
0000
0010
0000
,
1000
0000
0100
0100
,
0100
0000
0010
0000
,
0001
0000
1000
1000
,
1000
0000
0010
0000
,
0100
0000
0001
0001
,
0001
0000
0010
0000
,
0100
0000
1000
1000
,
1000
0000
0001
0000
,
0100
0000
0010
0010
,
0010
0000
1000
0000
,
1000
0000
0001
0001
,
0001
0000
0100
0000
,
1000
0000
0010
0000
,
0100
0000
0010
0000
,
1000
0000
0100
0000
,
0010
0000
0001
0000
,
0100
0000
0010
0000
,
1000
0000
0100
0000
,
0010
0000
0001
0000
,
1000
0000
0100
0000
,
0001
0000
0100
0000
,
0001
0000
0100
0000
,
1000
0000
0100
0000
,
1001
0000
0000
0000
,
0010
0000
0000
0000
,
0100
0000
0000
0000
,
0001
0000
0000
0000
,
1000
0000
0000
0000
,
0100
0000
0000
0000
,
0010
0000
0000
0000
,
0001
0000
0000
0000
,
1001
0000
0000
0000
;
