#VERSION:0.83;
#TITLE:Carousel;
#SUBTITLE:;
#ARTIST:Melanie Martinez;
#TITLETRANSLIT:;
#SUBTITLETRANSLIT:;
#ARTISTTRANSLIT:;
#GENRE:Cry Baby;
#ORIGIN:;
#CREDIT:;
#BANNER:Carousel-bn.png;
#BACKGROUND:Carousel-bg.png;
#PREVIEWVID:Carousel-preview.avi;
#JACKET:Carousel-jacket.png;
#CDIMAGE:;
#DISCIMAGE:;
#LYRICSPATH:;
#CDTITLE:;
#MUSIC:Carousel.mp3;
#OFFSET:-0.098000;
#SAMPLESTART:12.558690;
#SAMPLELENGTH:12.467534;
#SELECTABLE:YES;
#BPMS:0.000=154.000;
#STOPS:;
#DELAYS:;
#WARPS:;
#TIMESIGNATURES:0.000=4=4;
#TICKCOUNTS:0.000=2;
#COMBOS:0.000=1;
#SPEEDS:0.000=1.000=0.000=0;
#SCROLLS:0.000=1.000;
#FAKES:;
#LABELS:0.000=Song Start;
#LASTSECONDHINT:126.384933;
#BGCHANGES:-0.500=Carousel-video.avi=1.000=1=0=0=StretchNoLoop==CrossFade==,
99999=-nosongbg-=1.000=0=0=0 // don't automatically add -songbackground-
;
#KEYSOUNDS:;
#ATTACKS:
;

//---------------dance-single - ----------------
#NOTEDATA:;
#CHARTNAME:;
#STEPSTYPE:dance-single;
#DESCRIPTION:;
#CHARTSTYLE:;
#DIFFICULTY:Hard;
#METER:7;
#RADARVALUES:0.426138,0.497161,0.458320,0.668060,0.031073,384.000000,325.000000,59.000000,86.000000,0.000000,0.000000,0.000000,0.000000,0.000000,0.426138,0.497161,0.458320,0.668060,0.031073,384.000000,325.000000,59.000000,86.000000,0.000000,0.000000,0.000000,0.000000,0.000000;
#CREDIT:;
#NOTES:
// measure 0
0000
0000
0000
0000
,  // measure 1
0000
0000
0000
0000
,  // measure 2
0000
0000
0000
0000
,  // measure 3
0000
0000
0000
0000
,  // measure 4
0000
0000
0000
0000
,  // measure 5
0000
0000
0000
0000
,  // measure 6
0000
0000
0000
0000
,  // measure 7
0000
0000
0000
0000
,  // measure 8
2000
3001
1100
0101
,  // measure 9
0011
0000
0010
0001
1000
0000
0001
1000
,  // measure 10
0010
0200
0001
1000
,  // measure 11
0001
0010
1000
0001
,  // measure 12
1000
0000
0310
0000
1000
0001
0000
1000
,  // measure 13
0010
0000
1000
0200
0000
0000
0310
0001
,  // measure 14
0010
0100
1000
0000
0020
0000
0001
0000
,  // measure 15
1000
0000
0001
0000
0100
0000
1030
0001
,  // measure 16
1000
0100
0020
1000
,  // measure 17
0001
0001
0001
0000
1000
0000
0001
0001
,  // measure 18
0031
1000
0200
0000
0001
0000
0010
0000
,  // measure 19
1000
0000
0010
0000
0310
0100
1000
0100
,  // measure 20
0010
0000
0001
0000
0200
1000
0300
0200
,  // measure 21
0001
0300
0200
0000
0310
0000
1000
0001
,  // measure 22
0100
0000
0110
0000
2002
0000
3003
0001
,  // measure 23
1000
0001
0100
0001
1000
0000
0001
0000
,  // measure 24
0101
2001
3010
1100
,  // measure 25
1002
0013
0101
1001
,  // measure 26
1100
1001
0021
0130
,  // measure 27
1020
0130
1002
0013
,  // measure 28
0110
2010
3100
0101
,  // measure 29
0012
1003
0110
1010
,  // measure 30
0101
1010
0201
0301
,  // measure 31
1020
0130
1002
0013
,  // measure 32
0100
1000
0210
1300
,  // measure 33
0001
0000
0100
0000
0010
1000
0001
0000
,  // measure 34
0010
0100
1200
0301
,  // measure 35
0100
0000
0010
0000
0001
1000
0010
0000
,  // measure 36
0100
0001
1020
0031
,  // measure 37
0010
0000
0100
0000
0001
1000
0100
0000
,  // measure 38
0010
0001
0100
0000
0210
0000
1300
0000
,  // measure 39
0001
0000
0010
0100
1000
0001
0100
0000
,  // measure 40
1000
0000
2200
3300
2200
3300
0001
0000
,  // measure 41
2200
3300
2200
3300
0001
0000
2200
3300
,  // measure 42
0010
0000
0022
0033
0022
0033
1000
0000
,  // measure 43
0022
0033
0022
0033
1000
0000
0022
0033
,  // measure 44
0100
0000
2002
3003
2002
3003
0100
0000
,  // measure 45
2002
3003
2002
3003
0100
0000
2002
3003
,  // measure 46
0100
0000
0110
0000
1001
0000
0000
0001
,  // measure 47
1000
0001
0100
0001
1000
0000
0101
0000
,  // measure 48
1000
0010
0100
0002
0000
0000
2003
0000
0000
3001
0000
0000
,  // measure 49
0010
0200
0320
0130
,  // measure 50
1000
0010
0001
0010
,  // measure 51
0100
1000
0002
0003
,  // measure 52
0100
0001
1000
0200
0000
0000
0320
0000
0000
0130
0000
0000
,  // measure 53
1000
0020
0230
0310
,  // measure 54
1000
0100
0001
1000
,  // measure 55
0010
0200
0300
0001
,  // measure 56
0010
0100
1000
0020
0000
0000
0230
0000
0000
0310
0000
0000
,  // measure 57
1000
0002
2003
3001
,  // measure 58
0100
0010
0001
0200
,  // measure 59
0300
0020
0030
1000
,  // measure 60
0001
0100
0010
2000
0000
0000
3020
0000
0000
0130
0000
0000
,  // measure 61
0010
2000
3002
0103
,  // measure 62
0001
0010
0200
0000
,  // measure 63
0000
0020
0000
0330
,  // measure 64
0000
0000
1100
0101
,  // measure 65
0011
0000
0010
0001
1000
0000
0001
1000
,  // measure 66
0010
0200
0001
1000
,  // measure 67
0001
0010
1000
0001
,  // measure 68
1000
0000
0310
0000
1000
0001
0000
1000
,  // measure 69
0010
0000
1000
0200
0000
0000
0310
0001
,  // measure 70
0010
0000
0110
0000
1001
0000
0000
0001
,  // measure 71
1000
0001
0100
0001
1000
0000
0101
0000
,  // measure 72
1001
0100
0020
1000
,  // measure 73
0001
0001
0001
0000
1000
0000
0001
0001
,  // measure 74
0031
1000
0200
0000
0001
0000
0010
0000
,  // measure 75
1000
0000
0010
0000
0310
0100
1000
0100
,  // measure 76
0010
0000
0001
0000
0200
1000
0300
0200
,  // measure 77
0001
0300
0200
0000
0310
0000
1000
0001
,  // measure 78
0100
0000
0110
0000
2002
0000
3003
0001
,  // measure 79
1000
0001
0100
0001
1000
0000
0001
0000
,  // measure 80
1001
0000
0000
0000
;

//---------------dance-single - ----------------
#NOTEDATA:;
#CHARTNAME:;
#STEPSTYPE:dance-single;
#DESCRIPTION:;
#CHARTSTYLE:;
#DIFFICULTY:Medium;
#METER:4;
#RADARVALUES:0.239702,0.372871,0.170899,0.248580,0.000000,216.000000,194.000000,22.000000,32.000000,0.000000,0.000000,0.000000,0.000000,0.000000,0.239702,0.372871,0.170899,0.248580,0.000000,216.000000,194.000000,22.000000,32.000000,0.000000,0.000000,0.000000,0.000000,0.000000;
#CREDIT:;
#NOTES:
// measure 0
0000
0000
0000
0000
,  // measure 1
0000
0000
0000
0000
,  // measure 2
0000
0000
0000
0000
,  // measure 3
0000
0000
0000
0000
,  // measure 4
0000
0000
0000
0000
,  // measure 5
0000
0000
0000
0000
,  // measure 6
0000
0000
0000
0000
,  // measure 7
0000
0000
0000
0000
,  // measure 8
1000
0100
0001
0010
,  // measure 9
1000
0100
0001
0010
,  // measure 10
1000
0100
0001
0010
,  // measure 11
1000
0100
0001
0010
,  // measure 12
0100
1000
0010
0001
,  // measure 13
0100
1000
0010
0001
,  // measure 14
0100
1000
0010
0001
,  // measure 15
0100
1000
0010
0001
,  // measure 16
1000
0010
0001
0100
,  // measure 17
1000
0010
0001
0100
,  // measure 18
1000
0010
0001
0100
,  // measure 19
1000
0010
0001
0100
,  // measure 20
0010
1000
0100
0001
,  // measure 21
0010
1000
0100
0001
,  // measure 22
0010
1000
0001
0000
,  // measure 23
1000
0001
0100
0000
,  // measure 24
0000
0101
0101
0000
,  // measure 25
0101
0101
0000
1001
,  // measure 26
0000
0101
0101
0000
,  // measure 27
0101
0101
0000
0110
,  // measure 28
0000
1010
1010
0000
,  // measure 29
1010
1010
0000
1001
,  // measure 30
0000
1010
1010
0000
,  // measure 31
1010
1010
0000
1001
,  // measure 32
0200
0000
0000
0000
,  // measure 33
0310
0100
0010
0002
,  // measure 34
0000
0000
0000
0000
,  // measure 35
1003
0001
0100
0020
,  // measure 36
0000
0000
0000
2030
,  // measure 37
0000
3200
0000
0320
,  // measure 38
0000
0032
0000
0000
,  // measure 39
0000
1003
0001
1001
,  // measure 40
0200
0000
0310
1000
,  // measure 41
0100
0010
0001
2000
,  // measure 42
0000
0000
0000
0000
,  // measure 43
3010
1000
0100
0020
,  // measure 44
0000
0000
0000
0032
,  // measure 45
0000
2003
0000
3002
,  // measure 46
0000
2003
0000
0000
,  // measure 47
0000
3010
1000
0100
,  // measure 48
0020
0000
0000
0000
,  // measure 49
0230
0000
0000
0000
,  // measure 50
0000
0000
1300
0001
,  // measure 51
0100
0010
1000
0000
,  // measure 52
0002
0000
0013
0100
,  // measure 53
0020
0000
0130
1000
,  // measure 54
0200
0000
0000
1300
,  // measure 55
0000
0001
0000
0000
,  // measure 56
0200
0000
0310
1000
,  // measure 57
0100
0020
0000
0032
,  // measure 58
0000
2003
0000
0000
,  // measure 59
0000
3000
0000
0000
,  // measure 60
0020
0000
2030
0000
,  // measure 61
3002
0000
0203
0000
,  // measure 62
0000
0301
2000
0000
,  // measure 63
0000
0000
0000
3000
,  // measure 64
0000
0000
0100
0010
,  // measure 65
0001
1000
0100
0010
,  // measure 66
0100
1000
0002
0000
,  // measure 67
0000
0000
1003
0000
,  // measure 68
0010
0000
0100
0001
,  // measure 69
1000
0010
0100
0001
,  // measure 70
0010
0100
0010
0000
,  // measure 71
0001
1000
0100
0000
,  // measure 72
0010
0001
1000
0010
,  // measure 73
0100
0001
0010
0100
,  // measure 74
0010
0001
2000
0000
,  // measure 75
0000
0000
3020
0000
,  // measure 76
0230
0000
0301
1000
,  // measure 77
0100
0010
0001
1000
,  // measure 78
0010
0100
0010
0000
,  // measure 79
1000
0001
0100
0000
,  // measure 80
1001
0000
0000
0000
;

//---------------dance-single - ----------------
#NOTEDATA:;
#CHARTNAME:;
#STEPSTYPE:dance-single;
#DESCRIPTION:;
#CHARTSTYLE:;
#DIFFICULTY:Easy;
#METER:2;
#RADARVALUES:0.140936,0.186435,0.007768,0.271885,0.000000,127.000000,126.000000,1.000000,35.000000,0.000000,0.000000,0.000000,0.000000,0.000000,0.140936,0.186435,0.007768,0.271885,0.000000,127.000000,126.000000,1.000000,35.000000,0.000000,0.000000,0.000000,0.000000,0.000000;
#CREDIT:;
#NOTES:
// measure 0
0000
0000
0000
0000
,  // measure 1
0000
0000
0000
0000
,  // measure 2
0000
0000
0000
0000
,  // measure 3
0000
0000
0000
0000
,  // measure 4
0000
0000
0000
0000
,  // measure 5
0000
0000
0000
0000
,  // measure 6
0000
0000
0000
0000
,  // measure 7
0000
0000
0000
0000
,  // measure 8
1000
0000
0100
0000
,  // measure 9
0001
0000
0010
0000
,  // measure 10
1000
0000
0100
0000
,  // measure 11
0001
0000
0010
0000
,  // measure 12
0100
0000
1000
0000
,  // measure 13
0010
0000
0001
0000
,  // measure 14
0100
0000
1000
0000
,  // measure 15
0010
0000
0001
0000
,  // measure 16
1000
0000
0010
0000
,  // measure 17
0001
0000
0100
0000
,  // measure 18
1000
0000
0010
0000
,  // measure 19
0001
0000
0100
0000
,  // measure 20
0010
0000
1000
0000
,  // measure 21
0100
0000
0001
0000
,  // measure 22
0010
0000
1000
0000
,  // measure 23
0100
0000
0001
0000
,  // measure 24
0000
0100
0100
0000
,  // measure 25
0010
0010
0000
1000
,  // measure 26
0000
0001
0001
0000
,  // measure 27
0010
0010
0000
0100
,  // measure 28
0000
1000
1000
0000
,  // measure 29
0001
0001
0000
0100
,  // measure 30
0000
0010
0010
0000
,  // measure 31
1000
1000
0000
0100
,  // measure 32
0200
0000
0300
0000
,  // measure 33
0010
0000
0100
2000
,  // measure 34
0000
3000
0000
0000
,  // measure 35
0010
0000
0100
0002
,  // measure 36
0000
0003
0000
2000
,  // measure 37
3000
0002
0003
0200
,  // measure 38
0300
0020
0000
0030
,  // measure 39
0000
1000
0001
0200
,  // measure 40
0000
0300
0001
0000
,  // measure 41
0010
0000
0100
2000
,  // measure 42
0000
3000
0000
0000
,  // measure 43
0010
0000
0100
0002
,  // measure 44
0000
0003
0000
2000
,  // measure 45
3000
0002
0003
0200
,  // measure 46
0300
0020
0000
0030
,  // measure 47
0000
1000
0001
1000
,  // measure 48
0002
0000
0000
0000
,  // measure 49
2003
0000
0000
0000
,  // measure 50
0000
0000
3100
0000
,  // measure 51
0010
0000
0100
0000
,  // measure 52
2000
0000
0000
0000
,  // measure 53
3002
0000
0000
0000
,  // measure 54
0103
0000
0000
0010
,  // measure 55
0000
0100
0000
0000
,  // measure 56
0020
0000
0000
0000
,  // measure 57
0000
2030
0000
3002
,  // measure 58
0000
2003
0000
3000
,  // measure 59
0000
0000
0000
0000
,  // measure 60
0020
0000
0230
0000
,  // measure 61
0302
0000
2003
0000
,  // measure 62
0000
3100
0200
0000
,  // measure 63
0000
0000
0000
0000
,  // measure 64
0000
0000
0310
0001
,  // measure 65
0010
0000
0100
0000
,  // measure 66
1000
0000
0002
0000
,  // measure 67
0003
0000
0200
0000
,  // measure 68
0300
0000
0010
0000
,  // measure 69
1000
0000
0100
0000
,  // measure 70
0010
0000
0002
0000
,  // measure 71
0003
0000
2000
0000
,  // measure 72
3000
0000
0100
0000
,  // measure 73
0010
0000
0001
0000
,  // measure 74
2000
0000
3000
0000
,  // measure 75
0000
0000
0020
0000
,  // measure 76
0030
0000
0100
0000
,  // measure 77
0001
0000
1000
0000
,  // measure 78
0100
0000
0020
0030
,  // measure 79
0100
0000
0020
0030
,  // measure 80
1001
0000
0000
0000
;

//---------------dance-single - ----------------
#NOTEDATA:;
#CHARTNAME:;
#STEPSTYPE:dance-single;
#DESCRIPTION:;
#CHARTSTYLE:;
#DIFFICULTY:Beginner;
#METER:1;
#RADARVALUES:0.087669,0.124290,0.007768,0.000000,0.000000,79.000000,78.000000,1.000000,0.000000,0.000000,0.000000,0.000000,0.000000,0.000000,0.087669,0.124290,0.007768,0.000000,0.000000,79.000000,78.000000,1.000000,0.000000,0.000000,0.000000,0.000000,0.000000,0.000000;
#CREDIT:;
#NOTES:
// measure 0
0000
0000
0000
0000
,  // measure 1
0000
0000
0000
0000
,  // measure 2
0000
0000
0000
0000
,  // measure 3
0000
0000
0000
0000
,  // measure 4
0000
0000
0000
0000
,  // measure 5
0000
0000
0000
0000
,  // measure 6
0000
0000
0000
0000
,  // measure 7
0000
0000
0000
0000
,  // measure 8
1000
0000
0000
0000
,  // measure 9
0100
0000
0000
0000
,  // measure 10
0001
0000
0000
0000
,  // measure 11
0010
0000
0000
0000
,  // measure 12
0100
0000
0000
0000
,  // measure 13
1000
0000
0000
0000
,  // measure 14
0010
0000
0000
0000
,  // measure 15
0001
0000
0000
0000
,  // measure 16
1000
0000
0000
0000
,  // measure 17
0010
0000
0000
0000
,  // measure 18
0001
0000
0000
0000
,  // measure 19
0100
0000
0000
0000
,  // measure 20
0010
0000
0000
0000
,  // measure 21
1000
0000
0000
0000
,  // measure 22
0100
0000
0000
0000
,  // measure 23
0001
0000
0000
0000
,  // measure 24
0000
1000
0000
0000
,  // measure 25
0100
0000
0000
0001
,  // measure 26
0000
0010
0000
0000
,  // measure 27
0001
0000
0000
0010
,  // measure 28
0000
0100
0000
0000
,  // measure 29
1000
0000
0000
0010
,  // measure 30
0000
0001
0000
0000
,  // measure 31
0010
0000
0000
1000
,  // measure 32
1000
0000
0000
0000
,  // measure 33
0100
0000
0010
0000
,  // measure 34
0000
0000
0000
0000
,  // measure 35
0001
0000
1000
0000
,  // measure 36
0000
0000
0000
0010
,  // measure 37
0000
0100
0000
0010
,  // measure 38
0000
0100
0000
0000
,  // measure 39
0000
0000
0001
0000
,  // measure 40
0000
0000
1000
0000
,  // measure 41
0100
0000
1000
0000
,  // measure 42
0000
0000
0010
0000
,  // measure 43
0100
0000
0000
0010
,  // measure 44
0000
0000
0000
0001
,  // measure 45
0000
1000
0000
0001
,  // measure 46
0000
0000
0000
0000
,  // measure 47
0000
0000
0010
0000
,  // measure 48
0100
0000
0000
0000
,  // measure 49
1000
0000
0000
0000
,  // measure 50
0001
0000
0100
0000
,  // measure 51
0001
0000
0000
0000
,  // measure 52
0010
0000
0000
0000
,  // measure 53
0100
0000
0000
0000
,  // measure 54
1000
0000
0000
0000
,  // measure 55
0000
0000
0000
0000
,  // measure 56
0010
0000
0000
0000
,  // measure 57
1000
0000
0000
0000
,  // measure 58
0001
0000
0000
0000
,  // measure 59
0000
0000
0000
0000
,  // measure 60
0100
0000
0000
0000
,  // measure 61
0100
0000
0000
0000
,  // measure 62
0000
0000
0000
0000
,  // measure 63
0000
0000
0000
0000
,  // measure 64
1000
0000
0000
0000
,  // measure 65
0100
0000
0000
0000
,  // measure 66
0001
0000
0000
0000
,  // measure 67
0010
0000
0000
0000
,  // measure 68
0100
0000
0000
0000
,  // measure 69
1000
0000
0000
0000
,  // measure 70
0010
0000
0000
0000
,  // measure 71
0001
0000
0000
0000
,  // measure 72
1000
0000
0000
0000
,  // measure 73
0010
0000
0000
0000
,  // measure 74
0001
0000
0000
0000
,  // measure 75
0100
0000
0000
0000
,  // measure 76
0010
0000
0000
0000
,  // measure 77
1000
0000
0000
0000
,  // measure 78
0100
0000
0000
0000
,  // measure 79
0001
0000
0000
0000
,  // measure 80
1001
0000
0000
0000
;
