#VERSION:0.83;
#TITLE:Blue;
#SUBTITLE:(Da Ba Dee);
#ARTIST:Eiffel 65;
#TITLETRANSLIT:;
#SUBTITLETRANSLIT:;
#ARTISTTRANSLIT:;
#GENRE:Europop;
#ORIGIN:;
#CREDIT:;
#BANNER:Blue (Da Ba Dee)-bn.png;
#BACKGROUND:Blue (Da Ba Dee)-bg.png;
#PREVIEWVID:;
#JACKET:Blue (Da Ba Dee)-jacket.png;
#CDIMAGE:;
#DISCIMAGE:;
#LYRICSPATH:;
#CDTITLE:;
#MUSIC:Blue (Da Ba Dee).mp3;
#OFFSET:-0.316000;
#SAMPLESTART:112.328453;
#SAMPLELENGTH:14.532379;
#SELECTABLE:YES;
#DISPLAYBPM:128.000000;
#BPMS:0.000=127.990;
#STOPS:64.000=3.282;
#DELAYS:;
#WARPS:;
#TIMESIGNATURES:0.000=4=4,
64.000=1=4,
65.000=4=4;
#TICKCOUNTS:0.000=2;
#COMBOS:0.000=1;
#SPEEDS:0.000=1.000=0.000=0;
#SCROLLS:0.000=1.000;
#FAKES:;
#LABELS:0.000=Song Start;
#LASTSECONDHINT:143.797150;
#BGCHANGES:;
#KEYSOUNDS:;
#ATTACKS:
;

//---------------dance-single - ----------------
#NOTEDATA:;
#CHARTNAME:;
#STEPSTYPE:dance-single;
#DESCRIPTION:;
#CHARTSTYLE:;
#DIFFICULTY:Hard;
#METER:7;
#RADARVALUES:0.449137,0.461747,0.200384,0.117467,0.013820,455.000000,426.000000,29.000000,17.000000,0.000000,0.000000,0.000000,0.000000,0.000000,0.449137,0.461747,0.200384,0.117467,0.013820,455.000000,426.000000,29.000000,17.000000,0.000000,0.000000,0.000000,0.000000,0.000000;
#CREDIT:;
#DISPLAYBPM:128.000000;
#NOTES:
0000
0000
0000
0000
,
0000
0000
0000
0000
,
0000
0000
0000
0000
,
0000
0000
0000
0000
,
0000
0000
0000
0000
,
0001
1000
0100
0000
1000
0000
0001
0000
,
0100
0001
0000
1000
0000
0100
0010
0000
,
0001
0000
0100
0000
0110
0000
0000
0001
,
0000
1000
0000
0001
0100
0000
0010
0000
,
1000
0001
0000
1000
0000
0100
0000
0010
,
0001
0000
1000
0001
1000
0000
0100
0000
,
0010
0001
0000
0100
0000
0001
1000
0001
,
0100
0010
0000
1000
0000
0001
0000
1001
,
0000
1000
0010
1000
0000
0001
0010
0100
,
1000
0100
1000
0001
0000
1000
0010
0100
,
0001
0000
0000
1000
0100
1000
0000
0001
,
0010
0000
1001
0000
0100
0001
0010
0001
,
0100
0002
0000
0103
0010
1000
0100
1000
,
0010
0100
0001
1000
0001
0100
0010
1000
,
0100
2000
0000
3100
1000
0001
0020
0000
,
0031
1000
0001
0100
0001
1000
0001
0010
,
0100
2000
0000
3001
1000
0100
1000
0010
,
0100
0001
1000
0100
1000
0001
0010
0001
,
0100
0000
2000
0000
0000
0000
3000
0000
0000
0000
0100
0010
0100
0000
0000
0000
,
0110
0000
1001
0000
0010
1000
0100
1000
,
0010
2000
0000
3010
0100
0001
0010
0001
,
0100
0010
1000
0001
1000
0010
0100
0001
,
0010
0002
0000
0013
0001
1000
0200
0000
,
1300
0001
1000
0010
1000
0001
1000
0100
,
0010
0002
0000
1003
0001
0010
0001
0100
,
0010
1000
0001
0010
0001
1000
0100
1000
,
0001
0200
0000
0300
0000
0000
0000
0000
,
0001
1000
0010
0100
0001
0010
0100
1000
,
0010
1010
0000
1000
0001
1000
0100
0010
,
0001
0100
0010
0100
0001
1000
0001
0010
,
0100
0110
0000
0100
1000
0001
0100
0010
,
0100
0001
1000
0001
0100
0010
1000
0100
,
0010
0011
0000
0001
1000
0001
0100
0010
,
1000
0100
0010
0001
0010
0100
1000
0001
,
0100
0101
0000
1100
0000
0110
0000
1001
,
0000
1001
0010
0000
0100
0000
0001
0000
,
1000
0000
0100
0000
0010
0000
0001
0100
,
0100
0010
0000
0010
0100
0000
0001
0000
0000
0000
0001
0000
1000
0000
0001
0000
,
0000
0001
0010
0100
0000
1010
0000
0100
,
0001
1000
0000
0001
0010
0100
0000
1000
,
0010
0100
0000
0001
0000
1100
0000
0100
,
0010
0100
0000
1000
0010
0100
0000
0010
,
1000
0001
0000
0010
0000
1100
0000
0001
,
1000
0100
0000
0010
0001
0100
0010
1000
,
0000
0001
1000
0010
0100
0001
0000
0000
,
0000
0000
1000
0100
0000
0101
0000
0010
,
0000
1100
0000
0100
0000
0110
0000
1000
,
0010
0001
0000
0010
0000
1100
0000
0100
,
0000
1001
0000
0100
0000
1010
0000
0100
,
0001
0010
0000
1000
0000
0011
0000
0001
,
0000
1010
0000
1000
0001
0000
0000
0010
,
0100
0000
0110
0000
1001
0000
0010
1000
,
0100
0202
0000
0303
,
1000
0000
1001
0000
1000
0100
1000
0010
,
0100
0002
0000
0013
0001
0100
0010
0100
,
0001
1000
0001
0100
0010
1000
0100
0010
,
0100
2000
0000
3100
0010
0001
0200
0000
,
0301
0010
0100
1000
0001
1000
0010
0100
,
0001
2000
0000
3001
0010
0100
1000
0010
,
1000
0100
0010
0100
1000
0001
0100
0010
,
0100
0000
0002
0000
0000
0000
0003
0000
0000
0000
1000
0001
1000
0000
0000
0000
,
0001
0010
0100
1000
0001
1000
0010
0100
,
0001
0010
0000
0010
0001
0100
0010
1000
,
0100
0010
0100
1000
0001
1000
0010
0100
,
0001
1000
0000
1000
0100
0010
0100
1000
,
0001
0010
0100
0010
0001
0100
0010
0100
,
0001
1000
0000
1000
0001
0010
0100
1000
,
0010
0100
0001
0010
0100
1000
0010
1000
,
0100
0010
0000
0010
0000
0010
0000
0010
,
0000
0010
0110
0000
0000
0000
0000
0000
;

//---------------dance-single - ----------------
#NOTEDATA:;
#CHARTNAME:;
#STEPSTYPE:dance-single;
#DESCRIPTION:;
#CHARTSTYLE:;
#DIFFICULTY:Medium;
#METER:5;
#RADARVALUES:0.277379,0.282179,0.076008,0.013820,0.000000,281.000000,270.000000,11.000000,2.000000,0.000000,0.000000,0.000000,0.000000,0.000000,0.277379,0.282179,0.076008,0.013820,0.000000,281.000000,270.000000,11.000000,2.000000,0.000000,0.000000,0.000000,0.000000,0.000000;
#CREDIT:;
#DISPLAYBPM:128.000000;
#NOTES:
0000
0000
0000
0000
,
0000
0000
0000
0000
,
0000
0000
0000
0000
,
0000
0000
0000
0000
,
0000
0000
0000
0000
,
0001
1000
0010
0100
,
0001
0000
0000
0010
0000
0000
0100
0000
,
1000
0000
0100
0000
0010
0000
0000
0001
,
0000
1000
0000
0001
1000
0000
0001
0000
,
0100
0010
1000
0001
,
0010
0000
0100
0010
0100
0000
1000
0000
,
0001
1000
0000
0001
0000
0000
0010
0000
,
0100
1000
0010
0100
,
0001
0000
0010
0100
0010
0000
0001
0000
,
1000
0001
0100
0010
,
0100
0000
0000
0001
1000
0000
0000
0000
,
1001
0001
0010
0100
,
1000
0001
0010
0100
,
1000
0001
0010
0100
,
1000
0001
0010
0100
,
0100
1000
0100
0010
,
0001
1000
0100
0010
,
0001
0000
1000
0000
0100
0000
0010
0001
,
1000
0100
0000
0000
0000
0000
0000
0000
,
0010
0001
0100
1000
,
0010
0001
0100
1000
,
0010
0001
0100
1000
,
0010
0001
0100
1000
,
1000
0100
0001
0010
,
1000
0100
0001
0010
,
1000
0000
0100
0000
0001
0000
0010
1000
,
0100
0001
0000
0000
0000
0000
0000
0000
,
0110
1001
0010
1000
,
0001
0010
0000
0000
0100
0000
0010
0000
,
0100
0010
0001
0100
,
1000
0001
0000
0000
1000
0000
0010
0000
,
0100
0001
0010
1000
,
0001
0100
0000
0000
0010
0000
1000
0000
,
0100
0001
0010
1000
,
0100
0001
0000
0100
0000
1000
0000
0000
,
0000
1001
1000
0001
,
1000
0000
0001
0000
1000
0000
0001
0010
,
0100
0000
0000
1000
0000
1000
0000
0001
,
0000
0001
0000
1000
0000
0001
0000
1000
,
0000
0110
0000
0001
0000
1000
0000
0001
,
0000
0010
0000
0100
0000
1000
0000
0001
,
0000
1001
0000
0100
0000
0010
0000
1000
,
0000
0001
0000
0010
0000
0100
0000
1000
,
0000
1100
0000
1000
0000
0001
0000
0000
,
0000
0000
0000
0010
0000
0001
0000
1000
,
0010
0100
0000
0010
0000
0010
0000
1000
,
0000
1000
0000
0001
0000
0001
0000
1000
,
0001
1000
0000
0001
0000
0010
0000
0100
,
0000
0010
0000
0001
0000
1000
0000
0100
,
0010
0100
0000
1000
0000
0100
0000
0001
,
0000
0100
0000
1000
0000
0100
0000
1000
,
0001
1000
0000
0001
0000
0010
0000
0100
,
0000
0220
0000
0330
,
0000
1001
0100
0010
,
1000
0100
0010
0001
,
0100
0010
1000
0100
,
0010
0001
0100
0010
,
0010
1000
0001
0100
,
0010
1000
0001
0100
,
0010
0000
1000
0000
0001
0000
0100
0010
,
1000
0001
0000
0000
0000
0000
0000
0000
,
0010
0110
1000
0100
,
0001
1000
0000
0000
0010
0000
0100
0000
,
0010
1000
0100
0010
,
0001
1000
0000
0000
0001
0000
0010
0000
,
1000
0100
0010
0001
,
1000
0001
0000
0000
0100
0000
0001
0000
,
0010
1000
0100
0010
,
0001
1000
0000
0000
0000
0000
0000
0000
,
0000
1001
0000
0000
;

//---------------dance-single - ----------------
#NOTEDATA:;
#CHARTNAME:;
#STEPSTYPE:dance-single;
#DESCRIPTION:;
#CHARTSTYLE:;
#DIFFICULTY:Easy;
#METER:3;
#RADARVALUES:0.212230,0.256526,0.020729,0.000000,0.000000,215.000000,212.000000,3.000000,0.000000,0.000000,0.000000,0.000000,0.000000,0.000000,0.212230,0.256526,0.020729,0.000000,0.000000,215.000000,212.000000,3.000000,0.000000,0.000000,0.000000,0.000000,0.000000,0.000000;
#CREDIT:;
#DISPLAYBPM:128.000000;
#NOTES:
// measure 0
0000
0000
0000
0000
,  // measure 1
0000
0000
0000
0000
,  // measure 2
0000
0000
0000
0000
,  // measure 3
0000
0000
0000
0000
,  // measure 4
0000
0000
0000
0000
,  // measure 5
0001
0000
1000
0000
,  // measure 6
0001
0000
0100
0000
,  // measure 7
0010
0000
1000
0000
,  // measure 8
0100
0000
0010
0000
,  // measure 9
0001
0000
0001
0000
,  // measure 10
1000
0000
1000
0000
,  // measure 11
0100
0000
0100
0000
,  // measure 12
0010
0000
0010
0000
,  // measure 13
0001
0000
1000
0000
,  // measure 14
0001
0000
1000
0000
,  // measure 15
0001
0000
0100
0000
,  // measure 16
0110
0100
0100
0100
,  // measure 17
0100
0100
0100
0001
,  // measure 18
1000
0100
0100
0100
,  // measure 19
0100
0100
0100
1000
,  // measure 20
0001
1000
1000
1000
,  // measure 21
1000
1000
1000
0010
,  // measure 22
0100
0001
0001
0001
,  // measure 23
0001
0001
0000
0000
,  // measure 24
0010
0010
0010
0010
,  // measure 25
0010
0010
0010
0100
,  // measure 26
1000
0001
0001
0001
,  // measure 27
0001
0001
0001
0100
,  // measure 28
0010
1000
1000
1000
,  // measure 29
1000
1000
1000
0100
,  // measure 30
0001
0010
1000
0100
,  // measure 31
0001
0010
0000
0000
,  // measure 32
0100
0100
0000
1000
,  // measure 33
0001
0000
1000
0010
,  // measure 34
0100
0001
0000
0010
,  // measure 35
0100
0000
1000
0001
,  // measure 36
0100
0010
0000
1000
,  // measure 37
0001
0000
1000
0100
,  // measure 38
0010
0001
0000
1000
,  // measure 39
0100
0000
0000
0000
,  // measure 40
0000
0010
0000
0010
,  // measure 41
0000
0010
0000
0010
,  // measure 42
0000
0001
0001
0100
,  // measure 43
0100
0010
0010
1000
,  // measure 44
1000
0001
0001
0100
,  // measure 45
0100
0010
0010
1000
,  // measure 46
1000
0100
0100
0010
,  // measure 47
0010
0001
0001
1000
,  // measure 48
1000
0100
0100
0010
,  // measure 49
0000
0001
0001
1000
,  // measure 50
1000
0100
0010
0100
,  // measure 51
0010
0100
0010
0000
,  // measure 52
0000
0001
1000
0001
,  // measure 53
0000
1000
0010
1000
,  // measure 54
0000
0001
0100
0001
,  // measure 55
0100
0010
1000
0000
,  // measure 56
0000
0010
0010
0100
,  // measure 57
0100
1001
0000
0000
,  // measure 58
0010
0100
0100
0100
,  // measure 59
0100
0100
0100
0010
,  // measure 60
1000
0100
0100
0100
,  // measure 61
0100
0100
0100
1000
,  // measure 62
0010
0001
0001
0001
,  // measure 63
0001
0001
0001
0100
,  // measure 64
1000
0010
0001
0100
,  // measure 65
1000
0010
0000
0000
,  // measure 66
0100
0100
0000
0010
,  // measure 67
0000
1000
0000
0001
,  // measure 68
1000
0100
0000
0010
,  // measure 69
0000
0001
0000
1000
,  // measure 70
0001
0100
0000
0010
,  // measure 71
0000
1000
0000
0100
,  // measure 72
0010
0100
0000
0010
,  // measure 73
0000
0001
0000
0000
,  // measure 74
0000
1001
0000
0000
;

//---------------dance-single - ----------------
#NOTEDATA:;
#CHARTNAME:;
#STEPSTYPE:dance-single;
#DESCRIPTION:;
#CHARTSTYLE:;
#DIFFICULTY:Beginner;
#METER:1;
#RADARVALUES:0.114505,0.128263,0.027639,0.027639,0.000000,116.000000,112.000000,4.000000,4.000000,0.000000,0.000000,0.000000,0.000000,0.000000,0.114505,0.128263,0.027639,0.027639,0.000000,116.000000,112.000000,4.000000,4.000000,0.000000,0.000000,0.000000,0.000000,0.000000;
#CREDIT:;
#DISPLAYBPM:128.000000;
#NOTES:
// measure 0
0000
0000
0000
0000
,  // measure 1
0000
0000
0000
0000
,  // measure 2
0000
0000
0000
0000
,  // measure 3
0000
0000
0000
0000
,  // measure 4
0000
0000
0000
0000
,  // measure 5
0001
0000
0000
0000
,  // measure 6
0100
0000
0000
0000
,  // measure 7
1000
0000
0000
0000
,  // measure 8
0010
0000
0000
0000
,  // measure 9
0100
0000
0000
0000
,  // measure 10
0010
0000
0000
0000
,  // measure 11
1000
0000
0000
0000
,  // measure 12
0001
0000
0000
0000
,  // measure 13
0010
0000
0000
0000
,  // measure 14
0100
0000
0000
0000
,  // measure 15
1000
0000
0000
0000
,  // measure 16
1001
0000
0000
0001
,  // measure 17
0000
0001
0000
0010
,  // measure 18
0000
1000
0000
1000
,  // measure 19
0000
1000
0000
0010
,  // measure 20
0000
0001
0000
0001
,  // measure 21
0000
0001
0000
0010
,  // measure 22
0000
1000
0000
1000
,  // measure 23
0000
0100
0000
0000
,  // measure 24
0000
1000
0000
1000
,  // measure 25
0000
1000
0000
0100
,  // measure 26
0000
0001
0000
0001
,  // measure 27
0000
0001
0000
0010
,  // measure 28
0000
0100
0000
0100
,  // measure 29
0000
0100
0000
1000
,  // measure 30
0000
0001
0000
1000
,  // measure 31
0000
0001
0000
0000
,  // measure 32
0000
0100
0000
0010
,  // measure 33
0000
0100
0000
0010
,  // measure 34
0000
0100
0000
0010
,  // measure 35
0000
0100
0000
0010
,  // measure 36
0000
1000
0000
0001
,  // measure 37
0000
1000
0000
0001
,  // measure 38
0000
0100
0000
0010
,  // measure 39
0000
1000
0000
0001
,  // measure 40
0000
0100
0000
0000
,  // measure 41
0000
0000
0000
0000
,  // measure 42
0000
0001
0000
0001
,  // measure 43
0000
0001
0000
0001
,  // measure 44
0000
1000
0000
1000
,  // measure 45
0000
1000
0000
1000
,  // measure 46
0000
0010
0000
0010
,  // measure 47
0000
0010
0000
0010
,  // measure 48
0000
0100
0000
0100
,  // measure 49
0000
0100
0000
0100
,  // measure 50
0000
0200
0000
0000
,  // measure 51
0000
0300
0000
0000
,  // measure 52
0001
0002
0000
0000
,  // measure 53
0000
0003
0000
0000
,  // measure 54
1000
2000
0000
0000
,  // measure 55
0000
3000
0000
0000
,  // measure 56
0100
0200
0000
0300
,  // measure 57
0000
0110
0000
0000
,  // measure 58
0000
0010
0000
0010
,  // measure 59
0000
0001
0000
1000
,  // measure 60
0000
0001
0000
1000
,  // measure 61
0000
0001
0000
1000
,  // measure 62
0000
0001
0000
1000
,  // measure 63
0000
0001
0000
0010
,  // measure 64
0000
0100
0000
1000
,  // measure 65
0000
0010
0000
0000
,  // measure 66
0000
1001
0000
0000
,  // measure 67
0000
1000
0000
0010
,  // measure 68
0000
0100
0000
0001
,  // measure 69
0000
1000
0000
0001
,  // measure 70
0000
0100
0000
0001
,  // measure 71
0000
0001
0000
1000
,  // measure 72
0000
1000
0000
0010
,  // measure 73
0000
0100
0000
0000
,  // measure 74
0000
0110
0000
0000
;
