#TITLE:Blow Me;
#SUBTITLE:(One Last Kiss);
#ARTIST:Pink;
#TITLETRANSLIT:;
#SUBTITLETRANSLIT:;
#ARTISTTRANSLIT:;
#GENRE:The Truth About Love;
#CREDIT:;
#BANNER:Blow Me (One Last Kiss)-bn.png;
#BACKGROUND:Blow Me (One Last Kiss)-bg.png;
#LYRICSPATH:;
#CDTITLE:;
#MUSIC:Blow Me (One Last Kiss).mp3;
#OFFSET:0.007000;
#SAMPLESTART:101.327003;
#SAMPLELENGTH:16.579000;
#SELECTABLE:YES;
#DISPLAYBPM:114.000000;
#BPMS:0.000000=114.000000
;
#STOPS:
;
#BGCHANGES:0.000=Blow Me (One Last Kiss).avi=1.000=0=0=0=StretchNoLoop====,
99999=-nosongbg-=1.000=0=0=0 // don't automatically add -songbackground-
;
#KEYSOUNDS:;
#ATTACKS:;

//---------------dance-single - ----------------
#NOTES:
     dance-single:
     :
     Hard:
     8:
     0.478167,0.447812,0.285021,0.124240,0.138856,402.000000,39.000000,17.000000,0.000000,0.000000,0.000000,0.478167,0.447812,0.285021,0.124240,0.138856,402.000000,39.000000,17.000000,0.000000,0.000000,0.000000:
0000
0000
0000
0000
,
0000
0000
0000
0000
,
0000
0000
0000
0000
,
0000
0000
0000
0000
,
2000
0000
0001
0000
3010
0000
0001
0100
,
0002
0010
1003
0110
,
1000
0100
0010
0002
0000
0100
0103
0000
,
0001
0100
0010
2000
0000
0100
3100
0000
,
0020
0000
0001
0000
0130
0000
0001
1000
,
0002
0100
0013
0110
,
0010
1000
0100
0020
0000
0100
0130
0000
,
1000
0001
0100
0020
0000
0100
0130
0000
,
0001
1000
0100
1100
0000
1000
0001
0101
,
0000
0000
0001
0000
1000
0000
1010
0000
0000
0000
1000
0000
0001
0000
1000
0100
,
0000
1000
0001
0011
0000
0001
1000
1010
,
0000
0000
1000
0000
0001
0000
1001
0000
0000
0000
1000
0000
0010
0000
1000
0001
,
0000
0100
0001
1001
0000
0100
1000
1001
,
0000
1000
0010
0110
0000
0001
0100
0110
,
0000
0001
1000
0101
0000
1000
0001
1100
,
0000
0101
0000
1010
0000
1001
0000
0011
,
0010
0000
0001
0000
1000
0000
0001
0000
0100
0000
0001
1000
0000
0001
0100
0000
,
0010
0000
1000
0000
0001
0000
1000
0000
0100
0000
1000
0001
0000
1000
0100
0000
,
0010
0000
0001
0000
1000
0000
0001
0000
0100
0000
0001
1000
0000
0001
0100
0000
,
0001
0010
0001
0200
0000
1000
0000
0301
,
0000
0000
1000
0000
0010
0000
1000
0000
0100
0000
1000
0001
0000
1000
0100
0000
,
1000
0000
0001
0000
0010
0000
0001
0000
0100
0000
0001
1000
0000
0000
0000
0000
,
0001
0100
0010
1000
0100
0010
0001
0000
,
1000
0010
1000
0200
0000
0001
0000
1300
,
0010
0000
0000
0000
0001
0000
0100
0000
0001
0000
0000
1000
0000
0000
0100
0000
,
0000
1000
0010
1000
0100
0010
0001
2000
,
0000
3001
0100
0010
1000
0001
0100
0020
,
0000
1030
0100
0010
0001
1000
0100
0020
,
0000
0000
0130
0000
1000
0000
0001
0000
0100
0000
0010
1000
0000
0010
0100
0000
,
0001
0000
1000
0000
0100
0000
0010
0000
0001
0000
1000
0100
0000
0010
0100
0000
,
1000
0000
0001
0000
0100
0000
0010
0000
1000
0000
0001
1000
0000
0010
1000
0000
,
0001
0010
0001
0200
0000
1000
0000
0301
,
1000
0101
1000
0101
,
1000
0000
0101
0000
1000
0010
0100
0001
,
0001
1100
0001
1100
,
1000
0000
0001
0000
0001
0100
0000
0100
0010
0000
0000
0000
1000
0001
1000
0001
,
1000
0100
0010
1100
0000
0010
0100
0011
,
0000
1000
0001
1000
0000
0010
1000
0001
,
0000
0100
0010
0101
0000
0010
0100
1010
,
0000
1000
0001
0100
0000
0010
0100
0001
,
0000
1000
0001
1100
0000
0001
1000
0101
,
0000
1000
0010
0100
0000
0001
0010
0100
,
0000
1000
0001
1010
0000
0001
1000
0011
,
0000
0110
0000
1100
0000
1001
0100
0001
,
1001
0000
1000
0000
0010
0000
1000
0000
0100
0000
1000
0001
0000
1000
0100
0000
,
0010
0000
0001
0000
1000
0000
0001
0000
0100
0000
0001
1000
0000
0001
0100
0000
,
0010
0000
1000
0000
0100
0000
1000
0000
0001
0000
1000
0010
0000
0100
0001
0000
,
1000
0100
1000
0010
0001
0020
0000
1030
,
0001
0000
0010
0000
0001
0000
1000
0000
0001
0000
0100
0010
0000
1000
0010
0000
,
1000
0000
0100
0000
0010
0000
0001
0000
1000
0000
0001
0100
0000
0000
0000
0000
,
0001
1000
0010
0100
0001
0010
0100
0000
,
1000
0010
0200
1000
0000
0010
0000
0301
,
1001
0000
0000
0000
0001
0000
1000
0000
0001
0000
0000
0010
0000
0000
0100
0000
,
0000
1000
0010
1000
0100
0010
0000
1001
,
0000
0010
0001
0100
1000
0100
0000
0110
,
0000
0100
0010
1000
0100
0010
0000
1001
,
0000
0000
0010
0000
0001
0000
1000
0000
0001
0000
0100
0001
0000
1000
0100
0000
,
0010
0000
0100
0000
1000
0000
0001
0000
1000
0000
0010
1000
0000
0001
0010
0000
,
0100
0000
1000
0000
0001
0000
0100
0000
0010
0000
0100
0001
0000
1000
0100
0000
,
0010
0001
0100
0020
0000
0001
0000
1000
,
0000
0000
0030
0000
;

//---------------dance-single - ----------------
#NOTES:
     dance-single:
     :
     Medium:
     7:
     0.325738,0.304022,0.160781,0.102315,0.051158,276.000000,22.000000,14.000000,0.000000,0.000000,0.000000,0.325738,0.304022,0.160781,0.102315,0.051158,276.000000,22.000000,14.000000,0.000000,0.000000,0.000000:
0000
0000
0000
0000
,
0000
0000
0000
0000
,
0000
0000
0000
0000
,
0000
0000
0000
0000
,
2000
0000
0010
0000
3100
0000
1000
0100
,
1000
0001
0010
0100
,
1000
0000
0010
0100
0000
0010
0100
0000
,
0001
0000
1000
0100
0000
0100
0010
0000
,
0002
0000
0010
0000
0103
0000
0001
0100
,
0001
1000
0010
0100
,
0001
0000
0010
0100
0000
0010
0100
0000
,
1000
0000
0001
0100
0000
0100
0010
0000
,
1001
0000
1000
0100
0000
1000
0100
1000
,
0000
0100
1000
0100
0000
0010
0100
0010
,
0000
0100
1000
0100
0000
1000
0100
1000
,
0000
0001
0100
0001
0000
0100
0001
0100
,
0000
0001
0010
0001
0000
0100
0001
0100
,
0000
0001
0100
0001
0000
0010
0001
0010
,
0000
0100
0010
0100
0000
0010
0100
0010
,
0000
0001
0000
0100
0000
0010
0000
1000
,
0001
0000
0000
0000
1000
0000
0000
0000
0010
0000
0000
1000
0000
0000
1000
0000
,
0001
0000
0000
0000
0100
0000
0000
0000
0010
0000
0000
0100
0000
0000
0100
0000
,
0001
0000
0000
0000
1000
0000
0000
0000
0100
0000
0000
0010
0000
0000
0010
0000
,
0002
1000
0013
0110
,
1001
0000
0000
0000
0001
0000
0000
0000
0010
0000
0000
0001
0000
0000
0001
0000
,
1000
0100
0010
0110
,
0100
1000
0001
0100
0010
0000
1001
0000
,
2000
0001
3010
0110
,
0001
0010
0100
1000
,
0010
0000
0100
0000
0001
2000
0000
0000
,
0000
0000
3010
0000
1000
0002
0000
0000
,
0000
0000
0013
0000
0001
1000
0000
0000
,
1001
0000
0000
0000
0010
0000
0000
0000
0001
0000
0000
0100
0000
0000
0010
0000
,
0100
0000
0000
0000
0001
0000
0000
0000
1000
0000
0000
0100
0000
0000
0010
0000
,
0100
0000
0000
0000
1000
0000
0000
0000
0001
0000
0000
1000
0000
0000
0010
0000
,
0200
0001
0310
1001
,
0010
1010
0010
1001
,
0010
0110
0010
1001
,
0100
0101
1000
0101
,
0002
0010
1000
0103
,
1001
0000
0000
0010
0000
1000
0000
0100
,
0000
0010
0000
0001
0000
1000
0000
0001
,
0000
0100
0000
0010
0000
0100
0000
0010
,
0000
1000
0000
0100
0000
0010
0000
0100
,
0000
1000
0000
0001
0000
0100
0000
0010
,
0000
0100
0000
0001
0000
1000
0000
0010
,
0000
1000
0000
0100
0000
0010
0000
0100
,
0000
1000
0000
0001
0000
1000
0100
1000
,
0001
0000
0000
0000
1000
0000
0000
0000
0010
0000
0000
0100
0000
0000
0001
0000
,
1000
0000
0000
0000
0010
0000
0000
0000
0100
0000
0000
0001
0000
0000
1000
0000
,
0001
0000
0000
0000
1000
0000
0000
0000
0100
0000
0000
0010
0000
0000
0001
0000
,
2000
0001
3010
0110
,
1001
0000
0000
0000
1000
0000
0000
0000
0010
0000
0000
1000
0000
0000
0001
0000
,
1000
0100
0010
0110
,
0100
1000
0010
0100
0001
0000
1001
0000
,
0200
0001
0310
1001
,
0001
0010
0100
1000
,
0010
0000
0100
0000
0001
2000
0000
0000
,
0000
0000
3010
0000
1000
0002
0000
0000
,
0000
0000
0013
0000
0001
2000
0000
3000
,
1001
0000
0000
0000
0010
0000
0000
0000
0001
0000
0000
0100
0000
0000
0010
0000
,
0100
0000
0000
0000
0001
0000
0000
0000
1000
0000
0000
0100
0000
0000
0010
0000
,
0100
0000
0000
0000
1000
0000
0000
0000
0001
0000
0000
1000
0000
0000
0010
0000
,
0200
0001
0310
1001
,
1000
0000
0000
0000
;

//---------------dance-single - ----------------
#NOTES:
     dance-single:
     :
     Easy:
     4:
     0.243260,0.210477,0.029233,0.000000,0.000000,229.000000,4.000000,0.000000,0.000000,0.000000,0.000000,0.243260,0.210477,0.029233,0.000000,0.000000,229.000000,4.000000,0.000000,0.000000,0.000000,0.000000:
// measure 0
0000
0000
0000
0000
,  // measure 1
0000
0000
0000
0000
,  // measure 2
0000
0000
0000
0000
,  // measure 3
0000
0000
0000
0000
,  // measure 4
1000
0100
0001
0100
,  // measure 5
1000
0010
1000
0100
,  // measure 6
0010
0001
0010
0100
,  // measure 7
0010
0001
1000
0100
,  // measure 8
0010
0001
0100
0001
,  // measure 9
0010
0001
1000
0010
,  // measure 10
0100
0001
1000
0010
,  // measure 11
0100
0001
0010
0100
,  // measure 12
1000
0010
0001
0010
,  // measure 13
1000
0010
0001
0010
,  // measure 14
1000
0100
0010
0001
,  // measure 15
1000
0100
0010
0001
,  // measure 16
1000
0001
0100
0010
,  // measure 17
1000
0001
0100
0010
,  // measure 18
1000
0001
1000
0001
,  // measure 19
0100
0010
0100
0000
,  // measure 20
1001
0010
1000
0100
,  // measure 21
0001
0100
1000
0100
,  // measure 22
0001
0100
1000
0010
,  // measure 23
0100
0001
0010
0100
,  // measure 24
1000
0010
0100
0001
,  // measure 25
0010
0100
1000
0001
,  // measure 26
0100
0010
1000
0001
,  // measure 27
0100
0010
1000
0001
,  // measure 28
1000
0001
0010
0010
,  // measure 29
0100
1000
0001
0100
,  // measure 30
0010
0100
0001
1000
,  // measure 31
0100
0010
1000
0010
,  // measure 32
0001
0100
0010
1000
,  // measure 33
0001
1000
0010
0100
,  // measure 34
0001
0010
0100
1000
,  // measure 35
0001
1000
0100
0010
,  // measure 36
1001
0100
0000
0100
,  // measure 37
1000
0100
0000
0010
,  // measure 38
0001
0100
0000
0001
,  // measure 39
0100
0010
1000
0100
,  // measure 40
0010
0001
0000
1000
,  // measure 41
0010
0001
0000
0010
,  // measure 42
1000
0100
0000
0010
,  // measure 43
0100
1000
0001
0010
,  // measure 44
0001
0100
0000
0010
,  // measure 45
1000
0100
0000
0010
,  // measure 46
0001
1000
0000
0001
,  // measure 47
0100
0010
0000
0000
,  // measure 48
1001
0010
1000
0010
,  // measure 49
0001
0010
0100
0001
,  // measure 50
1000
0100
0010
0001
,  // measure 51
1000
0100
0010
0001
,  // measure 52
1000
0001
0010
0100
,  // measure 53
1000
0010
0100
1000
,  // measure 54
0001
0100
0010
1000
,  // measure 55
0001
1000
0100
0010
,  // measure 56
1001
0100
0010
1000
,  // measure 57
0100
0010
0100
1000
,  // measure 58
0001
0010
0100
1000
,  // measure 59
0001
0010
0001
0100
,  // measure 60
0010
1000
0100
0001
,  // measure 61
0100
1000
0100
0001
,  // measure 62
0100
1000
0010
0100
,  // measure 63
0001
0010
0100
1000
,  // measure 64
0001
0000
0000
0000
;

//---------------dance-single - ----------------
#NOTES:
     dance-single:
     :
     Beginner:
     1:
     0.131548,0.116932,0.043849,0.000000,0.000000,120.000000,6.000000,0.000000,0.000000,0.000000,0.000000,0.131548,0.116932,0.043849,0.000000,0.000000,120.000000,6.000000,0.000000,0.000000,0.000000,0.000000:
0000
0000
0000
0000
,
0000
0000
0000
0000
,
0000
0000
0000
0000
,
0000
0000
0000
0000
,
1000
0000
0010
0000
,
0001
0000
0010
0000
,
1000
0000
0100
0000
,
0010
0000
0001
0000
,
1000
0000
0100
0000
,
0010
0000
0100
0000
,
0010
0000
0001
0000
,
0100
0000
0010
0000
,
1000
1000
0000
0100
,
0000
0001
0000
0100
,
0000
1000
0000
0010
,
0000
0100
0000
0001
,
0000
0010
0000
0100
,
0000
0010
0000
0001
,
0000
1000
0000
0001
,
0000
0100
0000
0000
,
1001
0000
0000
0010
,
0000
1000
0000
0100
,
0000
0010
0000
0100
,
0100
0000
1000
0000
,
1001
0000
0000
0010
,
0000
0001
0000
0100
,
0000
0010
0000
1000
,
1000
0000
0001
0000
,
0100
0000
0010
0000
,
0100
0000
0010
0000
,
1000
0000
0100
0000
,
0010
0000
0001
0000
,
1001
0000
0000
0010
,
0000
0001
0000
1000
,
0000
0100
0000
0010
,
0010
0000
0001
0000
,
0100
0000
0100
0000
,
0010
0000
0010
0000
,
1000
0000
1000
0000
,
0001
0000
0010
0000
,
0100
0000
1000
0000
,
0010
0000
1000
0000
,
0100
0000
0010
0000
,
0001
0000
1000
0000
,
0001
0000
0100
0000
,
0010
0000
1000
0000
,
0100
0000
0010
0000
,
0001
0000
0000
0000
,
1001
0000
0000
0010
,
0000
1000
0000
0100
,
0000
0010
0000
0001
,
0001
0000
1000
0000
,
1001
0000
0000
0010
,
0000
1000
0000
0100
,
0000
0010
0000
0001
,
0001
0000
0100
0000
,
0010
0000
1000
0000
,
0100
0000
0010
0000
,
0001
0000
1000
0000
,
0100
0000
0010
0000
,
1001
0000
0000
0010
,
0000
1000
0000
0001
,
0000
0100
0000
0010
,
0010
0000
0100
0000
,
0001
0000
0000
0000
;
