#TITLE:Blood for the Blood God;
#SUBTITLE:;
#ARTIST:Gunship feat. HEALTH;
#TITLETRANSLIT:;
#SUBTITLETRANSLIT:;
#ARTISTTRANSLIT:;
#GENRE:Unicorn;
#CREDIT:[Ness];
#BANNER:Blood for the Blood God.png;
#BACKGROUND:Blood for the Blood God-bg.png;
#LYRICSPATH:Blood for the Blood God.lrc;
#CDTITLE:;
#MUSIC:Blood for the Blood God.mp3;
#OFFSET:-0.015000;
#SAMPLESTART:53.360271;
#SAMPLELENGTH:15.213722;
#LASTBEATHINT:321.000000;
#SELECTABLE:YES;
#BPMS:0.000000=135.000000
,32.000000=67.500000
,34.000000=135.000000
,149.750000=68.019997
,157.875000=135.000000
;
#STOPS:222.000000=1.333000
;
#BGCHANGES:;
#KEYSOUNDS:;
#ATTACKS:;

//---------------dance-single - ----------------
#NOTES:
     dance-single:
     :
     Challenge:
     10:
     0.646119,0.798552,0.233824,0.193740,0.938638,677.000000,641.000000,35.000000,29.000000,85.000000,2.000000,0.646119,0.798552,0.233824,0.193740,0.938638,677.000000,641.000000,35.000000,29.000000,85.000000,2.000000:
0000
0000
0000
0000
,
0000
0000
0000
0000
,
0000
0000
0000
0000
,
0000
0000
0000
0000
,
0002
0000
0000
0000
1000
0000
0000
0010
0000
2003
0000
0000
0001
0000
0000
0100
,
0000
3002
0000
0000
0100
0000
0000
0010
0000
0203
0000
0000
0310
0000
1000
0000
,
0100
0100
0010
0010
0001
0001
1000
1000
,
0001
0100
0001
0100
0010
1000
0010
1000
0100
0010
0001
1000
0010
0100
0001
1000
,
0100
0000
0000
0000
0000
0000
0000
0000
1100
0000
1000
0100
1000
0001
0100
0010
,
0000
1000
0000
0001
0100
0001
1000
0100
0000
0010
0000
0001
1000
0010
0100
0001
,
0000
1000
0000
0100
1000
0001
0100
0010
0100
0000
0010
1000
0100
1000
0001
0100
,
0000
0010
0000
1000
0001
0010
0100
1000
0000
0001
0000
0100
0010
1000
0001
0010
,
0000
0100
0000
0000
1000
0001
1000
0010
0100
0000
0001
0010
0001
0000
1000
0020
,
0000
0100
0030
0000
0001
0000
1000
0200
0000
1000
0300
0000
0010
0000
0100
0002
,
0000
0100
0003
0000
0001
0000
1000
0000
0100
0000
1000
0000
0010
0000
0200
0001
,
0000
0010
0300
0000
0001
0000
2000
0100
0000
0010
3000
0000
0100
0000
0020
0001
,
0000
0100
0030
0000
0001
0000
1000
0000
0001
0000
0100
0000
0010
0000
0100
0002
,
0000
1000
0003
0000
0100
0000
0010
0200
0000
1000
0300
0000
0001
0000
1000
0020
,
0000
0100
0030
0000
0001
0000
2000
0000
0010
0000
3100
0000
0001
0000
0020
0001
,
0000
0100
0030
0000
1000
0000
0200
0010
0000
1000
0300
0000
0001
0000
2000
0010
,
0000
0001
3000
0000
0001
1000
0001
0100
0001
0000
1000
0001
0100
0000
0010
0000
,
0000
1001
0000
1000
0001
0000
0001
0100
0010
0000
1000
0000
0000
0100
0010
0000
,
0000
0010
0001
0000
0000
0000
1100
0000
0100
0000
0001
0000
0000
0010
0000
0000
,
0000
1000
0000
0000
0100
0000
0010
0000
0010
0000
0001
0000
0000
1000
0010
0000
,
0100
0001
0000
0010
0000
0000
1000
0000
0100
0000
0001
0000
0100
0000
1000
0001
,
0000
0001
0000
0000
0100
0000
0010
1000
0000
1000
0000
0000
0000
1000
0000
0001
,
0000
0100
0010
0000
0000
0000
0001
0000
0010
0000
1000
0000
0000
1000
0000
0001
,
0000
0001
0000
0000
1000
0000
0100
0000
0010
0000
0001
0000
0100
0001
0000
1000
,
0000
0010
0000
0100
0001
1000
0100
0010
0002
0000
0000
0000
0000
0000
0000
0000
,
0000
0000
0000
0000
0000
0000
0000
0003
0011
0000
0010
0001
0010
0000
1000
0000
,
0010
0100
0001
0000
1000
0000
0100
0010
0100
0000
1000
0000
0000
1000
0100
0000
,
0010
0000
0001
0000
1000
0000
0001
0100
0010
0000
0000
1000
0001
0000
0010
0000
,
0100
0010
0100
0000
1000
0000
0001
0100
0001
0000
1000
0000
0000
0100
0010
0000
,
0001
0100
0001
1000
0000
0001
0100
0000
0101
0000
0000
0010
1000
0000
0100
0000
,
0010
0001
1000
0000
0001
0000
0100
0010
1000
0000
0001
0000
0000
0100
0010
0000
,
1000
0000
0100
0000
1000
0000
0001
0010
0100
0000
0000
0010
0001
0000
1000
0000
,
0010
0100
0010
0000
0100
0000
0001
0100
0010
0000
1000
0000
0000
0001
0010
0000
,
0100
1000
0100
0000
0010
0001
1000
0001
0000
0000
0000
0000
0000
0000
0000
0000
,
0000
0000
0000
0000
,
0000
0000
0000
0000
2002
00M0
0003
0M20
,
000M
0030
3M02
0000
M100
00M0
0M00
0000
,
1110
0000
00M3
M000
0M01
0010
0000
1M01
,
00M0
010M
0010
1000
00M0
0001
M100
0000
,
1100
000M
0010
0M00
202M
0M00
3000
0200
,
M000
030M
2030
0000
02M0
000M
00M0
0000
,
0011
0000
3300
00M0
100M
01M0
0001
0100
,
M000
001M
0M00
1001
00M0
0001
M100
0000
,
01M1
0000
0000
0000
0001
1000
0100
1000
0001
0000
0001
0100
0001
0000
0001
0010
,
0000
0010
0000
0010
0100
0000
0100
1000
0000
1000
0000
1000
0010
0000
0010
0100
,
0000
0100
0000
0100
0001
0000
0001
0000
1000
0000
1000
0100
1000
0000
1000
0010
,
0000
0010
0000
0010
0100
0000
0100
0001
0000
0001
0000
0001
0010
0000
0010
0100
,
0000
0100
0000
0100
1000
0000
0100
0000
1000
0000
1000
0001
1000
0000
0000
1010
,
0000
0011
0000
0010
0100
0000
0000
0101
0000
1100
0000
0100
0010
0000
0000
1010
,
0000
0101
0000
0100
0001
0000
1000
0000
0100
0000
0100
0010
0100
0000
0000
1001
,
0000
1100
0000
1000
0001
0000
0000
1001
0000
0101
0000
0001
0010
0000
0000
0011
,
0000
0110
0000
1000
0001
0000
0100
0000
0101
0000
0000
0000
1001
0000
0001
1000
,
0100
1000
0001
0010
0000
0100
0000
0010
0001
0100
0001
0010
0000
0100
0000
1000
,
0001
1000
0010
0100
0000
0001
0000
1000
0100
0010
0001
1000
0100
0000
1000
0010
,
0100
0001
0010
0100
0000
0010
0000
0001
1000
0010
0100
0001
0000
1000
0000
0001
,
0100
0010
1000
0100
0000
0010
0000
0100
1000
0001
0010
0100
1000
0000
0001
0100
,
0010
1000
0001
0010
0000
1001
0000
1000
0100
0010
0001
0100
0000
1001
0000
0001
,
0100
0010
1000
0100
0000
1001
0000
0010
0001
1000
0010
0100
0001
0000
0100
0001
,
1000
0100
0010
0001
0000
1001
0000
0010
0100
0001
1000
0100
0000
1001
0000
0100
,
1000
0010
0100
0001
0000
1001
0000
0001
0010
0100
1000
0001
0100
0000
0010
1000
,
0000
0000
1000
0001
0000
M000
MM00
MMM0
MMMM
MMM0
MM00
M000
0000
0000
0001
0010
,
0100
0010
1000
0010
0100
0000
0000
0000
1000
0000
0001
0000
0000
0000
0100
0001
,
0000
0000
0100
1000
0000
000M
00MM
0MMM
MMMM
0MMM
00MM
000M
0000
0000
0010
1000
,
0010
0100
0010
0001
0010
0000
0000
0000
1000
0000
0100
0000
0000
0000
0001
0010
,
0000
0000
1000
0010
0000
MMM0
M00M
M00M
MMMM
M00M
M00M
M00M
MMM0
0000
0001
0100
,
1000
0100
0001
0100
0010
0000
2000
0000
0000
0000
3000
0000
0100
0000
0010
0100
,
0000
0000
0001
0100
0000
0000
0000
0000
0002
0000
0000
0000
0003
0000
0100
1000
,
0100
0010
0100
0001
0100
0000
0000
0000
0001
0000
1000
0000
1100
0000
0000
0001
,
0100
0000
0010
0000
1000
0100
0010
0000
0001
0000
1000
0001
0100
0000
0001
0000
,
0000
1000
0010
0000
0100
0000
0001
1000
0001
0000
0010
0100
1000
0000
0000
0010
,
1000
0000
0100
0000
0010
0001
0100
0000
0001
0000
1000
0010
0100
0000
0001
0000
,
0000
1000
0100
0000
0010
0001
1000
0001
0000
1000
0100
0000
1010
0000
0000
0100
,
0001
0000
0010
0000
0100
1000
0010
0000
0100
0000
0001
1000
0100
0000
0010
0000
,
0000
0010
0100
0000
1000
0000
0010
0000
0001
0000
1000
0100
0010
0000
0000
0001
,
0100
0000
0001
0000
1000
0010
0100
0000
0001
0000
0001
0010
0100
0000
1000
0000
,
0000
1000
0100
0000
0010
0001
1000
0001
0100
0010
1000
0100
0000
0000
0000
0000
;

//---------------dance-single - ----------------
#NOTES:
     dance-single:
     :
     Hard:
     9:
     0.511550,0.532368,0.126933,0.066807,0.551157,536.000000,517.000000,19.000000,10.000000,0.000000,0.000000,0.511550,0.532368,0.126933,0.066807,0.551157,536.000000,517.000000,19.000000,10.000000,0.000000,0.000000:
0000
0000
0000
0000
,
0000
0000
0000
0000
,
0000
0000
0000
0000
,
0000
0000
0000
0000
,
0002
0000
0000
0000
0000
0000
0000
0010
0000
0020
0000
0000
0003
0000
0000
0100
,
0000
0200
0000
0000
0030
0000
0000
1000
0000
1000
0000
0000
1300
0000
0001
0000
,
0100
0010
0100
0001
0010
0100
0010
0001
,
1000
0000
0100
0000
0010
0000
0001
0000
1000
0100
1000
0000
0100
0000
0010
0000
,
1001
0000
0000
0000
0000
0000
0000
0000
1001
0000
0100
0000
0010
0000
1000
0100
,
0000
0001
0000
0000
0100
0000
1000
0010
0000
1000
0000
0000
0001
0000
0010
0100
,
0000
0010
0000
0000
0001
0000
1000
0000
0100
0000
0010
0000
0001
0000
1000
0010
,
0000
1000
0000
0000
0100
0000
0010
0001
0000
0100
0000
0000
0001
0000
1000
0100
,
0000
0010
0000
0000
0100
0000
1000
0000
0001
0000
1000
0000
0100
0000
0010
0001
,
0000
0001
0000
0000
0100
0000
0001
1000
0000
1000
0000
0000
0010
0000
1000
0010
,
0000
0010
0000
0000
0100
0000
0000
0000
0001
0000
0010
0000
0100
0000
1000
0100
,
0000
0100
0000
0000
0010
0000
0001
1000
0000
1000
0000
0000
1000
0000
0010
0100
,
0000
0100
0000
0000
0001
0000
1000
0000
0100
0000
1000
0000
0001
0000
0100
0001
,
0000
0010
0000
0000
0001
0000
1000
0010
0000
0100
0000
0000
0010
0000
1000
0100
,
0000
1000
0000
0000
0001
0000
1000
0000
0010
0000
0100
0000
0010
0000
1000
0001
,
0000
1000
0000
0000
0100
0000
0010
0001
0000
0010
0000
0000
0100
0000
1000
0010
,
0000
1000
0000
0000
0001
0000
1000
0000
1100
0000
0000
0000
1000
0000
0001
0000
,
0000
0000
0100
0000
0000
0010
1000
0000
0000
0000
0001
0000
0000
1000
0100
0000
,
0000
0100
0010
0000
0000
0000
0001
0000
1000
0000
0010
0000
0100
0000
0001
0000
,
0000
1000
0001
0100
0000
1100
0000
0101
,
0000
0001
0000
1000
0000
0000
0100
0000
1000
0000
0010
0000
1000
0000
0001
0010
,
0000
0100
0000
0000
0010
0000
0001
1000
0000
0001
0000
0000
1000
0000
0010
0100
,
0000
0001
0000
0000
1000
0000
0100
0000
1000
0000
0001
0000
0010
0000
0000
0100
,
0000
1000
0000
0000
0010
0000
0100
0000
0001
0000
0000
0000
0000
0001
0000
0010
,
0000
0100
0000
1000
0010
0000
0100
0001
0100
0000
0000
0000
0000
0000
0000
0000
,
0000
0000
0000
0000
0000
0000
0000
0000
1001
0000
0000
1000
0010
0000
1000
0000
,
0000
0001
0100
0000
0001
0000
0000
0010
0001
0000
1000
0000
0000
0010
0100
0000
,
0001
0000
1000
0000
0100
0000
0000
0000
1000
0000
0000
0001
0010
0000
0100
0000
,
0000
0010
0001
0000
1000
0000
0000
0001
0100
0000
0010
0000
0000
0100
0001
0000
,
1000
0001
0000
1000
0001
0000
0100
0000
0101
0000
0000
0001
1000
0000
0100
0000
,
0000
1000
0001
0000
0010
0000
0000
0100
1000
0000
0001
0000
0000
1000
0010
0000
,
0100
0000
0001
0000
1000
0000
0000
0000
1010
0000
0000
0010
1000
0000
0001
0000
,
0000
1000
0001
0000
0100
0000
0000
0001
0100
0000
0010
0000
0000
1000
0100
0000
,
1000
0000
0000
0000
0001
1000
0001
1000
0000
0000
0000
0000
0000
0000
0000
0000
,
0000
0000
0000
0000
,
0000
0000
0000
0000
2002
0000
0003
0020
,
0000
0030
0001
0000
0002
0000
3000
0000
,
0200
0000
0003
0000
1000
0010
0000
0001
,
0300
1000
0000
0100
0000
0010
0000
0000
,
0011
0000
1000
0000
0201
0000
0000
2000
,
0000
3000
0010
0000
0001
0000
0010
0000
,
1000
0000
0310
0000
1000
0100
0000
0001
,
0000
0100
0000
0010
0000
0001
1000
0000
,
0001
0000
0000
0000
0100
0001
0100
0001
0100
0000
0010
0000
0010
0000
0000
1000
,
0000
1000
0000
0000
0001
0000
0000
0100
0000
0010
0000
0000
1000
0000
0000
0100
,
0000
0100
0000
0000
0010
0000
0001
0000
1000
0000
0001
0000
0001
0000
0000
1000
,
0000
1000
0000
0000
0010
0000
0000
0100
0000
0100
0000
0000
0001
0000
0000
1000
,
0000
0001
0000
0000
0100
0000
0001
0000
1000
0000
0100
0000
0010
0000
0001
1000
,
0000
0010
0000
0000
1000
0000
0001
0100
0000
0001
0000
0000
0010
0000
0100
1000
,
0000
0100
0000
0000
0010
0000
0001
0000
1000
0000
0001
0000
0100
0000
0010
0000
,
1000
1000
0001
0001
1000
0100
0001
0100
,
1000
0100
0001
0100
1000
0000
1100
0100
,
0010
0000
0001
0010
0000
0100
0000
0000
1000
0000
0001
0100
0000
0010
0000
0000
,
1000
0000
0010
0100
0000
0010
0000
0000
1000
0000
0100
0000
0010
0000
0001
0000
,
1000
0000
0001
0010
0000
0100
0000
0000
1000
0000
0100
0010
0000
0100
0000
0000
,
1000
0000
0001
0100
0000
0010
0000
0000
0001
0000
0100
0000
0001
0000
1000
0000
,
0100
0000
1000
0001
0000
0010
0000
0000
0001
0000
0100
1000
0000
0100
0000
0000
,
0010
0000
1000
0100
0000
1000
0000
0000
0001
0000
0010
0000
0100
0000
1000
0000
,
0001
0000
1000
0010
0000
0100
0000
0000
0001
0000
1000
0100
0000
1000
0000
0000
,
0001
0000
0100
0010
0000
0100
0000
0000
0001
0000
1000
0000
0100
0000
1000
0001
,
0000
0000
0001
1000
0000
0000
0000
0000
0000
0000
0000
0000
0000
0000
0001
0100
,
0001
0100
0001
0100
0010
0000
0000
0000
1100
0000
0001
0000
0000
0000
1000
0100
,
0000
0000
0100
0010
0000
0000
0000
0000
0000
0000
0000
0000
0000
0000
1000
0100
,
1000
0100
1000
0100
0010
0000
0000
0000
0101
0000
0010
0000
1000
0000
0001
1000
,
0000
0000
0100
1000
0000
0000
0000
0000
0000
0000
0000
0000
0000
0000
0001
0010
,
0001
0010
0001
0010
0100
0000
0000
0000
0110
0000
0001
0000
0100
0000
0010
1000
,
0000
0000
1000
0001
0000
0000
0000
0000
0000
0000
0000
0000
0000
0000
1000
0010
,
1000
0010
1000
0010
0100
0000
0000
0000
0001
0000
1000
0000
1010
0000
0000
1000
,
0100
0000
1000
0000
0000
0001
0100
0000
0001
0000
0000
1000
0010
0000
1000
0000
,
0000
0001
0010
0000
0100
0000
1000
0000
0001
0000
0000
0000
0101
0000
0000
0001
,
0100
0000
0001
0000
0000
1000
0010
0000
0100
0000
0000
0001
1000
0000
0100
0000
,
0000
0010
0100
0000
0010
0001
0000
1000
0001
0000
0100
0000
0101
0000
0000
0001
,
0010
0000
0100
0000
0000
1000
0001
0000
1000
0000
0000
0010
0100
0000
0010
0000
,
0000
1000
0001
0000
1000
0000
0100
0000
0010
0000
0000
0000
0011
0000
0000
0001
,
0010
0000
0001
0000
0000
1000
0001
0000
0100
0000
0000
0010
1000
0000
0100
0000
,
0000
1000
0001
0000
0100
0000
0010
0000
1000
0001
1000
0001
0000
0000
0000
0000
;

//---------------dance-single - ----------------
#NOTES:
     dance-single:
     :
     Medium:
     7:
     0.341670,0.398336,0.146975,0.093530,0.120253,358.000000,336.000000,22.000000,14.000000,0.000000,0.000000,0.341670,0.398336,0.146975,0.093530,0.120253,358.000000,336.000000,22.000000,14.000000,0.000000,0.000000:
0000
0000
0000
0000
,
0000
0000
0000
0000
,
0000
0000
0000
0000
,
0000
0000
0000
0000
,
0100
1000
0001
0100
,
0010
0001
0100
1000
,
0001
0100
0010
0001
,
1000
0010
0001
0100
,
1000
0000
0000
0000
0000
0000
0000
0000
1000
0000
0000
0000
0001
0000
0000
0010
,
0000
0100
0000
0000
1000
0000
0000
0001
0000
0100
0000
0000
0010
0000
0000
1000
,
0000
0100
0000
0000
0010
0000
0000
0000
0001
0000
0000
0000
0100
0000
0000
0001
,
0000
1000
0000
0000
0010
0000
0000
0100
0000
0001
0000
0000
1000
0000
0000
0100
,
0000
0010
0000
0000
0001
0000
0000
0000
2000
0000
0000
0000
3100
0000
0000
0000
,
0001
0010
0100
0000
0010
0000
0100
0000
,
1000
0001
0200
0310
,
1000
0010
0001
0000
0010
0100
0010
0000
,
1000
0001
2000
3100
,
0001
0100
1000
0000
0010
0000
0100
0000
,
0001
0010
0200
1300
,
0001
0100
0010
0000
1000
0010
1000
0000
,
0001
0100
0010
0000
1001
0000
1000
0010
,
0000
0001
0010
1000
0000
0100
0000
0000
,
0000
0000
0000
0000
1001
0000
1000
0100
,
0000
0010
0001
0100
0000
0010
0000
1000
,
0000
0000
0000
0000
1001
0000
0001
0100
,
0000
0010
1000
0100
0000
0010
0000
0000
,
0000
0000
0000
0000
0001
0000
0010
0100
,
0000
1000
0001
0000
0100
0000
0010
0000
,
1000
0001
0101
0000
,
0000
0000
0000
0000
1000
0000
1000
0100
,
0000
0100
0001
0000
0001
0100
0000
0100
,
1000
0000
0001
0000
0010
0000
0010
1000
,
0000
1000
0010
0000
0010
0001
0000
0001
,
1000
0000
0001
0000
0100
0000
1000
0100
,
0000
0001
0100
0000
1000
0010
0000
0001
,
0010
0000
0100
0000
1000
0000
0001
0010
,
0000
0100
1000
0000
1000
0010
0000
0100
,
0001
1001
0000
0000
,
0000
0000
0000
0000
,
0000
0000
0000
0000
0012
0000
0000
0100
,
0000
0010
0200
0003
,
0020
0330
1000
0100
,
0001
0000
1000
0000
0100
0010
0001
0000
,
0100
0000
0000
0000
2010
0000
0000
0100
,
0000
0010
0200
3000
,
0020
0330
0001
1000
,
0001
0000
0100
0000
0010
1000
0100
0000
,
1000
0000
0101
0100
,
0010
0010
1000
1000
,
0001
1000
0100
0100
,
0010
0010
0001
0001
,
1000
0000
0001
0000
0100
0000
0010
1000
,
0100
0000
1001
0000
0010
0001
0010
0000
,
0010
1000
0010
0000
0100
0000
0100
0001
,
0010
0000
1001
0000
0100
0001
0100
0000
,
0100
1000
0100
0000
0000
0000
0010
1000
,
0001
0000
0000
0100
0000
0010
0000
0000
1000
0000
0000
0100
0000
0010
0000
0000
,
0001
0000
0000
1000
0000
0010
0000
0000
1000
0000
0100
0000
0010
0000
0001
0000
,
0100
0000
0000
0001
0000
1000
0000
0000
0001
0000
0000
0010
0000
0100
0000
0000
,
1000
0000
0000
0010
0000
1000
0000
0000
0100
0000
0010
0000
0001
0000
0100
0000
,
0001
0000
0000
1000
0000
0010
0000
0000
1000
0000
0000
0100
0000
0010
0000
0000
,
0100
0000
0000
1000
0000
0001
0000
0000
0100
0000
0010
0000
1000
0000
0001
0000
,
0100
0000
0000
0010
0000
0100
0000
0000
0001
0000
0000
1000
0000
0010
0000
0000
,
0100
0000
0000
0001
0000
0010
0000
0000
0100
0000
1000
0000
0001
0000
0101
0000
,
0000
0101
0000
0000
0000
0000
0000
0001
,
1000
0010
0200
0000
0310
0000
0000
1100
,
0000
0101
0000
0000
0000
0000
0000
1000
,
0100
0001
0200
0000
0310
0001
0000
0110
,
0000
1001
0000
0000
0000
0000
0000
0100
,
0001
1000
0020
0000
0130
0000
0000
1010
,
0000
0011
0000
0000
0000
0000
0000
0100
,
1000
0001
0200
0000
0310
0000
1000
0000
,
0001
0010
0000
1000
0010
0000
0001
0100
,
0000
1000
0100
0000
0110
0000
1000
0000
,
0001
0100
0000
1000
0010
0000
1000
0100
,
0000
0001
0010
0000
1001
0000
0010
0000
,
0010
0001
0000
0001
1000
0000
1000
0010
,
0000
0010
0100
0000
1001
0000
0100
0000
,
0100
1000
0000
1000
0100
0000
0100
0001
,
0000
1000
0100
0000
0110
0000
0000
0000
;

//---------------dance-single - ----------------
#NOTES:
     dance-single:
     :
     Easy:
     5:
     0.267228,0.372950,0.153656,0.153656,0.000000,280.000000,257.000000,23.000000,23.000000,0.000000,0.000000,0.267228,0.372950,0.153656,0.153656,0.000000,280.000000,257.000000,23.000000,23.000000,0.000000,0.000000:
// measure 0
0000
0000
0000
0000
,  // measure 1
0000
0000
0000
0000
,  // measure 2
0000
0000
0000
0000
,  // measure 3
0000
0000
0000
0000
,  // measure 4
0001
0001
1000
0100
,  // measure 5
0001
0100
1000
1000
,  // measure 6
0001
0001
1000
0010
,  // measure 7
0001
0100
1000
0100
,  // measure 8
0001
0000
2000
0100
,  // measure 9
0010
3010
0100
0100
,  // measure 10
0010
0100
0002
0010
,  // measure 11
0100
0103
0010
0010
,  // measure 12
0100
0010
2000
3100
,  // measure 13
0001
1000
0020
0031
,  // measure 14
1000
0001
0200
0310
,  // measure 15
0001
0100
2000
3001
,  // measure 16
0010
1000
0200
0310
,  // measure 17
0001
0100
2000
3001
,  // measure 18
0100
1000
0002
1003
,  // measure 19
0010
0100
2000
3010
,  // measure 20
0001
0100
0110
1000
,  // measure 21
0100
1000
0010
1000
,  // measure 22
0100
1000
0110
0001
,  // measure 23
0010
0001
0100
0001
,  // measure 24
0010
0001
0110
1000
,  // measure 25
0100
0001
0010
1000
,  // measure 26
0100
0001
0110
0001
,  // measure 27
0010
1000
0100
0001
,  // measure 28
0010
1000
0100
0000
,  // measure 29
0000
0000
0010
0001
,  // measure 30
0010
0011
1000
0100
,  // measure 31
0001
0100
1000
0010
,  // measure 32
1000
1010
0010
0100
,  // measure 33
0001
0010
1000
0100
,  // measure 34
0001
0101
0001
0100
,  // measure 35
1000
1100
0001
0101
,  // measure 36
1000
1100
0001
0101
,  // measure 37
1000
1100
0000
0000
,  // measure 38
0000
0000
0000
0000
,  // measure 39
0000
0000
2002
3003
,  // measure 40
0020
0030
1000
0100
,  // measure 41
0010
0000
0002
0003
,  // measure 42
2000
3000
0001
0100
,  // measure 43
0010
0000
2000
3000
,  // measure 44
0020
0030
0001
1000
,  // measure 45
0010
0000
0002
0003
,  // measure 46
0020
0030
1000
1000
,  // measure 47
0200
0300
0010
0010
,  // measure 48
0001
0000
0100
0000
,  // measure 49
1000
0000
0001
0001
,  // measure 50
0100
0000
0010
0000
,  // measure 51
1000
0000
0100
0100
,  // measure 52
0010
0010
0100
0010
,  // measure 53
0100
0010
0001
0001
,  // measure 54
1000
1000
0001
1000
,  // measure 55
0001
1000
0000
1001
,  // measure 56
0100
0010
0010
1000
,  // measure 57
1000
0001
1000
0100
,  // measure 58
0010
0001
0001
0010
,  // measure 59
0010
0100
1000
0001
,  // measure 60
0100
0010
0010
1000
,  // measure 61
1000
0001
1000
0010
,  // measure 62
0100
0001
0001
1000
,  // measure 63
1000
0100
0010
0001
,  // measure 64
0000
0000
0000
0000
,  // measure 65
0000
1000
0001
0100
,  // measure 66
0020
0000
0000
0030
,  // measure 67
0000
0010
1000
0100
,  // measure 68
0020
0000
0000
0030
,  // measure 69
0000
0001
1000
0001
,  // measure 70
0000
0100
0000
0000
2000
0000
0000
0000
,  // measure 71
0000
0001
3001
1001
,  // measure 72
0001
0100
0101
0100
,  // measure 73
0010
1000
0100
0010
,  // measure 74
0100
0010
0110
0001
,  // measure 75
1000
0100
1000
0001
,  // measure 76
0100
0001
0101
0001
,  // measure 77
1000
0100
1100
0001
,  // measure 78
0101
1000
1100
0001
,  // measure 79
0101
1000
1100
0100
;

//---------------dance-single - ----------------
#NOTES:
     dance-single:
     :
     Beginner:
     2:
     0.131705,0.186475,0.020042,0.000000,0.000000,138.000000,135.000000,3.000000,0.000000,0.000000,0.000000,0.131705,0.186475,0.020042,0.000000,0.000000,138.000000,135.000000,3.000000,0.000000,0.000000,0.000000:
// measure 0
0000
0000
0000
0000
,  // measure 1
0000
0000
0000
0000
,  // measure 2
0000
0000
0000
0000
,  // measure 3
0000
0000
0000
0000
,  // measure 4
0001
0000
0010
0000
,  // measure 5
0100
0000
0010
0000
,  // measure 6
0100
0000
0001
0000
,  // measure 7
0100
0000
1000
0000
,  // measure 8
0001
0000
1000
0000
,  // measure 9
0010
0000
1000
0000
,  // measure 10
0010
0000
0100
0000
,  // measure 11
0010
0000
0100
0000
,  // measure 12
0010
0000
0001
0000
,  // measure 13
0100
0000
0001
0000
,  // measure 14
0100
0000
1000
0000
,  // measure 15
0010
0000
1000
0000
,  // measure 16
0010
0000
1000
0000
,  // measure 17
0100
0000
0001
0000
,  // measure 18
0010
0000
0100
0000
,  // measure 19
0001
0000
1000
0000
,  // measure 20
0100
0000
0010
0000
,  // measure 21
0001
0000
1000
0000
,  // measure 22
0010
0000
0100
0000
,  // measure 23
0001
0000
1000
0000
,  // measure 24
0100
0000
0010
0000
,  // measure 25
0100
0000
1000
0000
,  // measure 26
0001
0000
1000
0010
,  // measure 27
0000
0000
1000
0000
,  // measure 28
0001
0100
0000
0000
,  // measure 29
0000
0000
0100
0000
,  // measure 30
0000
0000
0000
0000
,  // measure 31
0000
0000
1000
0000
,  // measure 32
0001
0000
0100
0000
,  // measure 33
0010
0000
1000
0000
,  // measure 34
0100
0000
0010
0000
,  // measure 35
0001
0000
0000
0000
,  // measure 36
0000
0000
0000
0000
,  // measure 37
0000
0000
0000
0000
,  // measure 38
0000
0000
0000
0000
,  // measure 39
0000
0000
1001
0000
,  // measure 40
0010
0000
1000
0000
,  // measure 41
0010
0000
0000
0000
,  // measure 42
0100
0000
0000
0000
,  // measure 43
0100
0000
0001
0000
,  // measure 44
0100
0000
0001
0000
,  // measure 45
0100
0000
0000
0000
,  // measure 46
0010
0000
0000
0000
,  // measure 47
0100
0000
0001
0000
,  // measure 48
0001
0000
0001
0000
,  // measure 49
0000
0000
1000
0000
,  // measure 50
1000
0000
1000
0000
,  // measure 51
0000
0000
0100
0100
,  // measure 52
0100
0100
0100
0000
,  // measure 53
0000
0000
0010
0010
,  // measure 54
0010
0010
0010
0000
,  // measure 55
0000
0000
0000
1001
,  // measure 56
0000
0010
0000
1000
,  // measure 57
0000
0010
0010
0010
,  // measure 58
0000
0001
0000
0100
,  // measure 59
0000
1000
1000
1000
,  // measure 60
0000
0010
0000
0100
,  // measure 61
0000
0001
0001
0001
,  // measure 62
0000
0010
0000
1000
,  // measure 63
0000
0000
0000
0100
,  // measure 64
0000
0000
0000
0000
,  // measure 65
0010
0010
0000
0000
,  // measure 66
0100
0000
0000
0000
,  // measure 67
0010
0010
0000
0000
,  // measure 68
0100
0000
0000
0000
,  // measure 69
0010
0010
0000
0000
,  // measure 70
0100
0000
0000
0000
,  // measure 71
0010
0010
0000
1001
,  // measure 72
0000
0001
0000
0100
,  // measure 73
0000
1000
0000
0001
,  // measure 74
0000
1000
0000
0100
,  // measure 75
0000
0010
0010
0010
,  // measure 76
0000
0100
0000
1000
,  // measure 77
0000
0001
0000
0100
,  // measure 78
0000
0010
0000
1000
,  // measure 79
0000
0001
0000
0100
;
