#TITLE:Better Off Alone;
#SUBTITLE:;
#ARTIST:Alice Deejay;
#TITLETRANSLIT:;
#SUBTITLETRANSLIT:;
#ARTISTTRANSLIT:;
#GENRE:Who Needs Guitars Anyway?;
#CREDIT:;
#BANNER:Better Off Alone-bn.png;
#BACKGROUND:Black.png;
#LYRICSPATH:;
#CDTITLE:;
#MUSIC:Better Off Alone.mp3;
#OFFSET:-0.022006;
#SAMPLESTART:113.899193;
#SAMPLELENGTH:14.016640;
#LASTBEATHINT:329.000061;
#SELECTABLE:YES;
#DISPLAYBPM:137.000000;
#BPMS:0.000000=136.979996
;
#STOPS:256.000000=0.438000
;
#BGCHANGES:-0.500=Better Off Alone-video.avi=1.000=1=0=0=StretchNoLoop==CrossFade==,
99999=-nosongbg-=1.000=0=0=0 // don't automatically add -songbackground-
;
#KEYSOUNDS:;
#ATTACKS:;

//---------------dance-single - ----------------
#NOTES:
     dance-single:
     :
     Hard:
     7:
     0.448764,0.504196,0.357440,0.213089,0.137477,457.000000,405.000000,52.000000,31.000000,0.000000,0.000000,0.448764,0.504196,0.357440,0.213089,0.137477,457.000000,405.000000,52.000000,31.000000,0.000000,0.000000:
0000
0000
0000
0000
,
0000
0000
0000
0000
,
0000
0000
0000
0000
,
0000
0000
0000
0000
,
0000
0000
0000
0000
,
2001
0001
0001
0001
,
3001
0000
0001
0000
0001
0000
0001
1000
,
1002
1000
1000
1000
,
2000
0000
0000
3003
,
1001
0000
2000
0002
3003
0000
1001
0000
,
0100
0000
0000
0000
1001
0000
0000
0000
0010
0000
0000
0010
0000
0000
1000
0000
,
0001
0000
0002
2000
3003
0000
1001
0000
,
0100
0000
0000
0000
1001
0000
0000
0000
0001
0000
0000
0010
0000
0000
0100
0000
,
1000
0000
2000
0002
3003
0000
1001
0000
,
0010
0000
0000
0000
1001
0000
0000
0000
0100
0000
0000
0010
0000
0000
1000
0000
,
0001
0000
0002
2000
3003
0000
1001
0000
,
0110
0000
0000
0000
1001
0000
0000
0000
0010
0000
0000
1000
0000
0000
0001
0000
,
0020
0000
0001
0001
0000
0100
0000
0100
,
0000
0000
1000
0000
0000
0000
0130
0000
0010
0000
0000
0001
0000
0000
1000
0000
,
0020
0000
0100
0100
0000
1000
0000
0100
,
0000
0000
0001
0000
0000
0000
0130
0000
0010
0000
0000
1000
0000
0000
0001
0000
,
0200
0000
1000
1000
0000
0010
0000
0010
,
0000
0000
0001
0000
0000
0000
0301
0000
0010
0000
0000
0001
0000
0000
1000
0000
,
0200
0000
0001
0001
0000
0010
0000
0310
,
0110
0000
0000
0000
1001
0000
0000
0000
1000
0000
0000
0010
0000
0000
0100
0000
,
0001
0000
0001
1000
0100
1000
0000
0001
,
0000
0000
1100
0000
0000
0000
1000
0000
0001
0000
0000
0101
0000
0000
0100
0000
,
0010
0000
1000
0001
0000
0011
0000
0100
,
0000
0000
1010
0000
0000
0000
0100
0000
0010
0000
0000
1001
0000
0000
1000
0000
,
0001
0000
1000
0010
0100
0001
0000
1000
,
0000
0000
0110
0000
0000
0000
0001
0000
1000
0000
0000
1100
0000
0000
0010
0000
,
0100
0000
0001
0010
0000
1001
0000
1000
,
0000
0000
0101
0000
0000
0000
0100
0000
0010
0000
0000
1000
0000
0000
0100
0000
,
0010
0001
0010
0001
0010
0001
0010
0001
,
1000
0000
0100
0000
1000
0000
0100
0000
1000
0000
0000
0001
0000
0000
0100
0000
,
0010
0100
0010
0100
0010
0100
0010
0100
,
0001
0000
1000
0000
0001
0000
1000
0000
0001
0000
0000
0010
0000
0000
0100
0000
,
1000
0010
1000
0010
1000
0010
1000
0010
,
0100
0000
0001
0000
0100
0000
0001
0000
0100
0000
0000
0010
0000
0000
1000
0000
,
0100
0010
0100
0010
0100
0010
0100
0010
,
1001
0101
1100
0110
,
1001
0000
0000
0000
1000
0000
0100
0000
0000
0000
1000
0000
0000
1000
0001
0000
,
0000
0000
0100
0000
0000
0100
0010
0000
0000
0000
1000
0000
0000
1000
0001
0000
,
0010
0000
0001
0000
0000
0001
0100
0000
0000
0000
0010
0000
0000
0010
1000
0000
,
0000
0000
0100
0000
0000
0100
0010
0000
0000
0000
0001
0000
0000
0001
1000
0000
,
0010
0000
0100
0000
0000
0001
0100
0000
0010
0000
1000
0000
0000
0100
1000
0000
,
0001
0000
0010
0000
0000
0100
0010
0000
0001
0000
1000
0000
0000
0010
1000
0000
,
0001
0000
0100
0000
0000
0010
1000
0000
0001
0000
0010
0000
0000
0100
1000
0000
,
1100
0101
1001
0110
,
1001
0000
0001
1000
0001
2000
0000
0020
,
0000
3030
2000
0002
0000
3003
0002
0020
,
0003
0200
0000
0000
0000
0000
0330
0000
,
0000
0000
0000
0000
,
0000
0000
1000
0001
0100
0002
0000
2000
,
0000
3003
0020
0200
0000
0330
0200
0002
,
0300
2000
0000
0000
0000
0000
3003
0000
,
0000
0000
0000
0000
,
1000
0000
0001
0100
0000
0010
0000
1000
,
0000
0000
0001
0000
0000
0000
0100
0000
0010
0000
0000
1000
0000
0000
0100
0000
,
0010
0000
0001
0100
0000
0010
0000
1000
,
0000
0000
0100
0000
0000
0000
0010
0000
0001
0000
0000
1000
0000
0000
0001
0000
,
0100
0000
0010
1000
0000
0001
0000
1000
,
0000
0000
0100
0000
0000
0000
1000
0000
0010
0000
0000
0100
0000
0000
0001
0000
,
0010
0000
0100
1000
0000
0010
0000
0100
,
1001
0000
0000
0000
0000
0000
1001
1000
,
0100
1000
0001
1000
0100
1000
0001
0010
,
0100
0000
0010
0000
0001
0000
0000
1000
0000
0000
0010
0000
0100
0000
0001
0000
,
0100
0010
0100
1000
0100
0010
1000
0001
,
1000
0000
0100
0000
1000
0000
0000
0010
0000
0000
0100
0000
0001
0000
1000
0000
,
0001
0100
0001
1000
0001
0100
0010
1000
,
0001
0000
1000
0000
0010
0000
0000
0100
0000
0000
0001
0000
0010
0000
0100
0000
,
1000
0100
0010
0001
0010
0100
1001
0000
,
0110
1001
0110
1001
,
0001
0100
0000
1010
0000
0100
0000
0011
,
0000
0100
0000
1001
0000
0100
0010
0000
,
1000
0100
0000
0011
0000
0100
0000
1010
,
0000
0100
0000
1001
0000
1001
0001
0010
,
0000
0100
1000
0000
0100
0000
1000
0000
0000
0001
0100
0000
0010
0000
0100
0000
,
0000
0001
0010
0000
0100
0000
1000
0000
0000
0001
1000
0000
0010
0000
1000
0000
,
0000
0001
0010
0000
0100
0000
1000
0000
0000
0010
0100
0000
0110
0000
0000
0000
,
0101
1100
0110
1001
,
2000
0002
0000
0000
3003
0000
0000
0000
;

//---------------dance-single - ----------------
#NOTES:
     dance-single:
     :
     Medium:
     6:
     0.300485,0.364142,0.103108,0.158098,0.041243,306.000000,291.000000,15.000000,23.000000,0.000000,0.000000,0.300485,0.364142,0.103108,0.158098,0.041243,306.000000,291.000000,15.000000,23.000000,0.000000,0.000000:
0000
0000
0000
0000
,
0000
0000
0000
0000
,
0000
0000
0000
0000
,
0000
0000
0000
0000
,
0000
0000
0000
0000
,
2001
0001
0001
0001
,
3001
0001
0001
0001
,
1002
1000
1000
1000
,
1003
0000
0000
0000
,
1001
0000
1000
0001
0000
0000
0000
0000
,
0010
0001
1000
0001
,
0010
0000
0001
1000
0000
0000
0000
0000
,
0010
0100
0001
1000
,
0100
0000
1000
0001
0000
0000
0000
0000
,
1000
0010
0100
0001
,
0010
0000
0100
1000
0000
0000
0000
0000
,
0001
0010
0100
1000
,
2002
0000
0000
3003
,
0200
0000
1000
1300
,
0020
0000
0100
0030
,
0002
0000
1000
1003
,
0100
0100
0010
0010
,
1000
1000
0001
0010
,
0100
0100
0010
0010
,
0110
0110
1001
1001
,
0010
0000
1000
0001
0000
0010
0000
0010
,
0000
0000
0100
0000
0000
0000
0100
0000
1000
0000
0000
1000
0000
0000
1000
0000
,
0001
0000
0001
0100
0000
0100
0000
0010
,
0000
0000
0010
0000
0000
0000
0010
0000
1000
0000
0000
1000
0000
0000
1000
0000
,
0100
0000
0100
0010
0000
0010
0000
0001
,
0000
0000
0001
0000
0000
0000
0001
0000
1000
0000
0000
1000
0000
0000
1000
0000
,
0010
0000
0010
0100
0000
0100
0000
0100
,
0000
0000
0001
0000
0000
0000
1000
0000
0001
0000
0000
1000
0000
0000
0001
0000
,
1000
0000
0001
0010
0000
0001
0000
1000
,
0000
0000
0001
0000
0000
0000
1000
0000
0001
0000
0000
0100
0000
0000
0001
0000
,
1000
0000
0001
1000
0000
0100
0000
1000
,
0000
0000
0001
0000
0000
0000
1000
0000
0010
0000
0000
1000
0000
0000
0001
0000
,
1000
0000
0100
1000
0000
0001
0000
1000
,
0000
0000
0001
0000
0000
0000
1000
0000
0010
0000
0000
0100
0000
0000
0010
0000
,
0100
0000
0001
0100
0000
0010
0000
1000
,
0000
0000
0001
0000
0000
0000
0010
0000
0100
0000
0000
0010
0000
0000
0100
0000
,
1000
0000
1000
0002
0000
0000
0000
0003
,
0010
0000
0001
0000
1000
0001
1000
0000
,
0001
0000
1000
0020
0000
0000
0030
0000
,
0010
1000
0001
0010
,
0100
0000
1000
0002
0000
0000
0003
0000
,
1000
0100
0010
0001
,
1000
0000
0001
2000
0000
0000
3000
0000
,
0010
1000
0001
0010
,
0220
0000
0000
0330
,
1000
1000
0100
0100
,
0001
0000
0000
0000
,
0010
0000
0000
0000
,
0100
0100
1000
1000
,
0001
0001
0100
0100
,
0010
0000
0000
0000
,
1000
0000
0000
0000
,
1002
0000
0000
0003
,
0020
0000
0100
0130
,
2000
0000
0001
3000
,
0200
0000
0010
0310
,
1000
0100
0010
0001
,
0100
0010
0100
0001
,
1000
0000
0001
0000
0010
0100
0010
0000
,
1001
0000
0000
1001
,
0001
0100
0000
0010
0000
1000
0000
0100
,
0000
0000
0010
0000
0001
0000
0000
1000
0000
0000
0010
0000
1000
0000
0000
0000
,
0001
0100
0000
0010
0000
0100
0000
0001
,
0000
0000
0010
0000
0100
0000
0000
1000
0000
0000
0001
0000
1000
0000
0000
0000
,
0100
1000
0000
0010
0000
0100
0000
0010
,
0000
0000
1000
0000
0001
0000
0000
0010
0000
0000
0001
0000
1000
0000
0000
0000
,
0001
0100
0000
0010
0000
1000
0000
0100
,
0000
0000
0010
0000
0001
0000
0000
1000
0000
0000
0001
0000
0010
0000
0000
0000
,
0001
2000
0000
0000
3001
0000
0010
0000
,
0001
0000
1000
0100
1000
0000
0001
0000
,
1000
0002
0000
0000
0103
0000
0010
0000
,
0100
0001
0010
0110
,
0010
0200
0000
0000
1300
0000
0001
0000
,
1000
0000
0010
0100
0010
0000
1001
0000
,
1000
0002
0000
0000
0103
0000
0010
0000
,
1000
0000
0001
0010
0100
0000
0220
0000
,
0000
0000
0330
0000
;

//---------------dance-single - ----------------
#NOTES:
     dance-single:
     :
     Easy:
     3:
     0.179702,0.280109,0.082486,0.309323,0.000000,183.000000,171.000000,12.000000,45.000000,0.000000,0.000000,0.179702,0.280109,0.082486,0.309323,0.000000,183.000000,171.000000,12.000000,45.000000,0.000000,0.000000:
// measure 0
0000
0000
0000
0000
,  // measure 1
0000
0000
0000
0000
,  // measure 2
0000
0000
0000
0000
,  // measure 3
0000
0000
0000
0000
,  // measure 4
0000
0000
0000
0000
,  // measure 5
2001
0001
3001
0001
,  // measure 6
0001
0001
0001
0000
,  // measure 7
1002
1000
1003
1000
,  // measure 8
1000
0000
0000
0000
,  // measure 9
1000
1000
0100
0000
,  // measure 10
0010
0000
0100
0000
,  // measure 11
0010
0010
0100
0000
,  // measure 12
0010
0000
0001
0000
,  // measure 13
0100
0100
0001
0000
,  // measure 14
0100
0000
0001
0000
,  // measure 15
1000
1000
0001
0000
,  // measure 16
1000
0000
0001
0000
,  // measure 17
2002
0000
3003
0000
,  // measure 18
0000
0000
0010
0000
,  // measure 19
2000
0000
3000
0000
,  // measure 20
0000
0000
0001
0000
,  // measure 21
0200
0000
0300
0000
,  // measure 22
0010
0000
1000
0000
,  // measure 23
0100
0000
0010
0000
,  // measure 24
0001
0001
1000
1000
,  // measure 25
2002
3003
0010
0000
,  // measure 26
1000
0100
0010
0001
,  // measure 27
0200
0000
0310
0000
,  // measure 28
2000
0000
3001
0000
,  // measure 29
0010
0100
1000
0001
,  // measure 30
0100
0010
0100
0010
,  // measure 31
0200
0000
0301
0000
,  // measure 32
2000
0000
3100
0000
,  // measure 33
2002
3003
0001
1000
,  // measure 34
0001
0010
0100
1000
,  // measure 35
0200
0000
0310
0000
,  // measure 36
0002
0000
1003
0000
,  // measure 37
0001
0100
0010
1000
,  // measure 38
0100
0010
0001
1000
,  // measure 39
0002
0000
0103
0000
,  // measure 40
2000
0000
3100
0000
,  // measure 41
2002
0000
3003
0000
,  // measure 42
0020
0000
0130
0000
,  // measure 43
0002
0000
0013
0000
,  // measure 44
0200
0000
1300
0000
,  // measure 45
2002
0000
3003
0000
,  // measure 46
2000
0000
3010
0000
,  // measure 47
0200
0000
0301
0000
,  // measure 48
0020
0000
0130
0000
,  // measure 49
0220
0000
0000
0330
,  // measure 50
0000
0000
0000
0000
,  // measure 51
2000
0000
3000
0000
,  // measure 52
0000
0000
0000
0000
,  // measure 53
0002
0000
0003
0000
,  // measure 54
0000
0000
0000
0000
,  // measure 55
0020
0000
0030
0000
,  // measure 56
0000
0000
0000
0000
,  // measure 57
0110
0000
0000
0000
,  // measure 58
1000
0000
0001
0000
,  // measure 59
1000
0000
0100
0000
,  // measure 60
0001
0000
0100
0000
,  // measure 61
1000
1000
1000
1000
,  // measure 62
0001
0001
0001
0001
,  // measure 63
0100
0100
0010
0010
,  // measure 64
0110
0000
0000
1001
,  // measure 65
1000
0010
1000
0010
,  // measure 66
1000
0001
1000
0020
,  // measure 67
0000
0130
0000
0200
,  // measure 68
0000
0301
0000
0001
,  // measure 69
1000
0001
1000
0001
,  // measure 70
0010
0100
1000
0001
,  // measure 71
0000
1000
0000
0001
,  // measure 72
0100
0001
0100
0020
,  // measure 73
0000
0130
0000
0002
,  // measure 74
0000
1003
0000
0200
,  // measure 75
0000
0310
0000
0002
,  // measure 76
0000
1003
0000
0020
,  // measure 77
0000
1030
0000
0200
,  // measure 78
0000
0301
0000
0020
,  // measure 79
0000
0031
0000
0200
,  // measure 80
0000
1300
0000
2002
,  // measure 81
0000
0000
3003
0000
;

//---------------dance-single - ----------------
#NOTES:
     dance-single:
     :
     Beginner:
     1:
     0.123729,0.166519,0.027495,0.109982,0.000000,126.000000,122.000000,4.000000,16.000000,0.000000,0.000000,0.123729,0.166519,0.027495,0.109982,0.000000,126.000000,122.000000,4.000000,16.000000,0.000000,0.000000:
// measure 0
0000
0000
0000
0000
,  // measure 1
0000
0000
0000
0000
,  // measure 2
0000
0000
0000
0000
,  // measure 3
0000
0000
0000
0000
,  // measure 4
0000
0000
0000
0000
,  // measure 5
0001
0000
0000
0000
,  // measure 6
0000
0000
0000
1000
,  // measure 7
1000
0000
0000
0000
,  // measure 8
0000
0000
0000
0000
,  // measure 9
0010
0010
0000
0000
,  // measure 10
0000
0000
0100
0100
,  // measure 11
0100
0100
0000
0000
,  // measure 12
0000
0000
0001
0001
,  // measure 13
0001
0001
0000
0000
,  // measure 14
0000
0000
1000
1000
,  // measure 15
1000
1000
0000
0000
,  // measure 16
0000
0000
0010
0010
,  // measure 17
0010
0000
0000
0000
,  // measure 18
1000
0000
0000
0000
,  // measure 19
0001
0000
0000
0000
,  // measure 20
1000
0000
0000
0000
,  // measure 21
0100
0000
0000
0000
,  // measure 22
0001
0000
0000
0000
,  // measure 23
1000
0000
0000
0000
,  // measure 24
0001
0000
0000
0000
,  // measure 25
1001
0000
1000
0000
,  // measure 26
0001
0000
1000
0000
,  // measure 27
0001
0000
0100
0000
,  // measure 28
1000
0000
0100
0000
,  // measure 29
0001
0000
1000
0000
,  // measure 30
0001
0000
1000
0000
,  // measure 31
0001
0000
0100
0000
,  // measure 32
1000
0000
0100
0000
,  // measure 33
0001
0001
0001
0000
,  // measure 34
0010
0000
0100
0000
,  // measure 35
1000
1000
1000
0000
,  // measure 36
0010
0000
0100
0000
,  // measure 37
0001
0001
0001
0000
,  // measure 38
0010
0000
0100
0000
,  // measure 39
1000
1000
1000
0000
,  // measure 40
0010
0000
0100
0000
,  // measure 41
0001
0001
0000
0000
,  // measure 42
0020
0030
0020
0030
,  // measure 43
0010
0010
0000
0000
,  // measure 44
0100
0000
0000
0000
,  // measure 45
1000
0000
0000
0000
,  // measure 46
0020
0030
0020
0030
,  // measure 47
0010
0010
0000
0000
,  // measure 48
0100
0000
0100
0000
,  // measure 49
0100
0000
0000
0000
,  // measure 50
0000
0000
0000
0000
,  // measure 51
0001
0000
0000
0000
,  // measure 52
0000
0000
0000
0000
,  // measure 53
0000
1000
0000
0000
,  // measure 54
0000
0000
0000
0000
,  // measure 55
0010
0000
0000
0000
,  // measure 56
0000
0000
0000
0000
,  // measure 57
1001
0000
0000
0000
,  // measure 58
0002
0000
0003
0000
,  // measure 59
2000
0000
3000
0000
,  // measure 60
0002
0000
0003
0000
,  // measure 61
0200
0000
0300
0000
,  // measure 62
0020
0000
0030
0000
,  // measure 63
0200
0000
0300
0000
,  // measure 64
1001
0000
0000
0001
,  // measure 65
0000
1000
0000
0010
,  // measure 66
0000
0100
0000
0001
,  // measure 67
0000
0010
0000
0100
,  // measure 68
0000
1000
0000
0010
,  // measure 69
0000
1000
0000
0100
,  // measure 70
0000
0010
0000
0001
,  // measure 71
0000
1000
0000
0001
,  // measure 72
0000
0100
0000
0010
,  // measure 73
0010
0000
0000
0200
,  // measure 74
0300
0200
0300
0100
,  // measure 75
0100
0000
0000
0001
,  // measure 76
0000
1000
0000
0001
,  // measure 77
0001
0000
0000
0020
,  // measure 78
0030
0020
0030
0010
,  // measure 79
0010
0000
0000
0200
,  // measure 80
0300
0200
0300
1001
;
