#VERSION:0.83;
#TITLE:Believer;
#SUBTITLE:;
#ARTIST:Imagine Dragons;
#TITLETRANSLIT:;
#SUBTITLETRANSLIT:;
#ARTISTTRANSLIT:;
#GENRE:Evolve;
#ORIGIN:;
#CREDIT:;
#BANNER:Believer-bn.png;
#BACKGROUND:Believer-bg.png;
#PREVIEWVID:Believer-preview.avi;
#JACKET:Believer-jacket.png;
#CDIMAGE:;
#DISCIMAGE:;
#LYRICSPATH:;
#CDTITLE:;
#MUSIC:Believer.mp3;
#OFFSET:-0.000530;
#SAMPLESTART:93.118141;
#SAMPLELENGTH:14.400002;
#SELECTABLE:YES;
#BPMS:0.000=125.000;
#STOPS:;
#DELAYS:;
#WARPS:;
#TIMESIGNATURES:0.000=4=4;
#TICKCOUNTS:0.000=4;
#COMBOS:0.000=1;
#SPEEDS:0.000=1.000=0.000=0;
#SCROLLS:0.000=1.000;
#FAKES:;
#LABELS:0.000=Song Start;
#LASTSECONDHINT:122.938133;
#BGCHANGES:-0.500=Believer-video.avi=1.000=1=0=0=StretchNoLoop==CrossFade==,
99999=-nosongbg-=1.000=0=0=0 // don't automatically add -songbackground-
;
#KEYSOUNDS:;
#ATTACKS:
;

//---------------dance-single - ----------------
#NOTEDATA:;
#CHARTNAME:;
#STEPSTYPE:dance-single;
#DESCRIPTION:;
#CHARTSTYLE:;
#DIFFICULTY:Challenge;
#METER:9;
#RADARVALUES:0.461943,0.631563,0.237765,0.142659,0.657817,408.000000,378.000000,30.000000,18.000000,0.000000,0.000000,0.000000,0.000000,0.000000,0.461943,0.631563,0.237765,0.142659,0.657817,408.000000,378.000000,30.000000,18.000000,0.000000,0.000000,0.000000,0.000000,0.000000;
#CREDIT:;
#NOTES:
0000
0000
0000
0000
,
0000
0000
0000
0000
,
0000
0000
0000
0000
,
0000
0000
0000
0000
,
1100
0000
0000
0011
0000
0000
1001
0000
0000
0001
0000
1000
,
0001
0000
0000
1000
0000
0010
0100
0000
0001
1000
0000
0010
,
0100
0000
0000
0001
0000
0000
1001
0000
0001
0100
0000
0001
,
1000
0000
0000
0010
0000
1000
0100
0000
0100
0010
0000
0001
,
0100
0000
0000
0010
0000
0000
1010
0000
0000
1000
0100
0010
,
0001
0000
0000
0001
0000
0010
0100
0000
1000
0001
0010
0100
,
1000
0000
0000
0010
0000
0000
1001
0000
0000
0001
0010
0100
,
1000
1000
1100
0100
,
1000
0000
1000
0001
0000
0000
0101
0000
0100
0001
0000
1000
,
0100
0000
0100
0010
0000
0001
1000
0000
1000
0010
0000
0100
,
0001
0000
0000
1000
0000
0010
0100
0000
0000
0001
0000
1000
,
0100
0000
0000
0010
0000
0001
0100
0000
0001
0010
0000
0100
,
1000
0000
0000
0010
0000
0000
1001
0000
0000
1000
0010
0100
,
0001
0000
0000
0010
0000
0100
1000
0000
1000
0001
0000
0100
,
0010
0000
0000
1000
0000
0000
1001
0000
0000
0001
0010
0100
,
1000
0000
0000
0010
0000
0000
1001
0000
0000
1000
0001
1000
,
0001
0000
0010
0000
0100
1000
0100
0000
0100
0010
0001
1000
,
0100
0000
1000
0000
0001
0100
0010
0000
0010
1000
0001
0100
,
0010
0000
1000
0000
0100
1000
0100
0000
0010
0001
0100
0010
,
0010
1000
0100
1000
0001
0100
0010
1000
0001
0100
0010
1000
,
0100
0000
0010
0000
0001
0100
0010
0000
0000
1000
0100
0010
,
0100
0000
0100
0000
1000
0001
1000
0000
0000
0010
1000
0001
,
0100
0000
0010
0000
1000
0100
1000
0000
0000
0001
0010
0100
,
1000
0000
0010
0000
0100
0001
0000
0000
0000
0000
0000
0000
,
0000
0000
0000
0000
0000
0000
2002
0000
0000
3003
0000
1000
,
0010
0000
0010
0001
0000
1000
0010
0000
0010
0001
0000
1000
,
0010
0000
0000
0001
0000
0000
0011
0000
0000
0001
0010
0100
,
1000
0000
0000
1000
0000
0000
1100
0000
0000
1000
0000
0010
,
0100
0000
0000
0001
0000
0000
1001
0000
0000
0100
0000
0001
,
0010
0000
0010
1000
0000
0001
0010
0000
0010
1000
0000
0001
,
0010
0000
0000
1000
0000
0000
1010
0000
0000
1000
0100
0010
,
0001
0100
1001
0100
,
0101
0000
0000
1010
0000
0000
1001
0000
0000
1000
0000
0001
,
1000
0000
0000
0001
0000
0010
0100
0000
1000
0001
0000
0010
,
0100
0000
0000
1000
0000
0001
1000
0000
0000
0100
0000
1000
,
0001
0000
0000
0010
0000
0001
0100
0000
0100
0010
0000
1000
,
0100
0010
0022
0030
,
2000
0000
0000
3003
0000
0010
0100
0000
0001
1000
0000
0010
,
0100
0001
2002
0003
,
0200
0000
0000
0300
0000
0000
0020
0000
0000
3030
1000
0100
,
0010
0001
0100
0010
1000
0100
1000
0001
1000
0010
0100
0010
,
0100
0001
0010
0100
1000
0010
1000
0001
0100
0010
1000
0100
,
0010
0000
0001
0000
1000
0000
0100
0000
1000
0001
1000
0100
,
0010
0000
0001
0000
0100
0000
0020
0000
0000
0030
0000
0000
,
0000
0000
0000
0000
0000
0000
2002
0000
0000
3003
0000
1000
,
0010
0000
0010
0001
0000
1000
0010
0000
0010
0001
0000
1000
,
0010
0000
0000
0001
0000
0000
0011
0000
0000
0001
0010
0100
,
1000
0000
0000
1000
0000
0000
1100
0000
0000
1000
0000
0010
,
0100
0000
0000
0001
0000
0000
1001
0000
0000
0100
0000
0001
,
0010
0000
0010
1000
0000
0001
0010
0000
0010
1000
0000
0001
,
0010
0000
0000
1000
0000
0000
1010
0000
0000
1000
0100
0010
,
0001
0100
1001
0100
,
0002
0000
0000
0010
0000
0000
1000
0000
0000
0013
0000
0001
,
1000
0000
0010
0100
0000
0001
1000
0000
0100
0010
0000
0001
,
0200
0000
0000
1000
0000
0000
0010
0000
0000
0301
0000
1000
,
0001
0000
0001
1000
0000
1000
0100
0000
0100
0010
0000
0010
,
0000
0000
0000
0000
0000
0000
2002
0000
0000
3003
0000
1000
,
0010
0000
0010
0001
0000
1000
0010
0000
0010
0001
0000
1000
,
0010
0000
0000
0001
0000
0000
0011
0000
0000
0001
0010
0100
,
2000
0002
0000
3003
;

//---------------dance-single - ----------------
#NOTEDATA:;
#CHARTNAME:;
#STEPSTYPE:dance-single;
#DESCRIPTION:;
#CHARTSTYLE:;
#DIFFICULTY:Hard;
#METER:7;
#RADARVALUES:0.412126,0.429463,0.182287,0.174361,0.507232,364.000000,341.000000,23.000000,22.000000,0.000000,0.000000,0.000000,0.000000,0.000000,0.412126,0.429463,0.182287,0.174361,0.507232,364.000000,341.000000,23.000000,22.000000,0.000000,0.000000,0.000000,0.000000,0.000000;
#CREDIT:;
#NOTES:
0000
0000
0000
0000
,
0000
0000
0000
0000
,
0000
0000
0000
0000
,
0000
0000
0000
0000
,
1100
0000
0000
0011
0000
0000
1001
0000
0000
0001
0000
1000
,
0001
0000
0000
1000
0000
0010
1000
0000
0001
1000
0000
0100
,
1000
0000
0000
0010
0000
0000
0100
0000
0001
1000
0000
0001
,
0100
0000
0000
0010
0000
1000
0100
0000
0100
0010
0000
0001
,
0010
0000
0000
0100
0000
0000
2000
0000
0000
3001
0000
0100
,
0001
0000
0000
0010
0000
0100
1000
0000
0010
0100
0000
0010
,
1000
0000
0000
0100
0000
0000
0020
0000
0000
0031
0000
0010
,
0100
1000
1100
0100
,
1000
0000
1000
0001
0000
0000
0100
0000
0100
0001
0000
0001
,
1000
0000
1000
0010
0000
0010
0100
0000
0100
0001
0000
0001
,
1000
0000
0000
0010
0000
1000
0010
0000
0000
0100
0000
0001
,
0100
0000
0000
0010
0000
1000
0010
0000
1000
0001
0000
0100
,
0001
0000
0000
0010
0000
0000
0200
0000
0000
1300
0000
0100
,
1000
0000
0000
0010
0000
0100
0001
0000
0001
0010
0000
0100
,
1000
0000
0000
0010
0000
0000
0200
0000
0000
0301
0000
0010
,
0100
0000
0000
0010
0000
0000
0001
0000
0000
1000
0001
1000
,
0001
0000
0010
0000
0100
0000
1000
0000
0000
0001
0000
0100
,
0010
0000
1000
0000
0001
0000
0100
0000
0000
0010
0000
1000
,
0001
0000
0010
0000
0100
0000
1000
0000
0000
0001
0000
0001
,
0010
0000
0010
0100
0000
0100
1000
0000
1000
0001
0000
0001
,
0100
0000
0010
0000
1000
0000
0100
0000
0000
0010
0000
0001
,
1000
0000
0010
0000
0100
0000
0001
0000
0000
0010
0000
0100
,
1000
0000
0001
0000
0100
0000
0010
0000
0000
1000
0000
0010
,
0100
0000
0001
0000
1000
0000
0100
0000
0000
0000
0000
0000
,
0000
0000
0000
0000
0000
0000
2002
0000
0000
3003
0000
1000
,
0010
0000
0010
0001
0000
1000
0010
0000
0010
0001
0000
0001
,
1000
0000
0000
0100
0000
0000
1100
0000
0000
0010
0000
0100
,
0010
0000
0000
1000
0000
0000
1001
0000
0000
1000
0000
0001
,
0010
0000
0000
0100
0000
0000
0110
0000
0000
0100
0000
1000
,
0010
0000
0010
0001
0000
1000
0010
0000
0010
0100
0000
0100
,
0001
0000
0000
1000
0000
0000
1001
0000
0000
1000
0000
0100
,
1000
0001
0101
0100
,
0110
0000
0000
1001
0000
0000
0110
0000
0000
1000
0000
0001
,
1000
0000
0000
0010
0000
0100
0010
0000
1000
0001
0000
1000
,
0001
0000
0000
0010
0000
0100
0010
0000
0000
0100
0000
1000
,
0001
0000
0000
0100
0000
0001
0010
0000
0010
0100
0000
0100
,
1000
0010
0220
0300
,
2000
0000
0000
3030
0000
1000
0100
0000
0100
0010
0000
0010
,
0001
0100
0202
0003
,
0020
0000
0000
0030
0000
0000
0002
0000
0000
0303
1000
0100
,
1000
0000
1000
0001
0000
0001
0100
0000
0100
0010
0000
0010
,
1000
0000
1000
0100
0000
0100
0010
0000
0010
0001
0000
0001
,
1000
0000
0100
0000
0010
0000
0001
0000
1000
0001
0000
0000
,
0100
0000
0010
0000
1000
0000
0200
0000
0000
0300
0000
0000
,
0000
0000
0000
0000
0000
0000
2002
0000
0000
3003
0000
1000
,
0010
0000
0010
0001
0000
1000
0010
0000
0010
0001
0000
0001
,
1000
0000
0000
0100
0000
0000
1100
0000
0000
0010
0000
0100
,
0001
0000
0000
1000
0000
0000
1010
0000
0000
0100
0000
0001
,
0100
0000
0000
0010
0000
0000
1001
0000
0000
0100
0000
0001
,
0010
0000
0010
1000
0000
0001
0010
0000
0010
1000
0000
1000
,
0001
0000
0000
0100
0000
0000
0101
0000
0000
0010
1000
0001
,
0010
0100
1001
0100
,
0002
0000
0000
0010
0000
0000
1000
0000
0000
0013
0000
0001
,
1000
0000
0010
0100
0000
0001
1000
0000
0010
0100
0000
0001
,
2000
0000
0000
0100
0000
0000
0010
0000
0000
3001
0000
0001
,
0010
0000
0010
0100
0000
0100
1000
0000
1000
0001
0000
0001
,
0000
0000
0000
0000
0000
0000
2002
0000
0000
3003
0000
1000
,
0010
0000
0010
0001
0000
1000
0010
0000
0010
0001
0000
0001
,
1000
0000
0000
0100
0000
0000
1100
0000
0000
1000
0010
0100
,
0002
2000
0000
3003
;

//---------------dance-single - ----------------
#NOTEDATA:;
#CHARTNAME:;
#STEPSTYPE:dance-single;
#DESCRIPTION:;
#CHARTSTYLE:;
#DIFFICULTY:Medium;
#METER:6;
#RADARVALUES:0.300037,0.353675,0.317020,0.277393,0.126808,265.000000,225.000000,40.000000,35.000000,0.000000,0.000000,0.000000,0.000000,0.000000,0.300037,0.353675,0.317020,0.277393,0.126808,265.000000,225.000000,40.000000,35.000000,0.000000,0.000000,0.000000,0.000000,0.000000;
#CREDIT:;
#NOTES:
0000
0000
0000
0000
,
0000
0000
0000
0000
,
0000
0000
0000
0000
,
0000
0000
0000
0000
,
1000
0000
0000
0001
0000
0000
1000
0000
0000
0010
0000
0100
,
0010
0000
0000
1000
0000
0001
1000
0000
0000
0100
0000
0000
,
0010
0000
0000
0001
0000
0000
1000
0000
0001
1000
0000
0000
,
0010
0000
0100
0010
0000
0000
1000
0000
0000
0100
0000
0000
,
0010
0001
0200
0000
,
0310
0000
1000
0001
,
0100
0010
2000
0000
,
3001
0000
0010
0000
,
0100
0000
1000
0001
0000
0000
1000
0000
0001
1000
0000
0000
,
0010
0000
0000
0100
0000
0000
0001
0000
1000
0001
0000
0000
,
0010
0000
0000
0100
0000
0000
1000
0000
0000
0001
0000
1000
,
0001
0000
0000
0100
0000
0010
0100
0000
0000
0010
0000
0000
,
0100
0001
2000
0000
,
3010
0000
0100
0001
,
0010
0100
0020
0000
,
0031
0000
1000
0000
,
0010
0000
0000
0100
0000
0000
0001
0000
0000
1000
0000
0001
,
1000
0000
0000
0010
0000
0000
0100
0000
0000
0001
0000
1000
,
0001
0010
0100
0010
,
0001
0000
0001
1000
0000
1000
0001
0000
0001
1000
0000
1000
,
0001
0000
0000
0100
0000
0000
0010
0000
0000
1000
0000
1000
,
0001
0000
0000
0010
0000
0000
0100
0000
0000
1000
0000
1000
,
0001
0000
0000
0100
0000
0000
0010
0000
0000
1000
0000
0001
,
1000
0010
0100
0000
,
0000
0000
0000
0000
0000
0000
2002
0000
0000
0003
3000
0000
,
1100
1100
1001
1001
,
0020
0130
1001
0000
,
0020
0130
1001
0000
,
0220
0330
2002
3003
,
0101
0101
1001
1001
,
0020
0130
1001
0000
,
0020
0000
0000
0100
0030
0000
1001
0000
0000
0000
0000
0000
,
0001
0000
0000
1000
0000
0000
0001
0000
0000
0010
0000
0100
,
0010
0000
0000
0100
0000
1000
0001
0000
0000
1000
0000
0000
,
0010
0000
0000
0100
0000
0001
0100
0000
0000
0010
0000
1000
,
0010
0000
0000
0100
0000
0001
1000
0000
0000
0010
0000
0100
,
0010
1000
0200
0000
,
0310
0000
0001
1000
,
0010
0100
0002
0000
,
1003
0000
0020
0000
,
0130
0000
0000
0001
0000
0000
0010
0000
0100
0010
0000
0100
,
0010
0000
0000
0100
0000
0000
1000
0000
0001
1000
0000
0001
,
1000
0010
0100
0001
,
1000
0010
0100
0000
,
0000
0000
2002
3003
,
1100
1100
0101
0101
,
1001
2002
3003
0000
,
0110
0220
0330
0000
,
0010
0100
2002
3003
,
0101
0101
1001
1001
,
0020
0130
1001
0000
,
0020
0130
1001
0000
,
0020
0000
0130
0000
,
1000
0000
0001
1000
0000
0000
0001
0000
1000
0001
0000
0000
,
2000
0000
3001
0000
,
0010
0000
0100
0010
0000
0000
0100
0000
1000
0001
0000
0000
,
0000
0000
2002
3003
,
0110
1010
0110
0101
,
1001
2002
3003
0000
,
0011
2200
0000
3300
;

//---------------dance-single - ----------------
#NOTEDATA:;
#CHARTNAME:;
#STEPSTYPE:dance-single;
#DESCRIPTION:;
#CHARTSTYLE:;
#DIFFICULTY:Easy;
#METER:4;
#RADARVALUES:0.243426,0.328413,0.166435,0.206063,0.000000,215.000000,194.000000,21.000000,26.000000,0.000000,0.000000,0.000000,0.000000,0.000000,0.243426,0.328413,0.166435,0.206063,0.000000,215.000000,194.000000,21.000000,26.000000,0.000000,0.000000,0.000000,0.000000,0.000000;
#CREDIT:;
#NOTES:
// measure 0
0000
0000
0000
0000
,  // measure 1
0000
0000
0000
0000
,  // measure 2
0000
0000
0000
0000
,  // measure 3
0000
0000
0000
0000
,  // measure 4
0010
0010
0100
0100
,  // measure 5
0010
0010
1000
0100
,  // measure 6
0010
0001
0100
0100
,  // measure 7
0010
0010
1000
0001
,  // measure 8
0100
0010
2000
0000
,  // measure 9
3100
0000
0010
0100
,  // measure 10
0010
0001
0200
0000
,  // measure 11
0310
0000
0000
0000
,  // measure 12
1000
1000
0100
0100
,  // measure 13
0001
0010
1000
0100
,  // measure 14
0010
0001
0100
0100
,  // measure 15
0010
0010
1000
0100
,  // measure 16
0010
0001
0200
0000
,  // measure 17
0320
0000
1030
0100
,  // measure 18
0010
0001
2000
0000
,  // measure 19
3002
0000
0103
0000
,  // measure 20
0010
1000
0010
0010
,  // measure 21
1000
0100
1000
1000
,  // measure 22
0001
0010
0001
0001
,  // measure 23
1000
1000
0010
0010
,  // measure 24
0100
0001
1000
1000
,  // measure 25
0010
0100
0010
0010
,  // measure 26
1000
0100
0010
0001
,  // measure 27
0100
0010
0100
0000
,  // measure 28
0000
0000
2002
3003
,  // measure 29
1000
0100
1100
1100
,  // measure 30
0001
1000
0001
0000
,  // measure 31
0100
0010
0100
0000
,  // measure 32
0220
0330
2002
3003
,  // measure 33
0001
0100
0101
0101
,  // measure 34
1000
0001
1000
0000
,  // measure 35
0010
0100
0001
0000
,  // measure 36
0010
0100
0010
0100
,  // measure 37
1000
0010
0001
0010
,  // measure 38
1000
0100
0001
0100
,  // measure 39
1000
0010
0001
0100
,  // measure 40
0010
1000
0200
0000
,  // measure 41
0310
0000
0001
1000
,  // measure 42
0010
0100
0002
0000
,  // measure 43
1003
0000
0100
0000
,  // measure 44
0010
0001
0100
0100
,  // measure 45
0010
1000
0010
0010
,  // measure 46
1000
0100
0001
0100
,  // measure 47
1000
0100
0001
0000
,  // measure 48
0000
0000
2002
3003
,  // measure 49
1000
0010
1010
1010
,  // measure 50
0001
0010
0100
0000
,  // measure 51
0010
0001
1000
0000
,  // measure 52
0220
0330
2002
3003
,  // measure 53
0001
0010
0011
0011
,  // measure 54
1000
0001
0100
0000
,  // measure 55
0010
1000
0100
0000
,  // measure 56
0020
0000
0130
0000
,  // measure 57
1000
0010
0100
0001
,  // measure 58
0020
0000
0130
0000
,  // measure 59
1000
0100
0010
0001
,  // measure 60
0000
0000
2002
3003
,  // measure 61
0101
1001
1100
1001
,  // measure 62
0100
0010
0100
0000
,  // measure 63
1001
0220
0000
0330
;

//---------------dance-single - ----------------
#NOTEDATA:;
#CHARTNAME:;
#STEPSTYPE:dance-single;
#DESCRIPTION:;
#CHARTSTYLE:;
#DIFFICULTY:Beginner;
#METER:1;
#RADARVALUES:0.143791,0.227363,0.055479,0.229840,0.000000,127.000000,120.000000,7.000000,29.000000,0.000000,0.000000,0.000000,0.000000,0.000000,0.143791,0.227363,0.055479,0.229840,0.000000,127.000000,120.000000,7.000000,29.000000,0.000000,0.000000,0.000000,0.000000,0.000000;
#CREDIT:;
#NOTES:
// measure 0
0000
0000
0000
0000
,  // measure 1
0000
0000
0000
0000
,  // measure 2
0000
0000
0000
0000
,  // measure 3
0000
0000
0000
0000
,  // measure 4
0010
0000
0100
0000
,  // measure 5
0001
0000
1000
0000
,  // measure 6
0100
0000
0010
0000
,  // measure 7
0001
0000
1000
0000
,  // measure 8
0100
0000
0020
0000
,  // measure 9
0030
0000
0100
0000
,  // measure 10
1000
0000
0002
0000
,  // measure 11
0003
0000
0100
0000
,  // measure 12
0010
0000
1000
0000
,  // measure 13
0100
0000
0010
0000
,  // measure 14
0001
0000
1000
0000
,  // measure 15
0010
0000
0100
0000
,  // measure 16
0001
0000
0020
0000
,  // measure 17
0030
0000
0100
0000
,  // measure 18
1000
0000
0200
0000
,  // measure 19
0300
0000
1000
0000
,  // measure 20
0010
0000
0100
0000
,  // measure 21
0001
0000
0010
0000
,  // measure 22
0100
0000
1000
0000
,  // measure 23
0001
0000
0100
0000
,  // measure 24
0010
0000
1000
0000
,  // measure 25
0100
0000
0010
0000
,  // measure 26
0001
0000
0100
0000
,  // measure 27
0010
0000
1000
0000
,  // measure 28
0000
0000
2002
3003
,  // measure 29
0010
0010
0010
0010
,  // measure 30
0010
0020
0030
0000
,  // measure 31
0100
0200
0300
0000
,  // measure 32
1000
0000
2002
3003
,  // measure 33
0100
0100
0100
0100
,  // measure 34
0100
0200
0300
0000
,  // measure 35
0010
0020
0030
0000
,  // measure 36
0001
0000
0001
0000
,  // measure 37
1000
0000
0100
0000
,  // measure 38
1000
0000
0010
0000
,  // measure 39
1000
0000
0001
0000
,  // measure 40
0100
0000
0020
0000
,  // measure 41
0030
0000
1000
0000
,  // measure 42
0100
0000
0020
0000
,  // measure 43
0030
0000
0000
0000
,  // measure 44
0001
0001
0001
0000
,  // measure 45
1000
1000
1000
0000
,  // measure 46
0100
0000
0010
0000
,  // measure 47
0100
0000
0010
0000
,  // measure 48
0000
0000
2002
3003
,  // measure 49
0010
0010
0010
0010
,  // measure 50
0010
0020
0030
0000
,  // measure 51
0100
0200
0300
0000
,  // measure 52
1000
0000
2002
3003
,  // measure 53
0001
0001
0001
0001
,  // measure 54
0001
0002
0003
0000
,  // measure 55
1000
2000
3000
0000
,  // measure 56
0020
0000
0030
0000
,  // measure 57
0100
0000
0001
0000
,  // measure 58
2000
0000
3000
0000
,  // measure 59
0100
0000
0010
0000
,  // measure 60
0000
0000
2002
3003
,  // measure 61
0010
0010
0010
0010
,  // measure 62
0010
0020
0030
0000
,  // measure 63
0110
0220
0000
0330
;
