#VERSION:0.83;
#TITLE:Bad Guy;
#SUBTITLE:;
#ARTIST:Billie Eilish;
#TITLETRANSLIT:;
#SUBTITLETRANSLIT:;
#ARTISTTRANSLIT:;
#GENRE:When We All Fall Asleep, Where Do We Go?;
#ORIGIN:;
#CREDIT:;
#BANNER:Bad Guy-bn.png;
#BACKGROUND:Bad Guy-bg.png;
#PREVIEWVID:Bad Guy-preview.avi;
#JACKET:Bad Guy-jacket.png;
#CDIMAGE:;
#DISCIMAGE:;
#LYRICSPATH:;
#CDTITLE:;
#MUSIC:Bad Guy.mp3;
#OFFSET:0.003000;
#SAMPLESTART:120.876236;
#SAMPLELENGTH:14.222229;
#SELECTABLE:YES;
#DISPLAYBPM:135.000000;
#BPMS:0.000=135.000,
123.000=540.000,
125.625=135.000,
189.000=270.000,
191.000=135.000,
251.000=540.000,
253.625=135.000;
#STOPS:93.000=0.444,
108.000=0.444,
123.000=1.333,
123.125=0.083,
123.250=0.097,
123.375=0.097,
123.500=0.097,
123.625=0.097,
123.750=0.097,
123.875=0.097,
124.000=0.097,
124.125=0.097,
124.250=0.097,
124.375=0.097,
124.500=0.097,
124.625=0.097,
124.750=0.097,
124.875=0.097,
125.000=0.097,
125.125=0.097,
125.250=0.097,
125.375=0.097,
125.500=0.097,
125.625=0.722,
189.000=0.056,
189.250=0.056,
189.500=0.056,
189.750=0.056,
190.000=0.111,
190.500=0.111,
220.000=0.444,
251.000=1.333,
251.125=0.083,
251.250=0.097,
251.375=0.097,
251.500=0.097,
251.625=0.097,
251.750=0.097,
251.875=0.097,
252.000=0.097,
252.125=0.097,
252.250=0.097,
252.375=0.097,
252.500=0.097,
252.625=0.097,
252.750=0.097,
252.875=0.097,
253.000=0.097,
253.125=0.097,
253.250=0.097,
253.375=0.097,
253.500=0.097,
253.625=0.722;
#DELAYS:;
#WARPS:;
#TIMESIGNATURES:0.000=4=4,
92.000=3=4,
95.000=4=4,
107.000=3=4,
110.000=4=4,
122.000=5=4,
127.000=4=4,
219.000=3=4,
222.000=4=4,
250.000=5=4,
255.000=4=4;
#TICKCOUNTS:0.000=2;
#COMBOS:0.000=1;
#SPEEDS:0.000=1.000=0.000=0;
#SCROLLS:0.000=1.000;
#FAKES:;
#LABELS:0.000=Song Start;
#LASTSECONDHINT:149.360672;
#BGCHANGES:0.000=Bad Guy-video.avi=1.000=1=0=0=StretchNoLoop==CrossFade==,
99999=-nosongbg-=1.000=0=0=0 // don't automatically add -songbackground-
;
#KEYSOUNDS:;
#ATTACKS:
;

//---------------dance-single - ----------------
#NOTEDATA:;
#CHARTNAME:;
#STEPSTYPE:dance-single;
#DESCRIPTION:;
#CHARTSTYLE:;
#DIFFICULTY:Challenge;
#METER:9;
#RADARVALUES:0.543132,0.503939,0.776450,0.006694,0.006694,568.000000,452.000000,116.000000,1.000000,0.000000,0.000000,0.000000,0.000000,0.000000,0.543132,0.503939,0.776450,0.006694,0.006694,568.000000,452.000000,116.000000,1.000000,0.000000,0.000000,0.000000,0.000000,0.000000;
#CREDIT:;
#DISPLAYBPM:135.000000;
#NOTES:
0000
0000
0000
0000
,
0000
0000
0000
0000
,
0000
0000
0000
0000
,
0000
0000
0000
0000
,
1000
0000
0001
0010
0100
1000
0000
0010
,
0000
0110
0000
1000
0001
1000
0020
0000
,
0130
0000
0001
1000
0010
0100
0000
0101
,
0000
1000
1000
1000
,
1010
0000
1100
0000
0000
1001
0000
1100
,
0000
0110
0000
0101
0000
1001
0011
0000
,
1001
0000
0101
0000
0000
0110
0000
1010
,
0000
1100
0000
0110
0000
0011
1001
0000
,
0101
0000
0110
0000
0000
1010
0000
1100
,
0000
0110
0000
1001
0000
0101
0011
0000
,
1001
0000
0101
0000
0000
0110
0000
1100
,
0000
0101
0101
0000
0000
0000
1001
0000
,
1010
0000
0101
0000
1000
0101
0000
0011
,
0000
1100
0000
1010
0000
1001
0011
0000
,
1001
0000
0110
0000
0001
1100
0000
0110
,
0000
0101
0000
1010
0000
0110
1001
0000
,
1010
0000
1001
0000
1000
0110
0000
0011
,
0000
1001
0000
0101
0000
1010
1001
0000
,
0110
0000
0101
0000
0001
1100
0000
1010
,
0000
1000
0101
0001
0010
0100
1001
0000
,
1100
0000
1000
0001
1000
0100
1001
0000
,
0101
0000
1000
0001
1000
0010
1001
0000
,
1010
0000
0001
0010
0001
1000
0101
0000
,
1001
0000
0001
1000
1010
0000
1001
0000
,
1000
0001
1000
0100
1001
0000
0110
0000
,
0100
0001
1000
0010
0110
0000
1010
0000
,
0001
0010
0100
1000
0011
0000
1100
0000
,
0000
0000
0000
0000
0000
0000
1000
0010
,
0001
0010
1000
0010
0001
0010
1000
0100
,
0001
0100
1000
0100
0001
0100
1000
0010
,
0100
0010
1000
0010
0100
0010
1000
0001
,
0100
0001
1000
0001
0100
0001
1000
0010
,
0001
0010
1000
0100
0001
0100
1000
0010
,
0100
0010
1000
0100
0010
0100
1000
0010
,
0100
0010
0001
0010
0100
0010
1000
0000
,
0100
0001
0100
1000
,
1100
0000
0000
0001
0101
0101
0000
0100
,
0110
0010
0000
1000
1001
1001
0100
0000
,
0101
0000
0000
0010
0110
0110
0000
1000
,
1001
0001
0000
0100
0110
0110
0001
0000
,
1001
0000
0000
0010
1010
1010
0000
1000
,
1100
0100
0000
0010
0110
0110
1000
0000
,
1001
0000
0000
0010
0110
0100
0000
0100
,
0100
0000
0000
0000
0001
0100
0001
0100
0001
0000
1000
0000
0100
0000
0000
0000
,
1001
0000
0010
1000
0001
1000
0100
1000
,
0001
1000
0010
0100
0001
0000
0010
0000
,
1001
0000
0010
0001
0010
0100
0010
1000
,
0010
0100
0010
0001
0010
0000
0001
0000
,
0101
0000
1000
0100
0001
0100
0010
0100
,
1000
0100
0001
0100
0010
0000
0001
0000
,
0101
0000
0000
1000
0001
1000
0000
0100
,
0100
1000
0100
0010
1001
0000
0101
0000
,
1000
0010
0100
0001
1010
0000
1100
0000
,
0001
1000
0001
0100
0110
0000
1001
0000
,
0100
0010
1000
0100
0011
0000
1100
0000
,
0010
0000
0101
0100
0010
0000
1001
0000
,
0010
1000
0001
1000
0010
0000
1001
0000
,
0100
0001
1000
0001
0010
0000
0110
0000
,
0100
1000
0001
1000
0010
0000
1001
0000
,
0000
0000
0000
0000
0000
0000
0001
0010
,
0100
0010
1000
0010
0100
0010
0001
0100
,
0010
0100
1000
0100
0010
0100
0001
1000
,
0010
1000
0001
1000
0100
1000
0001
0010
,
0100
0010
0001
0010
1000
0010
0001
0100
,
0010
0100
1000
0010
0001
0010
1000
0100
,
0010
0100
0001
0010
1000
0010
0001
0100
,
1000
0001
0010
1000
0001
0100
1000
0100
,
0001
0100
0010
0100
1001
0000
1000
0010
,
0001
0010
0010
1000
1000
0010
0010
0100
,
0001
0100
0100
0010
0010
1000
1000
0100
,
0010
0100
0100
0001
0001
0100
0100
0010
,
0001
1000
1000
0100
0100
0010
0010
0001
,
1000
0010
0010
0100
0100
0001
0001
1000
,
0010
1000
1000
0100
0100
0010
0010
0001
,
1000
0010
0010
1000
1000
0001
0001
0100
,
0010
0100
1000
0000
0000
0000
0000
0000
;

//---------------dance-single - ----------------
#NOTEDATA:;
#CHARTNAME:;
#STEPSTYPE:dance-single;
#DESCRIPTION:;
#CHARTSTYLE:;
#DIFFICULTY:Hard;
#METER:8;
#RADARVALUES:0.436036,0.476663,0.414999,0.147258,0.000000,456.000000,394.000000,62.000000,22.000000,0.000000,0.000000,0.000000,0.000000,0.000000,0.436036,0.476663,0.414999,0.147258,0.000000,456.000000,394.000000,62.000000,22.000000,0.000000,0.000000,0.000000,0.000000,0.000000;
#CREDIT:;
#DISPLAYBPM:135.000000;
#NOTES:
// measure 0
0000
0000
0000
0000
,  // measure 1
0000
0000
0000
0000
,  // measure 2
0000
0000
0000
0000
,  // measure 3
0000
0000
0000
0000
,  // measure 4
1000
0000
0001
0010
0100
1000
0000
0010
,  // measure 5
0000
0110
0000
1000
0001
1000
0020
0000
,  // measure 6
0130
0000
0001
1000
0010
0100
0000
0101
,  // measure 7
0000
1000
1000
1000
,  // measure 8
0100
0000
0010
0000
0000
0001
0000
1000
,  // measure 9
0000
0010
0000
0100
0000
0001
0010
0100
,  // measure 10
1000
0000
0010
0000
0000
1000
0000
0001
,  // measure 11
0000
1000
0000
0100
0000
1000
0010
1000
,  // measure 12
0001
0000
0010
0000
0000
0100
0000
1000
,  // measure 13
0000
0001
0000
0100
0000
0010
1000
0001
,  // measure 14
0010
0000
0100
0000
0000
1000
0000
0010
,  // measure 15
0000
1000
0100
0000
0000
0000
1001
0000
,  // measure 16
0001
0000
1001
0000
0001
0010
0100
0010
,  // measure 17
0000
0001
0000
1000
0000
0001
0100
0000
,  // measure 18
0010
0000
1001
0000
0100
0010
0100
0001
,  // measure 19
0000
1000
0000
0010
0000
0100
0010
0000
,  // measure 20
1000
0000
1100
0000
1000
0100
0010
0001
,  // measure 21
0000
0100
0000
0010
0000
0100
0001
0000
,  // measure 22
0010
0000
0011
0000
0001
0010
0100
1000
,  // measure 23
0000
0001
1000
0000
0000
0000
1001
0000
,  // measure 24
0101
0000
1000
0100
1000
0001
0100
0000
,  // measure 25
1001
0000
0100
0001
1000
0001
0100
0000
,  // measure 26
1001
0000
0010
1000
0001
1000
0010
0000
,  // measure 27
1001
0000
1000
0010
1000
0000
1100
0000
,  // measure 28
0100
1000
0001
1000
0100
0000
0101
0000
,  // measure 29
0100
0001
1000
0001
0010
0000
1010
0000
,  // measure 30
0010
1000
0001
1000
0100
0000
0101
0000
,  // measure 31
0000
0000
0000
0000
0000
0000
1000
0020
,  // measure 32
0000
1030
0001
0010
0001
1000
0100
0020
,  // measure 33
0000
0130
1000
0010
1000
0100
0010
0002
,  // measure 34
0000
0013
0100
1000
0100
0010
0001
0200
,  // measure 35
0000
0301
0010
0100
0010
0001
0100
0020
,  // measure 36
0000
0130
0001
0010
0001
0100
0010
2000
,  // measure 37
0000
3010
0100
0001
0100
0010
1000
0200
,  // measure 38
0000
0310
0001
0010
0000
1100
0000
0101
,  // measure 39
0000
1100
0000
0000
0000
0000
0001
0000
,  // measure 40
0010
0000
0000
0001
0000
1000
0000
0001
,  // measure 41
0000
1000
0000
0001
0100
0000
0010
0000
,  // measure 42
1000
0000
0000
0001
0000
1000
0000
0001
,  // measure 43
0000
0100
0000
0010
1000
0000
0100
0000
,  // measure 44
0010
0000
0000
0001
0000
0010
0000
0100
,  // measure 45
0000
1000
0000
0100
0010
0000
0001
0000
,  // measure 46
1000
0000
0000
0010
0000
0100
0000
0001
,  // measure 47
1000
0000
0000
0011
,  // measure 48
1100
0011
1100
0011
,  // measure 49
1100
0000
0011
1000
0010
0000
1010
0000
,  // measure 50
0101
1010
0101
1010
,  // measure 51
0101
0000
1010
0001
0010
0000
1100
0000
,  // measure 52
0101
1100
0101
1100
,  // measure 53
0101
0000
1100
0001
0010
0000
0011
0000
,  // measure 54
1100
1010
0101
1002
,  // measure 55
0103
0001
0100
0010
1001
0000
1010
0000
,  // measure 56
0010
1000
0001
1000
0010
0000
0110
0000
,  // measure 57
1000
0001
1000
0100
1001
0000
1100
0000
,  // measure 58
0100
1000
0010
0100
0010
0000
0110
0000
,  // measure 59
0100
0000
0100
0001
0010
0000
0011
0000
,  // measure 60
0010
0001
1000
0001
0010
0000
0011
0000
,  // measure 61
0001
0100
0010
1000
0100
0000
1100
0000
,  // measure 62
0100
1000
0001
1000
0010
0000
0110
0000
,  // measure 63
0000
0000
0000
0000
0000
0000
0001
0200
,  // measure 64
0000
0301
0010
0001
0100
0010
1000
0200
,  // measure 65
0000
1300
0010
0100
0010
1000
0100
0020
,  // measure 66
0000
0130
1000
0010
1000
0100
0010
0002
,  // measure 67
0000
0013
0100
1000
0100
0010
0001
0200
,  // measure 68
0000
0301
0010
0100
0010
0001
0100
0020
,  // measure 69
0000
0130
0001
0010
0001
0100
0010
2000
,  // measure 70
0000
3100
0010
0100
0000
1100
0000
0101
,  // measure 71
0000
1100
0000
0000
1001
0000
0100
0002
,  // measure 72
0000
0013
0010
0100
0100
0010
0001
2000
,  // measure 73
0000
3100
0100
0010
0010
0100
1000
0020
,  // measure 74
0000
0130
0100
0010
0010
0100
0100
0001
,  // measure 75
1000
0001
0100
0010
1000
0001
2000
0000
,  // measure 76
0000
3100
0010
0100
0010
0100
0010
0002
,  // measure 77
0000
1003
0001
1000
0001
1000
0010
0200
,  // measure 78
0000
0301
1000
0001
0000
0101
0000
1100
,  // measure 79
0000
0101
0000
0000
0000
0000
0000
0000
;

//---------------dance-single - ----------------
#NOTEDATA:;
#CHARTNAME:;
#STEPSTYPE:dance-single;
#DESCRIPTION:;
#CHARTSTYLE:;
#DIFFICULTY:Medium;
#METER:6;
#RADARVALUES:0.358582,0.371324,0.421692,0.000000,0.000000,375.000000,312.000000,63.000000,0.000000,0.000000,0.000000,0.000000,0.000000,0.000000,0.358582,0.371324,0.421692,0.000000,0.000000,375.000000,312.000000,63.000000,0.000000,0.000000,0.000000,0.000000,0.000000,0.000000;
#CREDIT:;
#DISPLAYBPM:135.000000;
#NOTES:
0000
0000
0000
0000
,
0000
0000
0000
0000
,
0000
0000
0000
0000
,
0000
0000
0000
0000
,
0001
1000
0001
0100
,
1000
0000
0100
0000
0001
1000
0001
0000
,
0010
0100
1000
0010
,
0100
0100
0100
0000
,
0001
0001
0010
0010
,
1000
0000
0100
0000
0001
0100
0001
0000
,
0010
0010
0100
0100
,
1000
0000
1000
0000
0010
0100
0010
0000
,
1000
1000
0010
0010
,
0100
0000
0100
0000
0001
0010
0001
0000
,
0010
0010
1000
1000
,
0100
0100
0000
1001
,
0100
1001
0010
1001
,
0100
0000
1001
0000
0001
1000
0001
0000
,
0010
1001
0100
1001
,
0010
0000
1001
0000
1000
0001
1000
0000
,
0010
0110
1000
0110
,
0001
0000
0110
0000
1000
0001
0100
0000
,
0010
1001
0100
0110
,
0001
1001
0000
0010
,
1000
0000
0100
1000
0100
0000
0010
0000
,
0001
0000
0100
0001
0100
0000
0010
0000
,
1000
0000
0001
1000
0001
0000
0010
0000
,
0100
0000
1000
0001
,
0010
0100
0010
0000
0100
0000
1000
0000
,
0001
1000
0001
0000
0100
0000
0010
0000
,
1000
0010
1000
0000
0001
0000
0100
0000
,
0000
0000
0000
1000
,
1010
0001
1010
0001
,
1100
0001
1100
0010
,
0101
0010
0101
1000
,
0101
1000
0101
1000
,
0011
1000
0011
1000
,
0101
1000
0101
1000
,
0011
1000
0110
0001
,
1100
0001
1010
0010
,
0100
0000
0000
0001
0000
0010
0000
0100
,
0000
1000
0000
0001
1000
0000
0010
0000
,
0100
0000
0000
0001
0000
0010
0000
0100
,
0000
1000
0000
0001
1000
0000
0100
0000
,
0010
0000
0000
0001
0000
1000
0000
0010
,
0000
0100
0000
0001
1000
0000
0010
0000
,
0100
0000
0000
0001
0000
1000
0000
0001
,
0100
0000
0000
1000
,
0100
0001
1000
0010
,
0001
0000
1000
0100
0001
0000
1000
0000
,
0010
0001
1000
0100
,
0001
0000
1000
0010
0001
0000
0001
0000
,
0100
1000
0001
0010
,
1000
0000
0001
0100
1000
0000
0001
0000
,
0010
0000
1000
0000
0001
0000
0100
1000
,
0100
0000
0001
1001
,
0001
0001
0001
0000
0010
0000
0110
0000
,
0100
0100
0100
0000
1000
0000
1001
0000
,
1000
1000
1000
0000
0010
0000
0110
0000
,
0000
0000
0001
0010
0001
0000
0010
0000
,
0100
1000
0100
0000
1000
0000
1000
0000
,
0010
1000
0010
0000
0100
0000
0100
0000
,
0001
0100
0001
0000
1000
0000
1001
0000
,
0000
0000
0000
0010
,
1001
0010
1001
0100
,
1001
0100
1001
0100
,
1010
0100
1010
0100
,
1001
0100
1001
0100
,
0110
0100
0110
0100
,
1001
0100
1001
0100
,
0011
0100
0011
0100
,
0001
0100
1001
0010
,
1100
0010
0101
0010
,
1100
0010
0101
0100
,
0011
0100
1010
0100
,
0011
0100
1010
1000
,
0101
0001
1010
0001
,
1100
1000
0011
0100
,
1010
0010
0101
0100
,
1000
0100
0000
0000
;

//---------------dance-single - ----------------
#NOTEDATA:;
#CHARTNAME:;
#STEPSTYPE:dance-single;
#DESCRIPTION:;
#CHARTSTYLE:;
#DIFFICULTY:Easy;
#METER:4;
#RADARVALUES:0.254354,0.344800,0.127177,0.053548,0.000000,266.000000,247.000000,19.000000,8.000000,0.000000,0.000000,0.000000,0.000000,0.000000,0.254354,0.344800,0.127177,0.053548,0.000000,266.000000,247.000000,19.000000,8.000000,0.000000,0.000000,0.000000,0.000000,0.000000;
#CREDIT:;
#DISPLAYBPM:135.000000;
#NOTES:
0000
0000
0000
0000
,
0000
0000
0000
0000
,
0000
0000
0000
0000
,
0000
0000
0000
0000
,
0001
0000
0010
0000
,
0100
1000
0010
0100
,
0001
0000
1000
0000
,
0100
0100
0100
0000
,
0010
0010
0000
0001
,
0100
0001
0010
0000
,
0100
0100
0000
1000
,
0100
1000
0010
0000
,
0100
0100
0000
0010
,
1000
0100
1000
0000
,
0010
0010
0000
0100
,
0001
1000
0000
0000
,
0001
0010
0000
0001
,
1000
0010
0100
0001
,
1000
0100
0000
1000
,
0010
0001
0010
1000
,
0100
0010
0000
0001
,
1000
0001
0100
0010
,
1000
0001
0000
1000
,
0100
0000
0000
1000
,
0010
0001
0100
1000
,
0010
0001
0100
1000
,
0010
0001
0100
1000
,
0010
0000
1000
0001
,
0100
0110
0001
1000
,
0010
0110
1000
0001
,
0010
0110
0001
1000
,
0000
0000
0000
0002
,
0003
0010
0100
1000
,
0100
0010
0001
0200
,
0300
0010
1000
0001
,
0010
0001
1000
0200
,
0300
0010
0100
1000
,
0010
1000
0001
0020
,
0030
0100
0100
1000
,
0100
0001
0000
0000
,
0010
0000
0000
0000
0100
0100
0000
0000
,
0010
0000
0000
0000
0100
0100
0000
0000
,
0001
0000
0000
0000
1000
1000
0000
0000
,
0001
0000
0000
0000
1000
1000
0000
0000
,
0100
0000
0000
0000
0010
0010
0000
0000
,
0100
0000
0000
0000
0010
0010
0000
0000
,
0001
0000
0000
0000
0001
0001
0000
0000
,
0000
0000
0000
0001
,
0010
0000
0001
1000
,
0010
0100
0110
1000
,
0100
0000
0010
0001
,
1000
0010
1001
0100
,
0001
0000
0010
0100
,
0010
0001
1010
0100
,
0010
0000
1000
0101
,
0000
0000
0001
0010
,
1000
0100
0001
0010
,
1000
0100
0001
0010
,
1000
0100
0001
0010
,
0000
0100
1000
0010
,
0100
1001
0100
0001
,
0010
1001
0010
0001
,
0100
1001
0100
1000
,
0000
0000
0000
0002
,
0003
1000
0010
1000
,
0100
0010
0100
2000
,
3000
0100
0010
0001
,
0100
0010
0100
0002
,
0003
1000
0010
0001
,
0010
1000
0100
0020
,
0030
0100
1000
0001
,
0100
0001
0000
1000
,
1000
0010
1010
0001
,
0001
0010
0011
1000
,
1000
0100
1100
0001
,
1000
0001
0101
1000
,
0010
0100
1001
0100
,
0001
0010
0110
0001
,
1000
0010
0100
0101
,
0101
0101
0000
0000
;

//---------------dance-single - ----------------
#NOTEDATA:;
#CHARTNAME:;
#STEPSTYPE:dance-single;
#DESCRIPTION:;
#CHARTSTYLE:;
#DIFFICULTY:Beginner;
#METER:2;
#RADARVALUES:0.203675,0.474404,0.281128,0.013387,0.000000,213.000000,171.000000,42.000000,2.000000,0.000000,0.000000,0.000000,0.000000,0.000000,0.203675,0.474404,0.281128,0.013387,0.000000,213.000000,171.000000,42.000000,2.000000,0.000000,0.000000,0.000000,0.000000,0.000000;
#CREDIT:;
#DISPLAYBPM:135.000000;
#NOTES:
0000
0000
0000
0000
,
0000
0000
0000
0000
,
0000
0000
0000
0000
,
0000
0000
0000
0000
,
0001
0000
0001
0000
,
1000
0000
1000
0000
,
0010
0000
0100
0000
,
0010
0000
1000
0000
,
0100
0000
0000
0010
,
0000
0010
0000
0010
,
0010
0000
0000
0001
,
0000
0001
0000
0001
,
0001
0000
0000
1000
,
0000
1000
0000
1000
,
1000
0000
0000
0010
,
0000
0010
0000
0100
,
0000
1001
0000
0100
,
0000
0010
0000
0100
,
0000
1001
0000
0001
,
0000
1000
0000
0001
,
0000
1001
0000
0010
,
0000
1000
0000
0010
,
0000
1001
0000
0100
,
0100
0000
0000
0001
,
0001
0000
0000
0010
,
0010
0000
0000
0100
,
0100
0000
0000
1000
,
1000
0000
1001
1001
,
0000
0000
0110
0110
,
0000
0000
1001
1001
,
0000
0000
0110
0110
,
0000
0000
0000
0000
,
1000
0000
0001
0000
,
0100
0000
0110
0000
,
0001
0000
1000
0000
,
0010
0000
0110
0000
,
1000
0000
0001
0000
,
1000
0000
0100
0000
,
0001
0000
1000
0000
,
0001
0000
0100
0100
,
0100
0000
0010
0000
,
0010
0000
1000
1000
,
1000
0000
0001
0000
,
0010
0000
0100
0100
,
0100
0000
1000
0000
,
0010
0000
0100
0100
,
0100
0000
0001
0001
,
0000
0000
0000
0010
,
0010
0010
0010
0010
,
0010
0010
0010
0010
,
0010
0010
0010
0010
,
0010
0010
0000
0100
,
0100
0100
0100
0100
,
0100
0100
0100
0100
,
0100
0100
0100
0100
,
0100
0000
1001
0000
,
0110
0000
1001
0000
,
0110
0000
1001
0000
,
0110
0000
1001
0000
,
0000
0000
1001
1001
,
1001
1001
1001
1001
,
1001
1001
1001
1001
,
1001
1001
1001
1001
,
0000
0000
0000
0010
,
0000
1000
0000
0001
,
0000
0100
0100
0000
,
0001
0000
0010
0000
,
0100
0100
0100
0100
,
0000
1000
0000
0010
,
0000
0100
0100
0000
,
0001
0000
0010
0000
,
0100
0000
1001
0000
,
0000
0110
0110
0000
,
0000
1001
1001
0000
,
0000
0110
0110
0000
,
0001
0001
0001
0002
,
0000
0000
0000
0003
,
0000
0000
0010
0020
,
0000
0000
0000
0030
;
