#TITLE:Aurora;
#SUBTITLE:;
#ARTIST:Ryan Henwood;
#TITLETRANSLIT:;
#SUBTITLETRANSLIT:;
#ARTISTTRANSLIT:;
#GENRE:Lovers in a Dangerous Spacetime;
#CREDIT:;
#BANNER:Aurora-bn.png;
#BACKGROUND:Aurora-bg.png;
#LYRICSPATH:;
#CDTITLE:;
#MUSIC:Aurora.mp3;
#OFFSET:-0.000530;
#SAMPLESTART:16.006739;
#SAMPLELENGTH:15.999998;
#LASTBEATHINT:259.968933;
#SELECTABLE:YES;
#BPMS:0.000000=120.000000
;
#STOPS:
;
#BGCHANGES:0.000=Aurora-video.avi=1.000=1=0=0=StretchNoLoop==CrossFade==,
99999=-nosongbg-=1.000=0=0=0 // don't automatically add -songbackground-
;
#KEYSOUNDS:;
#ATTACKS:;

//---------------dance-single - ----------------
#NOTES:
     dance-single:
     :
     Hard:
     7:
     0.307615,0.438269,0.098915,0.304354,0.007609,283.000000,270.000000,13.000000,40.000000,0.000000,0.000000,0.307615,0.438269,0.098915,0.304354,0.007609,283.000000,270.000000,13.000000,40.000000,0.000000,0.000000:
0000
0000
0000
0000
,
0000
0000
0000
0000
,
0000
0000
0000
0000
,
0000
0000
0000
0000
,
0000
0000
0000
0000
,
0000
0000
0000
0000
,
0000
0000
0000
0000
,
0000
0000
0000
0000
,
2002
0000
3003
0100
0010
0000
0000
0000
,
2002
0000
3003
0100
0010
0000
0110
0000
,
2002
0000
3003
0001
1000
0000
0000
0000
,
2002
0000
3003
1000
0001
0000
0110
0000
,
2002
0000
3003
0001
0010
0000
0000
0000
,
2002
0000
3003
0001
0010
0000
1100
0000
,
2002
0000
3003
1000
0100
0000
0000
0000
,
2002
0000
0000
0000
3003
0000
1000
0000
0100
0000
0000
0000
1000
0001
1000
0001
,
2000
0010
0010
0010
3010
0100
0001
0100
,
0001
0010
0100
1000
,
0002
0010
0010
0010
0013
0100
1000
0100
,
1000
0010
0100
0001
,
2000
0100
0100
0100
3100
0010
0001
1000
,
0010
0100
0001
1000
,
0002
0100
0100
0100
0103
0010
1000
0100
,
0010
0001
0100
0001
0010
0100
1000
0000
,
1001
0001
1000
0000
0010
1000
0100
1000
,
0001
0010
0100
2000
0000
0100
0100
3100
,
1000
0010
0100
0000
0010
1000
0001
0100
,
0010
1000
0100
0020
0000
0100
0100
0130
,
0100
1000
0001
0000
0100
0010
1000
0001
,
0010
0100
1000
0002
0000
0100
0100
0103
,
0010
1000
0100
0000
1000
0010
0001
0010
,
2000
0100
3100
0000
1000
0010
0001
0010
,
2000
0100
3100
0000
0010
0001
0100
0001
,
0010
0100
1000
0002
0000
0100
0100
0103
,
0010
1000
0100
0000
1000
0100
0010
0001
,
1000
0001
0100
0020
0000
1000
1000
1030
,
0001
0100
0001
0000
1000
0010
0100
0001
,
0010
0100
0010
0002
0000
1000
1000
1003
,
0100
0010
0001
0000
1000
0010
0100
0001
,
0010
0100
0010
0000
0001
1000
0010
0100
,
1001
0001
1000
0001
0100
0001
1000
0001
,
0010
0001
1000
0001
0010
0001
1000
0001
,
0100
0010
1000
0001
0100
0010
0100
0001
,
1000
0010
1000
0001
1000
0100
1000
0001
,
0100
0010
1000
0100
0010
0001
0100
0010
,
1000
0100
0010
0100
0001
0100
0010
0100
,
1000
0010
0100
0001
1000
0001
1000
0001
,
1000
0100
0010
0001
1000
0001
1000
0001
,
2000
0000
0000
0000
,
0000
0000
0000
0000
,
3002
0000
0000
0000
,
0000
0000
0000
0000
,
0203
0000
0000
0000
,
0000
0000
0000
0000
,
0320
0000
0000
0000
,
0000
0000
0000
0000
,
2030
0000
0000
0000
,
3002
0000
0000
0000
,
2003
0000
0000
0000
,
3002
0000
0000
0000
,
2003
0000
0000
0000
,
3020
0000
0000
0000
,
2030
0000
0000
0000
,
3200
0000
0000
0000
,
0300
0000
0000
0000
;

//---------------dance-single - ----------------
#NOTES:
     dance-single:
     :
     Medium:
     5:
     0.188047,0.267831,0.022827,0.327180,0.000000,173.000000,170.000000,3.000000,43.000000,0.000000,0.000000,0.188047,0.267831,0.022827,0.327180,0.000000,173.000000,170.000000,3.000000,43.000000,0.000000,0.000000:
0000
0000
0000
0000
,
0000
0000
0000
0000
,
0000
0000
0000
0000
,
0000
0000
0000
0000
,
0000
0000
0000
0000
,
0000
0000
0000
0000
,
0000
0000
0000
0000
,
0000
0000
0000
0000
,
0002
0000
0003
1000
0100
0000
0000
0000
,
0002
0000
0003
1000
0001
0000
1000
0000
,
0002
0000
0003
1000
0100
0000
0000
0000
,
0002
0000
0003
1000
0001
0000
1000
0000
,
0200
0000
0300
1000
0001
0000
0000
0000
,
0200
0000
0300
0001
1000
0000
0010
0000
,
0200
0000
0300
0001
1000
0000
0000
0000
,
0200
0000
0300
0010
0100
0000
0010
0000
,
2002
0000
3003
0100
0010
0000
0000
0000
,
2000
0000
3000
0001
1000
0000
0100
0000
,
2002
0000
3003
0100
0010
0000
0000
0000
,
0002
0000
0003
1000
0001
0000
0100
0000
,
2002
0000
3003
0100
0010
0000
0000
0000
,
2000
0000
3000
0001
0010
0000
0100
0000
,
2000
0000
3000
0001
0100
0000
0000
0000
,
0020
0000
0030
1000
0001
0000
0010
0000
,
0001
1000
0001
0000
0020
0000
0030
0000
,
0100
1000
0100
0000
2000
0000
3000
0000
,
0001
0100
0010
0000
2000
0000
3000
0000
,
0001
0010
0100
0000
0020
0000
0030
0000
,
0001
1000
0100
0000
2000
0000
3000
0000
,
0010
1000
0100
0000
0020
0000
0030
0000
,
0001
1000
0010
0000
0100
0000
0100
0000
,
0001
1000
0010
0000
0100
0000
0100
0000
,
0001
1000
0010
0000
0100
0000
0100
0000
,
0001
1000
0000
0002
0000
0000
0003
0000
,
0010
0100
1000
0000
0001
0000
1000
0000
,
0010
0100
0000
0020
0000
0000
0030
0000
,
1000
0001
0100
0000
0010
0000
0100
0000
,
0010
1000
0000
0020
0000
0000
0030
0000
,
1000
0100
0010
0000
0001
0000
1000
0000
,
0001
0010
0100
0000
1000
0000
0001
0000
,
1000
0100
0010
0000
0001
0000
0100
0000
,
0010
1000
0000
0200
0000
0000
0300
0000
,
0010
0001
0100
0000
0010
0000
1000
0000
,
0100
0010
0000
0002
0000
0000
0003
0000
,
1000
0010
0100
0000
0001
0000
1000
0000
,
0010
0100
0000
0002
0000
0000
0003
0000
,
0010
0100
0010
0000
0001
0000
0001
0000
,
1000
0100
0010
0000
0100
0000
0100
0000
,
2000
0000
0000
0000
,
0000
0000
0000
0000
,
3002
0000
0000
0000
,
0000
0000
0000
0000
,
0203
0000
0000
0000
,
0000
0000
0000
0000
,
0320
0000
0000
0000
,
0000
0000
0000
0000
,
2030
0000
0000
0000
,
3002
0000
0000
0000
,
2003
0000
0000
0000
,
3002
0000
0000
0000
,
2003
0000
0000
0000
,
3020
0000
0000
0000
,
2030
0000
0000
0000
,
3200
0000
0000
0000
,
0300
0000
0000
0000
;

//---------------dance-single - ----------------
#NOTES:
     dance-single:
     :
     Easy:
     2:
     0.121742,0.170438,0.007609,0.167395,0.000000,112.000000,111.000000,1.000000,22.000000,0.000000,0.000000,0.121742,0.170438,0.007609,0.167395,0.000000,112.000000,111.000000,1.000000,22.000000,0.000000,0.000000:
0000
0000
0000
0000
,
0000
0000
0000
0000
,
0000
0000
0000
0000
,
0000
0000
0000
0000
,
0000
0000
0000
0000
,
0000
0000
0000
0000
,
0000
0000
0000
0000
,
0000
0000
0000
0000
,
0001
0000
1000
0000
,
0010
0000
0100
0100
,
0001
0000
0010
0000
,
0100
0000
1000
1000
,
0010
0000
0100
0000
,
0001
0000
1000
1000
,
0100
0000
0010
0000
,
0001
0000
0100
0100
,
0010
0000
1000
0000
,
0100
0000
0010
0010
,
0001
0000
1000
0000
,
0010
0000
0100
0100
,
0001
0000
1000
0000
,
0100
0000
0010
0010
,
0100
0000
1000
0000
,
0001
0000
0100
0000
,
1001
0000
0010
0000
,
1000
1000
0200
0300
,
0010
0000
0001
0000
,
0100
0100
0020
0030
,
1000
0000
0001
0000
,
0010
0100
0020
0030
,
0001
0000
1000
0000
,
0001
0000
1000
0000
,
0100
0000
0010
0000
,
0001
0001
0200
0300
,
0010
0000
1000
0000
,
0100
0100
0020
0030
,
0001
0000
1000
0000
,
0010
0010
0200
0300
,
0001
0000
0010
0000
,
0100
1000
0100
0000
,
0010
0000
0001
0000
,
1000
1000
0020
0030
,
0100
0000
0002
0003
,
0010
0010
0200
0300
,
1000
0000
0010
0000
,
0100
0100
0002
0003
,
0010
0000
0100
0000
,
1000
0001
1000
0001
,
2000
0000
0000
0000
,
0000
0000
3000
0000
,
0002
0000
0000
0000
,
0000
0000
0003
0000
,
0200
0000
0000
0000
,
0000
0000
0300
0000
,
0020
0000
0000
0000
,
0000
0000
0030
0000
,
2000
0000
3000
0000
,
0002
0000
0003
0000
,
2000
0000
3000
0000
,
0002
0000
0003
0000
,
2000
0000
3000
0000
,
0020
0000
0030
0000
,
2000
0000
3000
0000
,
0200
0000
0000
0000
,
0300
0000
0000
0000
;

//---------------dance-single - ----------------
#NOTES:
     dance-single:
     :
     Beginner:
     1:
     0.100002,0.121742,0.000000,0.091306,0.000000,92.000000,92.000000,0.000000,12.000000,0.000000,0.000000,0.100002,0.121742,0.000000,0.091306,0.000000,92.000000,92.000000,0.000000,12.000000,0.000000,0.000000:
0000
0000
0000
0000
,
0000
0000
0000
0000
,
0000
0000
0000
0000
,
0000
0000
0000
0000
,
0000
0000
0000
0000
,
0000
0000
0000
0000
,
0000
0000
0000
0000
,
0000
0000
0000
0000
,
0001
0000
1000
0000
,
0010
0000
0100
0000
,
0001
0000
0010
0000
,
0100
0000
1000
0000
,
0010
0000
0100
0000
,
0001
0000
1000
0000
,
0100
0000
0010
0000
,
0001
0000
0100
0000
,
0010
0000
1000
0000
,
0100
0000
0010
0000
,
0001
0000
1000
0000
,
0010
0000
0100
0000
,
0001
0000
1000
0000
,
0100
0000
0010
0000
,
0100
0000
1000
0000
,
0001
0000
0100
0000
,
0001
0000
0010
0000
,
1000
0000
0100
0000
,
0010
0000
0001
0000
,
0100
0000
0010
0000
,
1000
0000
0001
0000
,
0010
0000
0100
0000
,
0001
0000
1000
0000
,
0001
0000
1000
0000
,
0100
0000
0010
0000
,
0001
0000
0100
0000
,
0010
0000
1000
0000
,
0100
0000
0010
0000
,
0001
0000
1000
0000
,
0010
0000
0100
0000
,
0001
0000
0010
0000
,
0100
0000
1000
0000
,
0010
0000
0001
0000
,
1000
0000
0010
0000
,
0100
0000
0001
0000
,
0010
0000
0100
0000
,
1000
0000
0010
0000
,
0100
0000
0001
0000
,
0010
0000
0100
0000
,
1000
0000
0001
0000
,
2000
0000
0000
0000
,
0000
0000
3000
0000
,
0002
0000
0000
0000
,
0000
0000
0003
0000
,
0200
0000
0000
0000
,
0000
0000
0300
0000
,
0020
0000
0000
0000
,
0000
0000
0030
0000
,
2000
0000
3000
0000
,
0002
0000
0003
0000
,
2000
0000
3000
0000
,
0002
0000
0003
0000
,
2000
0000
3000
0000
,
0020
0000
0030
0000
,
2000
0000
3000
0000
,
0200
0000
0000
0000
,
0300
0000
0000
0000
;

//---------------dance-solo - ----------------
#NOTES:
     dance-solo:
     :
     Hard:
     7:
     0.306528,0.438269,0.098915,0.304354,0.007609,282.000000,269.000000,13.000000,40.000000,0.000000,0.000000,0.306528,0.438269,0.098915,0.304354,0.007609,282.000000,269.000000,13.000000,40.000000,0.000000,0.000000:
000000
000000
000000
000000
,
000000
000000
000000
000000
,
000000
000000
000000
000000
,
000000
000000
000000
000000
,
000000
000000
000000
000000
,
000000
000000
000000
000000
,
000000
000000
000000
000000
,
000000
000000
000000
000000
,
200002
000000
300003
010000
000010
000000
000000
000000
,
200002
000000
300003
010000
000010
000000
001100
000000
,
020020
000000
030030
100000
000001
000000
000000
000000
,
020020
000000
030030
100000
000001
000000
011000
000000
,
000220
000000
000330
100000
001000
000000
000000
000000
,
020200
000000
030300
000010
001000
000000
001100
000000
,
200002
000000
300003
100000
010000
000000
000000
000000
,
002200
000000
000000
000000
003300
000000
000001
000000
100000
000000
000000
000000
000100
010000
000100
010000
,
000002
001000
001000
001000
001003
000010
010000
000010
,
010000
001000
010000
000001
,
002000
000100
000100
000100
003100
010000
001000
010000
,
000100
100000
000010
001000
,
000020
000100
000100
000100
000130
000001
001000
000100
,
100000
000001
010000
000010
,
000200
010000
010000
010000
010300
001000
100000
000100
,
001000
000001
100000
000100
010000
000010
100000
000000
,
100001
000001
100000
000000
001000
100000
000100
010000
,
000010
001000
000010
020000
000000
001000
001000
031000
,
000100
000010
010000
000000
001000
000001
000100
001000
,
000100
000010
010000
000200
000000
001000
001000
001000
,
001300
000001
000100
000000
010000
000010
100000
000001
,
001000
000010
010000
002000
000000
000100
000100
003100
,
000001
010000
001000
000000
100000
000100
000001
000100
,
200000
001000
301000
000000
000100
000010
010000
000100
,
002000
000010
003010
000000
010000
001000
000100
001000
,
100000
000001
010000
000200
000000
100000
000000
100300
,
001000
000100
000010
000000
001000
000001
001000
000100
,
100000
000100
001000
000002
000000
100000
100000
100003
,
000010
010000
001000
000000
000100
001000
010000
000100
,
001000
000010
001000
000200
000000
100000
100000
100300
,
001000
000100
000001
000000
000100
000001
010000
000100
,
001000
000001
001000
000000
000100
100000
001000
000100
,
100001
000001
100000
000001
000010
000001
001000
000010
,
010000
001000
000100
001000
000010
001000
000100
001000
,
010000
000010
100000
000001
001000
000100
100000
000001
,
010000
001000
000100
001000
000010
001000
000100
001000
,
010000
000010
001000
000001
010000
000010
001000
000100
,
010000
001000
000100
001000
000010
001000
000100
001000
,
100000
000010
010000
000100
001000
000001
000100
000010
,
100000
000010
010000
000100
001000
000001
000100
000010
,
200000
000000
000000
000000
,
000000
000000
000000
000000
,
300020
000000
000000
000000
,
000000
000000
000000
000000
,
020030
000000
000000
000000
,
000000
000000
000000
000000
,
030002
000000
000000
000000
,
000000
000000
000000
000000
,
200003
000000
000000
000000
,
302000
000000
000000
000000
,
003200
000000
000000
000000
,
000302
000000
000000
000000
,
002003
000000
000000
000000
,
003200
000000
000000
000000
,
020300
000000
000000
000000
,
030020
000000
000000
000000
,
000030
000000
000000
000000
;

//---------------dance-solo - ----------------
#NOTES:
     dance-solo:
     :
     Medium:
     5:
     0.188047,0.267831,0.022827,0.327180,0.000000,173.000000,170.000000,3.000000,43.000000,0.000000,0.000000,0.188047,0.267831,0.022827,0.327180,0.000000,173.000000,170.000000,3.000000,43.000000,0.000000,0.000000:
// measure 0
000000
000000
000000
000000
,  // measure 1
000000
000000
000000
000000
,  // measure 2
000000
000000
000000
000000
,  // measure 3
000000
000000
000000
000000
,  // measure 4
000000
000000
000000
000000
,  // measure 5
000000
000000
000000
000000
,  // measure 6
000000
000000
000000
000000
,  // measure 7
000000
000000
000000
000000
,  // measure 8
000020
000000
000030
001000
000001
000000
000000
000000
,  // measure 9
020000
000000
030000
000010
100000
000000
100000
000000
,  // measure 10
000020
000000
000030
100000
000100
000000
000000
000000
,  // measure 11
002000
000000
003000
000010
010000
000000
001000
000000
,  // measure 12
000200
000000
000300
000001
001000
000000
000000
000000
,  // measure 13
000200
000000
000300
100000
001000
000000
000100
000000
,  // measure 14
000020
000000
000030
010000
000100
000000
000000
000000
,  // measure 15
002000
000000
003000
000001
100000
000000
001000
000000
,  // measure 16
002200
000000
003300
010000
000010
000000
000000
000000
,  // measure 17
000200
000000
000300
000010
001000
000000
000100
000000
,  // measure 18
002020
000000
003030
000010
010000
000000
000000
000000
,  // measure 19
000200
000000
000300
010000
001000
000000
000100
000000
,  // measure 20
022000
000000
033000
010000
000100
000000
000000
000000
,  // measure 21
002000
000000
003000
100000
000010
000000
010000
000000
,  // measure 22
002000
000000
003000
000100
000010
000000
000000
000000
,  // measure 23
200000
000000
300000
000010
010000
000000
001000
000000
,  // measure 24
000001
001000
000100
000000
002000
000000
003000
000000
,  // measure 25
010000
000010
010000
000000
000200
000000
000300
000000
,  // measure 26
001000
000001
001000
000000
000200
000000
000300
000000
,  // measure 27
010000
001000
010000
000000
000020
000000
000030
000000
,  // measure 28
001000
000010
100000
000000
000200
000000
000300
000000
,  // measure 29
001000
000001
010000
000000
002000
000000
003000
000000
,  // measure 30
000100
001000
010000
000000
000010
000000
001000
000000
,  // measure 31
000100
100000
000100
000000
001000
000000
001000
000000
,  // measure 32
000010
010000
001000
000000
001000
000000
000100
000000
,  // measure 33
000010
010000
000000
000020
000000
000000
000030
000000
,  // measure 34
100000
001000
000100
000000
000001
000000
100000
000000
,  // measure 35
000100
001000
000000
000002
000000
000000
000003
000000
,  // measure 36
010000
000010
001000
000000
000100
000000
000100
000000
,  // measure 37
010000
001000
000000
000200
000000
000000
000300
000000
,  // measure 38
000001
001000
000001
000000
010000
000000
000010
000000
,  // measure 39
100000
001000
100000
000000
000100
000000
001000
000000
,  // measure 40
000010
000100
001000
000000
100000
000000
000100
000000
,  // measure 41
001000
000001
000000
020000
000000
000000
030000
000000
,  // measure 42
000100
001000
100000
000000
000100
000000
001000
000000
,  // measure 43
000010
001000
000000
000200
000000
000000
000300
000000
,  // measure 44
100000
001000
100000
000000
000100
000000
000100
000000
,  // measure 45
001000
000001
000000
000200
000000
000000
000300
000000
,  // measure 46
001000
100000
000001
000000
001000
000000
000100
000000
,  // measure 47
100000
000100
001000
000000
000010
000000
100000
000000
,  // measure 48
002000
000000
000000
000000
,  // measure 49
000000
000000
000000
000000
,  // measure 50
003200
000000
000000
000000
,  // measure 51
000000
000000
000000
000000
,  // measure 52
000302
000000
000000
000000
,  // measure 53
000000
000000
000000
000000
,  // measure 54
020003
000000
000000
000000
,  // measure 55
000000
000000
000000
000000
,  // measure 56
032000
000000
000000
000000
,  // measure 57
003200
000000
000000
000000
,  // measure 58
000320
000000
000000
000000
,  // measure 59
200030
000000
000000
000000
,  // measure 60
300200
000000
000000
000000
,  // measure 61
020300
000000
000000
000000
,  // measure 62
032000
000000
000000
000000
,  // measure 63
003200
000000
000000
000000
,  // measure 64
000300
000000
000000
000000
;
