#TITLE:Atlas;
#SUBTITLE:;
#ARTIST:Battles;
#TITLETRANSLIT:;
#SUBTITLETRANSLIT:;
#ARTISTTRANSLIT:;
#GENRE:Mirrored;
#CREDIT:[Ness];
#BANNER:Atlas.png;
#BACKGROUND:Black.png;
#LYRICSPATH:Atlas.lrc;
#CDTITLE:;
#MUSIC:Atlas.mp3;
#OFFSET:0.629000;
#SAMPLESTART:47.306999;
#SAMPLELENGTH:14.185000;
#SELECTABLE:YES;
#BPMS:0.000000=135.000000
,32.000000=135.300003
,48.000000=135.000000
,52.000000=135.199997
,72.000000=135.399994
,132.000000=134.899994
,156.000000=135.000000
,228.000000=135.500000
,241.000000=133.000000
,264.500000=135.000000
;
#STOPS:228.000000=1.333000
;
#BGCHANGES:0.917=Atlas-video.avi=1.000=0=0=0=StretchNoLoop====,
99999=-nosongbg-=1.000=0=0=0 // don't automatically add -songbackground-
;
#KEYSOUNDS:;
#ATTACKS:;

//---------------dance-single - Blank----------------
#NOTES:
     dance-single:
     [Ness]:
     Hard:
     9:
     0.568023,0.583155,0.094844,0.124027,0.926554,545.000000,532.000000,13.000000,17.000000,0.000000,0.000000,0.568023,0.583155,0.094844,0.124027,0.926554,545.000000,532.000000,13.000000,17.000000,0.000000,0.000000:
// measure 0
0000
0000
0000
0000
,  // measure 1
0000
0000
0000
0000
,  // measure 2
0000
0000
0000
0000
,  // measure 3
0000
0000
0000
0000
,  // measure 4
0000
0000
0000
0000
,  // measure 5
1000
0000
0001
0100
0000
0010
1000
0000
0001
0100
0000
0010
,  // measure 6
1000
0000
0100
0010
0000
0001
1000
0000
0100
0010
0000
0001
,  // measure 7
0100
0000
0010
0100
0000
0001
1000
0000
0010
0100
0000
0010
,  // measure 8
1000
0100
1000
0001
0100
0001
1000
0001
1000
0001
1000
0100
,  // measure 9
0010
0000
0010
0001
0000
0001
1000
0000
1000
0100
0000
0100
,  // measure 10
0010
0000
0010
0100
0000
0100
1000
0000
1000
0001
0000
0001
,  // measure 11
0100
0000
0100
0010
0000
0010
0001
0000
0001
0010
0000
0010
,  // measure 12
1000
0000
1000
0100
0000
0100
0010
0000
0010
0100
0000
0000
,  // measure 13
1000
0000
1000
0010
0000
0010
0100
0000
0100
0001
0000
0001
,  // measure 14
1000
0000
1000
0100
0000
0100
0010
0000
0010
0001
0000
0001
,  // measure 15
1000
0000
0000
0010
0000
0000
0001
0000
0000
0100
0000
0100
,  // measure 16
0010
0000
0010
0100
0000
0100
0001
0000
0000
1000
0000
0010
,  // measure 17
0100
0000
0000
0001
0000
0010
0100
0000
0000
0110
0000
0000
,  // measure 18
1000
0000
1000
0100
0000
0100
0010
0000
0010
0001
0000
0001
,  // measure 19
1000
0000
1000
0001
0000
0001
0100
0000
0100
0010
0000
0010
,  // measure 20
1000
0000
1000
0010
0000
0010
0001
0000
0001
0010
0000
0010
,  // measure 21
1000
0000
1000
0100
0000
0100
0010
0000
0010
0100
0000
0000
,  // measure 22
0010
0000
0010
0001
0000
0001
1000
0000
1000
0010
0000
0010
,  // measure 23
0100
0000
0100
0001
0000
0001
1000
0000
1000
0100
0000
0100
,  // measure 24
0010
0000
0000
0001
0000
0000
0100
0000
0000
0010
0000
1000
,  // measure 25
0010
0000
0010
1000
0000
1000
0100
0000
0000
0010
0000
0001
,  // measure 26
1000
0000
0000
0001
0000
1000
0010
0100
0010
0100
0000
0000
,  // measure 27
1001
0000
0100
0000
0000
0100
0010
0000
0100
0001
0000
1000
,  // measure 28
0010
0000
1000
0000
0000
1000
0100
0000
1000
0010
0000
1000
,  // measure 29
0001
0000
0100
0000
0000
0010
0100
0000
0001
0100
0000
0010
,  // measure 30
1000
0000
0100
0000
0000
0010
0001
0000
0100
0001
0000
1000
,  // measure 31
0001
0000
0100
0000
0000
0010
1000
0000
0100
1000
0000
0010
,  // measure 32
1000
0000
0100
0000
0000
0010
0100
0000
1000
0010
0000
1000
,  // measure 33
0100
0000
0010
0000
0000
0001
1000
0000
0001
0100
0000
0001
,  // measure 34
1000
0000
0001
0000
0000
1000
0010
0000
1000
0100
0000
1000
,  // measure 35
0010
0000
0100
0001
0000
0000
1000
0000
0001
0100
0000
0010
,  // measure 36
1000
0000
0001
0100
0000
0000
0010
0000
0100
0001
0000
1000
,  // measure 37
0010
0000
1000
0100
0000
0000
0010
0000
0100
1000
0000
0001
,  // measure 38
0010
0000
0100
1000
0000
0000
0001
0000
1000
0010
0000
0100
,  // measure 39
0001
0000
1000
0010
0000
0000
1000
0000
0100
0010
0000
0001
,  // measure 40
1000
0000
0001
0000
0000
0001
0100
0000
1000
0100
0000
0001
,  // measure 41
0100
0000
0010
0000
0000
1000
0010
0000
1000
0100
0000
0010
,  // measure 42
0001
0000
0000
1000
0001
1000
0001
1000
0001
1000
0001
1000
,  // measure 43
0001
0000
0010
0100
0000
1000
0001
0000
0010
0100
0000
1000
,  // measure 44
0010
0000
0100
0001
0000
1000
0010
0000
0100
0001
0000
0000
,  // measure 45
1000
0000
0100
0010
0000
0001
1000
0000
0100
0010
0000
0001
,  // measure 46
1000
0000
0100
0010
0000
0100
1000
0000
0001
0010
0000
0000
,  // measure 47
0001
0000
0100
0010
0000
1000
0001
0000
0100
0010
0000
1000
,  // measure 48
0001
0000
0010
0100
0000
1000
0010
0000
1000
0100
0000
0010
,  // measure 49
0001
0000
1000
0100
0000
0010
0001
0000
1000
0100
0000
0010
,  // measure 50
0100
0000
1000
0010
0000
0100
0001
0000
1000
0010
0000
0100
,  // measure 51
0001
0000
1000
0001
0000
0010
0001
0000
1000
0100
0000
0000
,  // measure 52
1100
0000
0100
0010
0000
0010
0001
0000
0001
1000
0000
1000
,  // measure 53
0010
0000
1000
0100
0000
1000
0001
0000
1000
0100
0000
0100
,  // measure 54
0010
0000
0010
0001
0000
0001
1000
0000
1000
0001
0000
0100
,  // measure 55
0010
0000
1000
0010
0000
1000
0100
0000
0010
0100
0000
0000
,  // measure 56
0010
0000
0010
0001
0000
0001
1000
0000
1000
0100
0000
0100
,  // measure 57
1000
0000
0000
1001
0000
0010
0000
0000
1000
0100
0000
1000
,  // measure 58
0001
1000
0001
0100
0000
0010
0100
0000
0001
2000
0000
3001
,  // measure 59
1000
0000
0010
0100
0000
0001
1000
0010
0100
0001
0010
0100
,  // measure 60
1000
0010
0100
0001
0000
0001
1000
0000
0001
1000
0000
0001
,  // measure 61
1000
0000
0001
1000
0000
0001
1000
0000
0001
1000
0000
0001
,  // measure 62
1000
0000
0000
0000
2200
0000
0000
3300
0000
0000
0202
0000
0000
0303
0000
0000
2200
0000
0000
3300
0000
0000
0202
0000
,  // measure 63
0000
0303
0000
0000
2200
0000
0000
3300
0000
0000
0202
0000
0000
0303
0000
0000
2200
0000
0000
3300
0000
0000
0202
0000
,  // measure 64
0000
0303
0000
0000
0000
0000
0000
1000
0000
0010
0000
0000
0000
0100
0000
0001
0000
0000
0000
1000
0000
0010
0000
0000
,  // measure 65
0000
0100
0000
0001
0000
0000
0000
0010
0000
0100
0000
0000
0000
1000
0000
0001
0000
0000
0000
0010
0000
0100
0000
0000
,  // measure 66
0000
1000
0000
0001
0000
0000
0100
0000
0000
0001
0000
0000
0100
0000
0000
1000
0000
0000
0100
0000
0000
1000
0000
0000
,  // measure 67
0100
0001
0100
0001
0100
1000
0100
1000
,  // measure 68
0100
0000
0000
0001
0000
0000
0000
1000
0000
0100
0000
0000
0000
1000
0000
0001
0000
0000
0000
1000
0000
0100
0000
0000
,  // measure 69
0000
1000
0000
0001
0000
0000
0000
1000
0000
0100
0000
0000
0000
1000
0000
0001
0000
0000
0000
1000
0000
0100
0000
0000
,  // measure 70
0000
1000
0000
0001
0000
0100
0000
0000
0000
0001
0000
0100
0000
0000
0000
1000
0000
0100
0000
0000
0000
1000
0000
0100
,  // measure 71
0000
0000
0000
0001
0000
0100
0000
0000
0000
0001
0000
0100
0000
0000
0000
1000
0000
0100
0000
0000
0000
1000
0000
0100
,  // measure 72
0000
0000
0000
0000
0000
0000
0001
0000
0000
0000
0000
0000
0010
0000
0000
0001
0000
0000
0010
0000
0000
0000
0000
0000
0000
0000
0001
0000
0000
0000
1000
0000
0000
0000
0000
0000
0100
0000
0000
1000
0000
0000
0100
0000
0000
0000
0000
0000
,  // measure 73
0000
0000
1000
0000
0000
0000
0001
0000
0000
0000
0000
0000
0010
0000
0000
0100
0000
0000
0010
0000
0000
0000
0000
0000
0000
0000
0001
0000
0000
0000
1000
0000
0000
0000
0000
0000
0010
0000
0000
0100
0000
0000
0010
0000
0000
0000
0000
0000
,  // measure 74
0000
1000
0000
0001
0000
0000
0000
0000
0000
0100
0000
0000
0000
0000
0000
1000
0000
0000
0000
0000
0000
0010
0000
0000
,  // measure 75
0000
0001
0000
0100
0000
1000
0000
0010
,  // measure 76
0000
1001
0000
0000
0000
0000
0000
0000
;

//---------------dance-single - Blank----------------
#NOTES:
     dance-single:
     [Ness]:
     Medium:
     6:
     0.342898,0.472078,0.102140,0.160505,0.193336,329.000000,315.000000,14.000000,22.000000,0.000000,0.000000,0.342898,0.472078,0.102140,0.160505,0.193336,329.000000,315.000000,14.000000,22.000000,0.000000,0.000000:
0000
0000
0000
0000
,
0000
0000
0000
0000
,
0000
0000
0000
0000
,
0000
0000
0000
0000
,
0000
0000
0000
0000
,
1000
0100
0010
0100
,
0010
0001
0010
1000
,
0010
0001
0100
0010
,
1000
0100
0010
0001
,
1000
0000
1000
0001
0000
0000
1000
0000
1000
0001
0000
0000
,
0010
0100
1000
0001
,
0100
0000
0100
0010
0000
0000
0100
0000
0100
0010
0000
0000
,
1000
0100
0010
0001
,
1000
0000
1000
0010
0000
0000
0001
0000
0001
0010
0000
0000
,
1000
0000
1000
0010
0000
0000
0001
0000
0001
0010
0000
0000
,
0100
0010
0100
0010
,
0001
0100
1000
0100
,
0010
0100
0010
0100
,
0001
0000
0001
0010
0000
0000
0100
0000
0100
1000
0000
0000
,
0010
1000
0100
0010
,
0001
0000
0001
1000
0000
0000
0010
0000
0010
0100
0000
0000
,
0001
0010
0100
1000
,
0001
0000
0001
0010
0000
0000
1000
0000
1000
0010
0000
0000
,
0001
0000
0001
0010
0000
0000
1000
0000
1000
0010
0000
0000
,
0100
0010
1000
0100
,
0010
0001
1000
0100
,
0010
0100
0010
0100
,
1001
0000
0000
0000
0000
0000
1000
0000
0001
1000
0000
0001
,
1000
0000
0000
0000
0000
0000
0002
0000
0000
0020
0003
0000
,
0230
0000
0000
0300
0000
0000
0010
0000
0001
0010
0000
0001
,
0010
0000
0002
2003
,
3002
0000
0000
0003
0000
0000
1000
0000
0100
1000
0000
0100
,
1000
0000
0002
2003
,
3002
0000
0000
0003
0000
0000
0100
0000
0010
0100
0000
0010
,
0100
0000
0020
2030
,
3020
0000
0000
0030
0000
0000
1000
0000
0001
0100
0000
0001
,
1000
0000
0020
0230
,
0302
0000
0000
0003
0000
0000
0010
0000
0100
1000
0000
0001
,
0010
0100
0020
0032
,
2003
0000
0000
3000
0000
0000
0010
0000
1000
0100
0000
1000
,
0010
0000
2000
3020
,
2030
0000
0000
3000
0000
0000
0001
0000
0001
1000
0000
1000
,
0010
0200
0000
0000
,
0310
1000
0100
0001
,
0010
0100
0010
0100
,
0010
0001
0100
1000
,
0010
0100
0010
0100
,
0010
0000
0010
1000
0000
0000
0010
0000
0010
0100
0000
0000
,
0010
0000
0010
1000
0000
0000
0010
0000
0010
0100
0000
0000
,
0001
0010
0100
1000
,
0001
0010
0100
1000
,
0010
0100
0001
0010
,
0100
0000
0100
0010
0000
0000
0001
0000
0001
1000
0000
0000
,
0010
1000
0001
0100
,
0010
0000
0010
0100
0000
0000
0001
0000
0001
1000
0000
0000
,
0100
0010
0001
1000
,
0010
0000
0010
1000
0000
0000
0001
0000
0001
1000
0000
0000
,
0100
0000
0000
0010
0000
0010
0001
0000
0000
1000
0000
0000
,
0001
0000
0000
0100
0000
0100
0010
0000
0000
1000
0000
0000
,
0100
0000
0000
0010
0000
0010
0100
0000
0000
1000
0000
0000
,
0001
1000
0100
0001
,
0100
1000
0100
0001
,
0100
0000
1000
0000
0000
1000
0000
0000
0001
0000
0000
0001
,
0000
0000
1000
0000
0000
1000
0000
0000
0001
0000
0000
0001
,
0000
0100
0000
0010
0000
0100
0000
0010
,
0000
0100
0000
0010
0000
0100
0000
0010
,
0000
1010
0000
1010
0000
0011
0000
0011
,
0000
1010
0000
1010
0000
0011
0000
0011
,
0000
0001
0000
1000
0000
0100
0000
1000
,
0000
0001
0000
1000
0000
0100
0000
1000
,
0000
0001
0000
0001
0000
1000
0000
1000
,
0000
0001
0000
0001
0000
1000
0000
1000
,
0000
0001
0000
0101
0000
1000
0000
1100
,
0000
0001
0000
0101
0000
1000
0000
1100
,
0000
0001
0000
0100
0000
0010
0000
1000
,
0000
0001
0000
0100
0000
0010
0000
1000
,
0000
1001
0000
0000
0000
0000
0000
0000
;

//---------------dance-single - Blank----------------
#NOTES:
     dance-single:
     [Ness]:
     Easy:
     5:
     0.305377,0.333231,0.167801,0.014591,0.029183,293.000000,270.000000,23.000000,2.000000,0.000000,0.000000,0.305377,0.333231,0.167801,0.014591,0.029183,293.000000,270.000000,23.000000,2.000000,0.000000,0.000000:
0000
0000
0000
0000
,
0000
0000
0000
0000
,
0000
0000
0000
0000
,
0000
0000
0000
0000
,
0000
0000
0000
0000
,
1000
0100
0010
0001
,
0010
0001
0100
0010
,
1000
0100
0010
0100
,
1000
1000
0001
0001
,
0010
0001
1000
0100
,
0010
0001
1000
0100
,
0010
0100
1000
0001
,
0010
0100
1000
0001
,
0010
0100
0010
0100
,
0010
0001
0100
0010
,
1000
0010
0100
0001
,
1000
0001
0100
0010
,
1000
0100
0010
0100
,
0010
0001
1000
0100
,
0010
0001
1000
0010
,
0100
0001
1000
0010
,
0100
0001
1000
0010
,
1000
0100
0001
0100
,
1000
0010
0100
0001
,
0010
0100
0010
0001
,
1000
0010
0100
0001
,
0010
0100
0010
0001
,
1000
0000
0001
1000
,
0001
0000
0011
0011
,
1010
0000
0001
1000
,
0001
0000
1100
1100
,
0101
0000
1000
0001
,
1000
0000
0110
0110
,
1001
0000
0010
1000
,
0100
0000
1010
1010
,
1100
0000
0001
1000
,
0100
0000
0011
0011
,
0101
0000
1000
0010
,
0100
0001
1001
0101
,
1001
0000
0010
1000
,
0100
0000
0110
1100
,
0110
0000
0010
0001
,
1000
0001
0000
0000
,
1000
0010
0001
0010
,
1000
0100
0010
0001
,
1000
0100
0001
0100
,
1000
0010
0100
0001
,
0001
0010
1000
0010
,
0001
0100
1000
0100
,
0001
0010
0100
1000
,
0010
0100
0001
1000
,
0010
1000
0100
0010
,
0001
0001
1000
1000
,
0010
1000
0100
0010
,
0001
0100
0010
1000
,
0001
1000
0100
0010
,
0100
1000
0001
0100
,
1001
0001
1000
0010
,
0001
0010
1000
0001
,
1000
0100
0010
0100
,
1000
0001
0001
1000
,
1000
0010
0010
0100
,
0100
0000
0001
0000
0000
0001
0000
0000
1000
0000
0000
1000
,
0000
0000
0001
0000
0000
0001
0000
0000
1000
0000
0000
1000
,
0000
0010
0000
0100
0000
0010
0000
0100
,
0000
0010
0000
0100
0000
0010
0000
0100
,
0000
0001
0000
0001
0000
0001
0000
0001
,
0000
0001
0000
0001
0000
0001
0000
0001
,
0000
1000
0000
1000
0000
1000
0000
1000
,
0000
0100
0000
0100
0000
0100
0000
0100
,
0000
1000
0000
0010
0000
0001
0000
0010
,
0000
1000
0000
0010
0000
0001
0000
0010
,
0000
2000
0000
3100
0000
0001
0000
1000
,
0000
0002
0000
0103
0000
1000
0000
0001
,
0000
1000
0000
0010
0000
0100
0000
0001
,
0000
1000
0000
0010
0000
0100
0000
0001
,
0000
1001
0000
0000
0000
0000
0000
0000
;

//---------------dance-single - Blank----------------
#NOTES:
     dance-single:
     [Ness]:
     Beginner:
     2:
     0.164674,0.222154,0.007296,0.000000,0.010944,158.000000,157.000000,1.000000,0.000000,0.000000,0.000000,0.164674,0.222154,0.007296,0.000000,0.010944,158.000000,157.000000,1.000000,0.000000,0.000000,0.000000:
0000
0000
0000
0000
,
0000
0000
0000
0000
,
0000
0000
0000
0000
,
0000
0000
0000
0000
,
0000
0000
0000
0000
,
1000
0000
0001
0000
,
1000
0000
0001
0000
,
1000
0000
0001
0000
,
0100
0000
0010
0000
,
0100
0000
0100
0000
,
0010
0000
1000
0000
,
0100
0000
0100
0000
,
0010
0000
0001
0000
,
1000
0000
1000
0000
,
0010
0000
0010
0000
,
1000
0000
0100
0000
,
0010
0000
0001
0000
,
1000
0000
0100
0000
,
0010
0000
0010
0000
,
0001
0000
0001
0000
,
1000
0000
1000
0000
,
0001
0000
0001
0000
,
0100
0000
0100
0000
,
0010
0000
0010
0000
,
1000
0000
0100
0000
,
0010
0000
0001
0000
,
0100
0000
0010
0000
,
1000
0000
0001
0001
,
0001
0000
0100
0100
,
0100
0000
1000
1000
,
1000
0000
0100
0100
,
0100
0000
0001
0001
,
0001
0000
1000
1000
,
1000
0000
0001
0001
,
0001
0000
0010
0010
,
0010
0000
0100
0100
,
0100
0000
1000
1000
,
1000
0000
0001
0001
,
0001
0001
0001
0000
,
1000
0000
0010
0010
,
0010
0000
0100
0100
,
0100
0000
0010
0010
,
0010
0010
0000
0000
,
0100
0000
0100
0000
,
0010
0000
0010
0000
,
1000
0000
0100
0000
,
0010
0000
0001
0000
,
0100
0000
0100
0000
,
0010
0000
0010
0000
,
1000
0000
0001
0000
,
0100
0000
0010
0000
,
0100
0000
0001
0000
,
1000
0000
0100
0000
,
0010
0000
0001
0000
,
0010
0000
0100
0000
,
0010
0000
0001
0000
,
1000
0000
0001
0000
,
0100
0100
0000
0100
,
0000
0010
0000
0010
,
0000
1000
0000
0100
,
0000
1000
0000
1000
,
0000
1000
0000
1000
,
0000
0000
0000
0000
0000
0000
0000
0000
0010
0000
0000
0000
,
0000
0010
0000
0000
0000
0010
0000
0000
0000
0000
0000
0000
,
0000
0000
0000
0000
0000
0100
0000
0000
,
0000
0100
0000
0000
0000
0100
0000
0000
,
0000
0001
0000
0000
0000
0001
0000
0000
,
0000
1000
0000
0000
0000
1000
0000
0000
,
0000
0100
0000
0000
0000
0001
0000
0000
,
0000
0100
0000
0000
0000
1000
0000
0000
,
0000
0010
0000
0000
0000
0010
0000
0000
,
0000
0100
0000
0000
0000
0100
0000
0000
,
0000
0001
0000
0001
0000
0000
0000
1000
,
0000
0000
0000
0001
0000
0000
0000
1000
,
0000
0000
0000
1000
0000
0000
0000
0001
,
0000
0000
0000
1000
0000
0000
0000
0000
,
0000
1001
0000
0000
0000
0000
0000
0000
;
