#TITLE:Art3mis & Parzival;
#SUBTITLE:;
#ARTIST:Gunship feat. Stella Le Page;
#TITLETRANSLIT:;
#SUBTITLETRANSLIT:;
#ARTISTTRANSLIT:;
#GENRE:Dark All Day;
#CREDIT:;
#BANNER:Art3mis & Parzival-bn.png;
#BACKGROUND:Art3mis & Parzival-bg.png;
#LYRICSPATH:;
#CDTITLE:;
#MUSIC:Art3mis & Parzival.mp3;
#OFFSET:-0.004000;
#SAMPLESTART:61.477379;
#SAMPLELENGTH:24.500004;
#LASTBEATHINT:238.082901;
#SELECTABLE:YES;
#BPMS:0.000000=120.000000
;
#STOPS:
;
#BGCHANGES:0.000=Art3mis & Parzival-video.avi=1.000=1=0=0=StretchNoLoop==CrossFade==,
99999=-nosongbg-=1.000=0=0=0 // don't automatically add -songbackground-
;
#KEYSOUNDS:;
#ATTACKS:;

//---------------dance-single - ----------------
#NOTES:
     dance-single:
     :
     Hard:
     7:
     0.321887,0.405578,0.327740,0.491610,0.008193,275.000000,235.000000,40.000000,60.000000,0.000000,0.000000,0.321887,0.405578,0.327740,0.491610,0.008193,275.000000,235.000000,40.000000,60.000000,0.000000,0.000000:
// measure 0
0000
0000
0000
0000
,  // measure 1
0000
0000
0000
0000
,  // measure 2
0000
0000
0000
0000
,  // measure 3
0000
0000
0000
0000
,  // measure 4
0020
0000
0000
0000
0000
0000
0000
0000
0000
0000
0000
0000
0000
0000
0000
0000
0000
0000
0000
0000
0000
0000
0000
0000
0000
0000
0000
0000
0000
0000
0000
0000
0000
0000
0000
0000
0000
0000
0000
0000
0000
0000
0000
0000
0000
0000
0000
0000
0000
0000
0000
0000
0000
0000
0000
0000
0000
0000
0000
0000
0000
0000
0000
0000
0000
0000
0000
0000
0000
0000
0000
0000
0000
0000
0000
0000
0000
0000
2030
0000
0000
0000
0000
0000
0000
0000
0000
0000
0000
0000
0000
0000
0000
0000
0000
0000
0000
0000
0000
0000
0000
0000
0000
0000
0000
0000
0000
0000
0000
0000
0000
0000
0000
0000
0000
0000
0000
0000
0000
0000
0000
0000
0000
0000
0002
0000
0000
0000
0000
0000
0000
0000
0000
0000
0000
0000
0000
0000
0000
0000
0000
0000
0000
0000
0000
0000
0000
0000
0000
0000
0000
0000
0000
0000
0000
0000
0000
0000
0000
0000
0000
0000
0000
0000
0000
0000
0000
0000
3003
0000
0000
0000
0000
0000
0000
0000
0000
0000
0000
0000
0000
0000
0000
0000
0000
0000
0000
0000
0000
0000
0000
0000
,  // measure 5
0000
0100
0000
0100
0010
1000
0100
0000
,  // measure 6
1000
0010
0200
0000
0000
0000
0300
0000
,  // measure 7
0000
0000
0000
0000
,  // measure 8
0002
0000
0000
0000
0013
0001
1000
0020
,  // measure 9
0000
1030
0001
2000
0000
3100
0010
0000
,  // measure 10
0200
0000
0000
0000
,  // measure 11
2300
0000
0002
3003
,  // measure 12
1001
1000
0001
0100
0000
0010
0000
1010
,  // measure 13
0000
1000
0001
1000
0100
0010
0100
0000
,  // measure 14
2000
0000
0001
0000
3100
1000
0001
0100
,  // measure 15
0000
0100
0010
0200
0000
0002
0000
0303
,  // measure 16
0101
0000
1001
0000
0001
0010
0100
2000
,  // measure 17
0000
3010
0100
0002
0000
1003
0010
0001
,  // measure 18
0200
0000
0310
0000
1000
0001
0100
0010
,  // measure 19
1000
0010
0001
0010
1000
0010
0100
0000
,  // measure 20
0101
0000
1100
0000
1001
0000
0001
0020
,  // measure 21
0000
0031
0100
1000
0100
0002
0000
0000
,  // measure 22
0003
1000
0010
2000
0000
0100
3100
0000
,  // measure 23
0002
1000
0000
0100
0000
0103
0010
0000
,  // measure 24
1000
0001
1000
0020
0000
0200
0000
0330
,  // measure 25
0001
1000
0001
0200
0000
0000
0310
0000
,  // measure 26
1010
0000
0100
0000
0010
1000
0100
1100
,  // measure 27
0000
0202
0000
0000
0303
0000
0000
0000
,  // measure 28
0000
1000
0010
2000
0000
3001
0010
0100
,  // measure 29
1000
0002
0000
0203
0000
0020
0000
0330
,  // measure 30
2002
0000
3003
0000
0110
0000
0100
0001
,  // measure 31
1000
0000
0010
0100
0002
2000
0000
3003
,  // measure 32
2002
3003
0012
1000
,  // measure 33
0100
0010
2000
0000
,  // measure 34
3003
2020
3030
2002
,  // measure 35
3003
0202
0303
0220
,  // measure 36
0330
2002
3003
0220
,  // measure 37
0330
0022
0033
1100
,  // measure 38
1010
0000
0100
0000
1001
0000
0100
0011
,  // measure 39
0000
0100
0010
0100
0001
1000
0100
0010
,  // measure 40
0001
1000
0001
0000
0202
0000
0303
0000
,  // measure 41
1000
0010
0100
0002
0000
0013
0100
1000
,  // measure 42
0011
0000
0100
0000
1001
0000
0100
1010
,  // measure 43
0000
0010
0100
0001
1000
0010
1000
0010
,  // measure 44
0200
0000
1000
0000
0301
0100
0001
0200
,  // measure 45
0000
0310
0000
1000
0010
0001
0010
1000
,  // measure 46
0100
0010
0100
0000
1100
0000
0001
0101
,  // measure 47
0000
1000
1100
0000
1000
0010
0100
0001
,  // measure 48
1001
0000
0010
0000
0101
0100
0000
0010
,  // measure 49
0000
1000
0100
0000
1001
0100
0010
1000
,  // measure 50
1010
0000
0100
0010
1001
0000
0010
0011
,  // measure 51
0000
0010
1001
0000
1000
0010
1000
0001
,  // measure 52
0200
0000
0000
0000
0310
1000
0100
2000
,  // measure 53
0000
0001
0000
3001
0100
0010
0100
0001
,  // measure 54
2002
0000
0000
0000
,  // measure 55
3003
0000
0000
0000
;

//---------------dance-single - ----------------
#NOTES:
     dance-single:
     :
     Medium:
     5:
     0.193132,0.225321,0.122902,0.278579,0.000000,165.000000,150.000000,15.000000,34.000000,0.000000,0.000000,0.193132,0.225321,0.122902,0.278579,0.000000,165.000000,150.000000,15.000000,34.000000,0.000000,0.000000:
0000
0000
0000
0000
,
0000
0000
0000
0000
,
0000
0000
0000
0000
,
0000
0000
0000
0000
,
2000
0000
0000
0000
,
0000
0000
0000
3200
,
0000
0000
0000
0000
,
0000
0000
0000
0000
,
0302
0000
0010
0013
,
0100
0010
0001
1000
,
0200
0000
0000
0000
,
0020
0030
0020
0330
,
0001
1000
0010
0100
,
0001
0000
1000
0000
0010
0100
0001
0000
,
1000
0000
0001
0010
,
0100
0000
1000
0001
0000
1000
0000
0000
,
1010
0100
0010
1000
,
0001
0010
0100
1000
,
0002
0000
0000
0000
,
1000
0010
1003
0000
,
0110
0000
0001
0000
0100
0000
0000
0001
,
0000
1000
0100
0010
,
0001
1000
0010
0100
,
0001
1000
0000
0001
0000
0000
0010
0000
,
0100
0000
0000
1000
0000
0001
0000
0000
,
0100
0000
0000
0010
0000
0000
1000
0000
,
2002
0000
0000
0000
3003
0000
0002
0200
,
0000
0000
0000
0303
,
0010
1000
0100
0010
,
0001
1000
0000
0001
0000
0100
0000
0000
,
2002
0000
0000
0000
3003
0000
0001
0010
,
0001
0000
0001
1000
0002
0000
0000
0000
,
0103
0000
0010
1000
,
0100
1000
0020
0000
,
0030
2020
3030
2002
,
3003
0202
0303
0220
,
0330
2002
3003
0220
,
0330
2020
3030
0101
,
1000
0000
0010
0000
0100
0000
0001
1000
,
0000
0100
0010
0100
,
1000
0001
1000
0000
0002
0000
0000
0000
,
0103
0000
0000
0010
0000
1000
0001
0000
,
1001
0000
0010
0000
1000
0000
0010
0100
,
0000
0000
0002
0000
,
1003
0000
0000
0000
0100
1000
0000
0010
,
0000
1000
0000
0001
0100
0001
0000
0200
,
0000
0000
0000
0000
0310
0000
0000
1000
,
0000
0100
1100
0100
,
0010
0000
0000
0000
0001
0000
0000
0100
,
0000
0010
1000
0001
,
1001
0000
0000
0000
0010
0000
0000
1000
,
0000
0100
0010
0001
,
0200
0000
0000
0000
0310
1000
0000
0001
,
0000
1000
0000
0010
0100
0010
0000
0200
,
0000
0000
0000
0000
,
0300
0000
0000
0000
;

//---------------dance-single - ----------------
#NOTES:
     dance-single:
     :
     Easy:
     3:
     0.138119,0.180257,0.032774,0.360514,0.000000,118.000000,114.000000,4.000000,44.000000,0.000000,0.000000,0.138119,0.180257,0.032774,0.360514,0.000000,118.000000,114.000000,4.000000,44.000000,0.000000,0.000000:
0000
0000
0000
0000
,
0000
0000
0000
0000
,
0000
0000
0000
0000
,
0000
0000
0000
0000
,
0020
0000
0000
0000
,
0030
0000
0000
0200
,
0000
0000
0000
0300
,
0000
0000
0000
0000
,
0002
0000
0000
0000
,
0003
0000
0000
0000
,
2000
0000
0000
0000
,
3000
0000
0000
0000
,
0010
0100
0010
0000
,
1000
0100
0001
0000
,
0020
0030
0200
0300
,
1000
0100
0010
0001
,
2000
3000
0010
0100
,
0001
0010
0100
0000
,
2000
3000
0002
0003
,
0100
0010
0100
0010
,
2000
3000
0002
0003
,
0010
0100
0010
0000
,
0001
0010
0100
0000
,
1000
0001
0100
0000
,
0010
1000
0010
0000
,
0100
0001
0100
0000
,
2002
0000
3003
0000
,
0020
0100
0130
0000
,
0001
0000
0010
0000
,
0100
0000
1000
0000
,
2002
0000
3003
0010
,
1000
0010
0200
0300
,
0002
0003
1000
0001
,
0010
0100
0010
0000
,
0000
0002
0000
2003
,
0000
3020
0000
0230
,
0000
0302
0000
0023
,
0000
0230
0000
1300
,
2000
3000
0001
0010
,
0002
0003
2000
3000
,
1001
0010
0020
0000
,
0000
0030
0200
0300
,
0001
0010
0100
1000
,
0020
0030
0200
0300
,
0010
0000
1000
0001
,
0100
0010
0100
0001
,
2000
3000
0002
0003
,
0010
0100
0100
0000
,
2000
3000
0200
0300
,
0001
0010
0010
0000
,
0002
0003
0200
0300
,
0010
1000
1000
0000
,
0002
0003
0020
0030
,
0200
0300
2000
3000
,
2002
0000
0000
0000
,
3003
0000
0000
0000
;

//---------------dance-single - ----------------
#NOTES:
     dance-single:
     :
     Beginner:
     1:
     0.112368,0.154857,0.049161,0.000000,0.000000,96.000000,90.000000,6.000000,0.000000,0.000000,0.000000,0.112368,0.154857,0.049161,0.000000,0.000000,96.000000,90.000000,6.000000,0.000000,0.000000,0.000000:
0000
0000
0000
0000
,
0000
0000
0000
0000
,
0000
0000
0000
0000
,
0000
0000
0000
0000
,
0010
0000
0000
0000
,
0000
0000
0000
0100
,
0000
0000
0000
0000
,
0000
0000
0000
0000
,
0001
0000
0000
0000
,
0000
0000
0000
0000
,
0010
0000
0000
0000
,
0000
0000
0000
0000
,
0100
0000
1000
0000
,
0010
0000
1000
0000
,
0100
0000
0010
0000
,
0001
0000
1000
0000
,
0010
0000
0100
0000
,
0001
0000
1000
0000
,
0100
0000
0000
0000
,
0010
0010
0010
0000
,
1001
0000
0010
0000
,
0001
0001
0001
0000
,
1000
0000
0010
0000
,
1000
1000
1000
0000
,
0100
0000
0010
0000
,
0100
0100
0100
0000
,
1001
0000
0000
0000
,
0010
0000
0000
0000
,
1000
0000
0000
0000
,
0100
0000
0010
0000
,
0001
0000
0000
1000
,
1000
0000
0010
0000
,
0100
0000
0000
0001
,
0001
0000
0010
0000
,
0100
0100
0000
1000
,
0000
0001
0000
1000
,
0000
0010
0000
0100
,
0000
0010
0000
0100
,
0100
0000
0001
0000
,
0010
0000
0000
0000
,
0100
0000
1000
0000
,
0001
0000
0100
0000
,
0010
0010
0010
0000
,
1000
0000
0001
0000
,
0100
0000
0010
0000
,
0100
0000
0010
0000
,
1001
0000
0010
0000
,
0010
0000
0010
0000
,
0110
0000
0100
0000
,
0100
0000
0100
0000
,
1001
0000
0010
0000
,
0010
0000
0010
0000
,
1000
0000
0001
0000
,
0100
0000
0100
0000
,
1001
0000
0000
0000
;

//---------------dance-single - ----------------
#NOTES:
     dance-single:
     :
     Challenge:
     9:
     0.457665,0.540771,0.335933,0.163870,0.147483,391.000000,350.000000,41.000000,20.000000,0.000000,0.000000,0.457665,0.540771,0.335933,0.163870,0.147483,391.000000,350.000000,41.000000,20.000000,0.000000,0.000000:
// measure 0
0000
0000
0000
0000
,  // measure 1
0000
0000
0000
0000
,  // measure 2
0000
0000
0000
0000
,  // measure 3
0000
0000
0000
0000
,  // measure 4
1020
0000
0000
0000
0000
0000
0000
0000
0000
0000
0000
0000
0000
0000
0000
0000
0000
0000
0000
0000
0000
0000
0000
0000
0000
0000
0000
0000
0000
0000
0000
0000
0000
0000
0000
0000
0000
0000
0000
0000
0000
0000
0000
0000
0000
0000
0000
0000
0000
0000
0000
0000
0000
0000
0000
0000
0000
0000
0000
0000
0000
0000
0000
0000
0000
0000
0000
0000
0000
0000
0000
0000
0000
0000
0000
0000
0000
0000
0230
0000
0000
0000
0000
0000
0000
0000
0000
0000
0000
0000
0000
0000
0000
0000
0000
0000
0000
0000
0000
0000
0000
0000
0000
0000
0000
0000
0000
0000
0000
0000
0000
0000
0000
0000
0000
0000
0000
0000
0000
0000
0000
0000
0000
0000
0002
0000
0000
0000
0000
0000
0000
0000
0000
0000
0000
0000
0000
0000
0000
0000
0000
0000
0000
0000
0000
0000
0000
0000
0000
0000
0000
0000
0000
0000
0000
0000
0000
0000
0000
0000
0000
0000
0000
0000
0000
0000
0000
0000
0303
0000
0000
0000
0000
0000
0000
0000
0000
0000
0000
0000
0000
0000
0000
0000
0000
0000
0000
0000
0000
0000
0000
0000
,  // measure 5
0000
1000
0000
1000
0010
0001
0100
0000
,  // measure 6
1001
0010
0200
0000
0000
0000
0300
0000
,  // measure 7
0000
0000
0000
0000
,  // measure 8
0012
0000
0100
0000
1003
0100
1000
0020
,  // measure 9
0000
0130
0001
0020
0000
0130
1000
0001
,  // measure 10
0200
0000
0000
0000
,  // measure 11
0020
0030
0002
0303
,  // measure 12
1001
1000
0001
0100
0001
0001
0001
0001
,  // measure 13
0010
0001
1000
0100
0010
0010
0100
0000
,  // measure 14
1000
0010
1000
0000
0001
0010
0100
1000
,  // measure 15
0001
1000
0001
0100
0001
0010
0001
0000
,  // measure 16
0011
1000
0010
0000
1000
0100
1000
0010
,  // measure 17
0100
1000
0100
0010
0100
0001
1000
0000
,  // measure 18
0001
0010
0001
0000
1000
0010
1000
0000
,  // measure 19
0010
0001
0100
0001
0010
0100
0010
0000
,  // measure 20
0101
0000
1100
0000
1001
0000
0001
0020
,  // measure 21
0000
0031
0100
1000
0100
0010
0100
0001
,  // measure 22
1000
0010
1000
0100
0010
0010
0010
0100
,  // measure 23
1000
0001
0100
0010
0100
0100
0001
0000
,  // measure 24
1000
0001
1000
0010
1000
0100
1000
0000
,  // measure 25
0001
0100
0010
0100
0001
0001
0010
0000
,  // measure 26
0012
0000
1000
0000
0103
0001
1000
0100
,  // measure 27
0000
0010
0010
0110
0000
1001
0100
0010
,  // measure 28
0100
1000
1000
2000
0000
3001
0010
0100
,  // measure 29
1000
0000
0001
0000
0100
0000
0010
0000
1000
0000
0001
0100
0010
0100
0010
0000
,  // measure 30
1000
1000
0010
0010
0100
0100
0001
0001
1000
0000
0000
0000
0001
0000
0010
0000
,  // measure 31
1000
0000
0010
0000
0001
0000
0100
0000
0010
0000
0100
0000
0001
0100
0001
0100
,  // measure 32
0001
1000
0100
1000
0101
0000
1000
1010
,  // measure 33
0000
0011
0010
1000
0001
0100
1000
0100
,  // measure 34
1001
0000
0100
1000
0020
0000
0000
0000
1030
0000
0100
0001
0020
0000
0000
0000
,  // measure 35
0031
0000
1000
0001
0200
0000
0000
0000
0310
0000
1000
0001
0020
0000
0000
0000
,  // measure 36
0130
0000
1000
0000
0010
0000
1000
0000
1000
0000
0001
0000
0010
0000
0100
1000
,  // measure 37
0001
0000
1000
0001
0100
0000
0001
0100
0010
0000
0100
0000
0100
0001
1000
0001
,  // measure 38
0100
0000
1010
0000
1100
0000
0001
1010
,  // measure 39
0000
0101
1000
0010
0001
1000
0100
0010
,  // measure 40
0100
0000
0001
1000
0100
0000
0010
0000
0110
0000
0000
0000
0011
0000
1000
0000
,  // measure 41
0000
0000
1000
0000
0101
0000
0100
0000
1001
0000
0100
0001
1000
0000
0100
0000
,  // measure 42
0011
0000
1100
0000
1001
0000
0010
0101
,  // measure 43
0000
0000
1100
0000
0001
0000
1000
0000
0100
0000
0010
0100
1000
0000
0001
0000
,  // measure 44
0010
0001
1000
0001
0100
0010
1000
0200
,  // measure 45
0000
0000
0301
0000
0100
0000
1000
0000
1000
0001
0100
0010
1000
0010
0100
0001
,  // measure 46
1000
0000
0001
0100
0010
0000
0100
0000
0101
0000
0000
0000
0100
0000
1100
0000
,  // measure 47
0000
0100
0101
0100
0110
0001
1000
0001
,  // measure 48
0110
0000
0000
0000
0010
1000
0100
0000
1100
0000
0001
0000
0100
0000
1100
0000
,  // measure 49
0000
0000
1100
0000
0010
0000
0100
0000
0001
0000
0010
0001
1000
0000
0010
1000
,  // measure 50
0001
0000
0010
0100
0011
0000
0100
1100
,  // measure 51
0000
1010
0100
0010
0100
0001
1000
0001
,  // measure 52
0010
0000
0000
0000
0100
0000
0000
0000
1001
0000
0100
0000
0010
0000
1000
0100
,  // measure 53
0001
0000
0001
0100
1000
0000
1000
0000
0001
1000
0010
0100
0001
0010
0100
1000
,  // measure 54
2002
0000
0000
0000
,  // measure 55
3003
0000
0000
0000
;
