#TITLE:Arps Of Revolucion;
#SUBTITLE:;
#ARTIST:Bassnectar;
#TITLETRANSLIT:;
#SUBTITLETRANSLIT:;
#ARTISTTRANSLIT:;
#GENRE:Reflective (Part 1);
#CREDIT:;
#BANNER:Arps Of Revolucion-bn.png;
#BACKGROUND:Arps Of Revolucion-bg.png;
#LYRICSPATH:;
#CDTITLE:;
#MUSIC:Arps Of Revolucion.mp3;
#OFFSET:-0.015000;
#SAMPLESTART:54.569584;
#SAMPLELENGTH:21.818180;
#LASTBEATHINT:177.963974;
#SELECTABLE:YES;
#DISPLAYBPM:88.000000;
#BPMS:0.000000=88.000000
;
#STOPS:
;
#BGCHANGES:0.000=Arps Of Revolucion-video.avi=1.000=1=0=1===CrossFade==,
99999=-nosongbg-=1.000=0=0=0 // don't automatically add -songbackground-
;
#KEYSOUNDS:;
#ATTACKS:;

//---------------dance-single - ----------------
#NOTES:
     dance-single:
     :
     Challenge:
     10:
     0.505318,0.595911,0.095601,0.071701,0.581571,444.000000,432.000000,12.000000,9.000000,0.000000,0.000000,0.505318,0.595911,0.095601,0.071701,0.581571,444.000000,432.000000,12.000000,9.000000,0.000000,0.000000:
0000
0000
0000
0000
,
0000
0000
0000
0000
,
0000
0000
0000
0000
,
0000
0000
0000
0000
,
2000
0100
3002
0100
,
2003
0010
3002
0010
,
0203
1000
0320
0001
,
0230
0001
0320
1000
,
0130
0001
0101
0000
1000
0010
1010
0000
,
0001
0100
0110
0100
0001
1000
1001
0000
,
1000
0100
1100
0000
0010
0100
0110
0000
,
0001
1000
1001
0100
0110
0110
1001
0000
,
0001
0100
1000
0100
0010
1000
0100
0010
,
0001
1000
0100
0010
0100
1000
0001
1000
,
0010
0100
0001
1000
0001
0010
0100
1000
,
0010
1000
0100
0010
1000
0010
0001
0100
,
0010
1000
0010
0100
0001
0000
0010
0100
0000
0010
0001
0010
0100
0000
1000
0001
,
0000
1000
0100
1000
0001
0000
0100
0010
0000
0100
0001
1000
0100
0000
0010
0001
,
0000
1000
0010
0100
0001
0000
1000
0100
0000
1000
0001
1000
0100
0000
0010
0001
,
0000
0100
0010
0100
0001
0000
1000
0010
0000
1000
0001
1000
0100
0000
0010
0100
,
1000
0001
1000
0100
1000
0001
0010
0001
1000
0001
1000
0100
1000
0001
0010
0001
,
0100
0001
1000
0001
0100
0001
0010
0001
0100
0001
1000
0001
0100
0001
0010
0001
,
1000
0100
1000
0001
1000
0100
0010
0100
1000
0100
1000
0001
1000
0100
0010
0100
,
1000
0010
1000
0001
1000
0010
0100
0010
1000
0010
1000
0001
1000
0010
0100
0010
,
0100
0001
1000
0001
0100
0010
1000
0010
0100
0001
1000
0001
0100
0010
1000
0010
,
0100
0001
0010
0100
0010
0001
1000
0001
0100
0001
0010
0100
0010
0001
1000
0001
,
0100
0010
1000
0100
0010
0100
1000
0100
0010
0100
1000
0010
0100
0010
1000
0010
,
0100
0001
1000
0010
0100
0001
1000
0001
0100
0001
1000
0010
0110
0000
0000
0000
,
1000
0001
1000
0100
1000
0001
0010
0001
,
0100
0001
1000
0001
0100
0001
0010
0001
,
1000
0100
1000
0001
1000
0100
0010
0100
,
1000
0010
1000
0001
1000
0010
0100
0010
,
0100
0001
1000
0001
0100
0010
1000
0010
,
0100
0001
0010
0100
0010
0001
1000
0001
,
0100
0010
1000
0100
0010
0100
1000
0100
,
0010
0001
1000
0100
0010
0001
1001
0000
,
1000
0001
1000
0100
1000
0001
0010
0001
1000
0001
1000
0100
1000
0001
0010
0001
,
0100
0001
1000
0001
0100
0001
0010
0001
0100
0001
1000
0001
0100
0001
0010
0001
,
1000
0100
1000
0001
1000
0100
0010
0100
1000
0100
1000
0001
1000
0100
0010
0100
,
1000
0010
1000
0001
1000
0010
0100
0010
1000
0010
1000
0001
1000
0010
0100
0010
,
0100
0001
1000
0001
0100
0010
1000
0010
0100
0001
1000
0001
0100
0010
1000
0010
,
0100
0001
0010
0100
0010
0001
1000
0001
0100
0001
0010
0100
0010
0001
1000
0001
,
0100
0010
1000
0100
0010
0100
1000
0100
0010
0100
1000
0010
0100
0010
1000
0010
,
0100
0001
1000
0010
0100
0001
1000
0001
0200
0000
0000
0000
0000
0000
0000
0000
,
0300
0000
0000
0000
;

//---------------dance-single - ----------------
#NOTES:
     dance-single:
     :
     Hard:
     7:
     0.351674,0.385590,0.023900,0.199168,0.151368,309.000000,306.000000,3.000000,25.000000,0.000000,0.000000,0.351674,0.385590,0.023900,0.199168,0.151368,309.000000,306.000000,3.000000,25.000000,0.000000,0.000000:
0000
0000
0000
0000
,
0000
0000
0000
0000
,
0000
0000
0000
0000
,
0000
0000
0000
0000
,
1000
0100
1000
1000
0001
0100
0001
0001
,
1000
0001
1000
1000
0010
0100
0010
0010
,
0100
0001
0100
0100
0010
1000
0010
0010
,
0001
0100
0001
0001
1000
0010
1000
1000
,
0100
0001
0100
0100
1000
0100
0001
0001
,
0100
1000
0100
0100
0001
0100
1000
1000
,
0100
0001
0010
0010
0100
1000
0010
0010
,
0100
0010
0100
0100
0010
0010
1001
0000
,
0100
0001
2000
0000
3010
1000
0200
0000
,
0310
0001
2000
0000
3001
0100
0020
0000
,
1030
0010
0200
0000
0301
0010
0002
0000
,
1003
0100
0020
0000
0031
0100
2000
0000
,
3010
0000
0100
0000
0001
0000
0001
1000
0000
0000
0100
0000
0010
0000
0010
0001
,
0000
0000
1000
0000
0010
0000
0100
0001
0000
0000
1000
0000
0100
0000
0010
0001
,
0000
0000
1000
0000
0001
0000
0100
0010
0000
0000
1000
0000
0001
0000
1000
0010
,
0000
0000
0100
0000
0001
0000
1000
0100
0000
0000
0010
0000
0001
0000
0100
0010
,
0000
1000
0001
0000
1000
0000
0001
1000
0000
0010
0100
0000
0010
0000
0100
0010
,
0000
1000
0001
0000
1000
0000
0001
1000
0000
0010
0100
0000
0010
0000
0100
0010
,
0000
1000
0100
0000
0010
0000
0001
0010
0000
0001
0100
0000
0010
0000
1000
0010
,
0000
1000
0100
0000
0010
0000
0001
1000
0000
0001
0100
0000
0010
0000
1000
0001
,
0000
1000
0100
0000
0010
0000
0001
1000
0000
0001
0100
0000
0010
0000
1000
0001
,
0000
1000
0100
0000
0010
0000
0001
0100
0000
0010
1000
0000
0100
0000
1000
0010
,
0000
0100
0001
0000
0010
0000
0100
1000
0000
0100
0010
0000
0001
0000
0100
0001
,
0000
1000
0010
0000
0100
0000
0001
1000
0001
0000
0001
0000
0101
0000
0000
0000
,
1000
0001
1000
0100
1000
0001
0010
0001
,
0100
0001
1000
0001
0100
0001
0010
0001
,
1000
0100
1000
0001
1000
0100
0010
0100
,
1000
0010
1000
0001
1000
0010
0100
0010
,
0100
0001
1000
0001
0100
0010
1000
0010
,
0100
0001
0010
0100
0010
0001
1000
0001
,
0100
0010
1000
0100
0010
0100
1000
0100
,
0010
0001
1000
0100
0010
0001
1001
0000
,
1000
0100
0020
0000
0031
0010
0200
0000
,
1300
0001
2000
0000
3010
0100
0002
0000
,
0013
0001
2000
0000
3010
1000
0200
0000
,
1300
0001
0200
0000
0310
1000
0020
0000
,
0130
0001
2000
0000
3100
1000
0002
0000
,
0013
0100
0020
0000
0031
1000
0002
0000
,
0103
0010
0200
0000
0310
1000
0020
0000
,
0230
0302
2000
0000
,
3003
0000
0000
0000
;

//---------------dance-single - ----------------
#NOTES:
     dance-single:
     :
     Medium:
     5:
     0.254935,0.280429,0.039834,0.023900,0.000000,224.000000,219.000000,5.000000,3.000000,0.000000,0.000000,0.254935,0.280429,0.039834,0.023900,0.000000,224.000000,219.000000,5.000000,3.000000,0.000000,0.000000:
0000
0000
0000
0000
,
0000
0000
0000
0000
,
0000
0000
0000
0000
,
0000
0000
0000
0000
,
0010
1000
0001
0100
,
0001
1000
0001
0100
,
0010
1000
0100
0010
,
0001
1000
0010
0100
,
0001
0010
0001
0000
1000
0100
1000
0000
,
0010
0100
0010
0000
1000
0001
1000
0000
,
0100
1000
0001
0000
0100
0001
1000
0000
,
0010
0100
0001
0000
0010
0100
0010
0000
,
0001
0000
0101
0000
1000
0010
1000
0000
,
0100
0000
1100
0000
0010
0100
0010
0000
,
1000
0000
1001
0000
0001
1000
0100
0000
,
0010
0000
0110
0000
0010
0001
0100
0000
,
0010
1000
0100
0000
0010
0001
0010
0000
,
0001
0100
1000
0000
1000
0100
0001
0000
,
1000
0010
0100
0000
0100
0001
0010
0000
,
0010
0100
1000
0000
0001
0010
0100
0000
,
1000
0001
1000
0001
0100
0001
0100
0000
,
0010
1000
0010
1000
0001
0010
0001
0000
,
1000
0100
1000
0100
0010
0001
0010
0000
,
0100
1000
0001
1000
0100
1000
0100
0000
,
1000
0001
0100
0001
1000
0001
0100
0001
,
1000
0010
1000
0001
1000
0010
1000
0000
,
0010
0100
0001
0100
0010
0100
0001
0100
,
0010
1000
0010
0100
0001
1000
0010
0000
,
0100
0000
0001
0000
1000
0010
0100
0001
,
1000
0000
0100
0000
0010
0001
1000
0100
,
0010
0000
0001
0000
1000
0010
0100
0001
,
1000
0000
0010
0000
0100
0001
0010
0100
,
0010
0000
0100
0000
1000
0010
0100
0001
,
1000
0000
0010
0000
1000
0100
0010
0001
,
1000
0000
0010
0000
0100
0001
1000
0010
,
0100
0001
1000
1001
,
0010
1000
0100
0010
,
0001
1000
0100
0010
,
0001
0100
0010
1000
,
0100
1000
0001
0100
,
0010
1000
0001
0010
,
0100
1000
0001
0100
,
0010
1000
0100
0010
,
0002
2003
3200
0000
,
0300
0000
0000
0000
;

//---------------dance-single - ----------------
#NOTES:
     dance-single:
     :
     Easy:
     3:
     0.136573,0.175268,0.007967,0.278836,0.000000,120.000000,119.000000,1.000000,35.000000,0.000000,0.000000,0.136573,0.175268,0.007967,0.278836,0.000000,120.000000,119.000000,1.000000,35.000000,0.000000,0.000000:
// measure 0
0000
0000
0000
0000
,  // measure 1
0000
0000
0000
0000
,  // measure 2
0000
0000
0000
0000
,  // measure 3
0000
0000
0000
0000
,  // measure 4
0010
0000
1000
0100
,  // measure 5
0010
0000
0001
0010
,  // measure 6
0100
0000
1000
0001
,  // measure 7
1000
0000
0010
0100
,  // measure 8
0001
0001
1000
1000
,  // measure 9
0100
0100
0010
0010
,  // measure 10
0001
0001
1000
1000
,  // measure 11
0010
0010
0100
0110
,  // measure 12
0100
0100
0002
0003
,  // measure 13
1000
1000
0020
0030
,  // measure 14
1000
1000
0200
0300
,  // measure 15
0001
0001
0200
0300
,  // measure 16
0010
2000
3000
1000
,  // measure 17
0100
0002
0003
0001
,  // measure 18
0010
2000
3000
1000
,  // measure 19
0010
0002
0003
0001
,  // measure 20
0100
0020
0030
0010
,  // measure 21
1000
0200
0300
0100
,  // measure 22
0010
0002
0003
0001
,  // measure 23
1000
0020
0030
0010
,  // measure 24
0100
0001
0020
0030
,  // measure 25
0100
1000
0010
0100
,  // measure 26
0001
1000
0200
0300
,  // measure 27
0010
0001
0100
0010
,  // measure 28
2000
3000
0100
0001
,  // measure 29
0200
0300
1000
0001
,  // measure 30
2000
3000
0010
1000
,  // measure 31
0020
0030
0001
1000
,  // measure 32
0002
0003
0010
0001
,  // measure 33
0020
0030
0100
1000
,  // measure 34
0200
0300
0001
1000
,  // measure 35
0002
0003
0200
0300
,  // measure 36
0020
0030
2000
3000
,  // measure 37
0200
0300
0010
0001
,  // measure 38
2000
3000
0020
0030
,  // measure 39
0200
0300
0001
0100
,  // measure 40
0002
0003
0020
0030
,  // measure 41
0200
0300
1000
0100
,  // measure 42
2000
3000
0020
0030
,  // measure 43
0200
0000
0000
0000
,  // measure 44
0300
0000
0000
0000
;

//---------------dance-single - ----------------
#NOTES:
     dance-single:
     :
     Beginner:
     1:
     0.078529,0.087634,0.000000,0.246969,0.000000,69.000000,69.000000,0.000000,31.000000,0.000000,0.000000,0.078529,0.087634,0.000000,0.246969,0.000000,69.000000,69.000000,0.000000,31.000000,0.000000,0.000000:
// measure 0
0000
0000
0000
0000
,  // measure 1
0000
0000
0000
0000
,  // measure 2
0000
0000
0000
0000
,  // measure 3
0000
0000
0000
0000
,  // measure 4
0010
0000
0010
0000
,  // measure 5
1000
0000
1000
0000
,  // measure 6
0100
0000
0100
0000
,  // measure 7
0001
0000
0001
0000
,  // measure 8
0010
0000
0100
0000
,  // measure 9
0010
0000
0100
0000
,  // measure 10
1000
0000
0001
0000
,  // measure 11
1000
0000
0001
0000
,  // measure 12
0200
0000
0300
0000
,  // measure 13
0020
0000
0030
0000
,  // measure 14
2000
0000
3000
0000
,  // measure 15
0002
0000
0003
0000
,  // measure 16
0010
0000
0100
0000
,  // measure 17
0010
0000
0100
0000
,  // measure 18
0020
0030
0200
0300
,  // measure 19
0020
0030
0200
0300
,  // measure 20
1000
1000
0000
0001
,  // measure 21
0000
0100
0000
0100
,  // measure 22
0000
0010
0000
1000
,  // measure 23
0000
0001
0000
0010
,  // measure 24
0000
0200
0300
2000
,  // measure 25
3000
0002
0003
0200
,  // measure 26
0300
0020
0030
2000
,  // measure 27
3000
0002
0003
0010
,  // measure 28
0010
0000
0200
0300
,  // measure 29
1000
0000
0002
0003
,  // measure 30
0100
0000
0020
0030
,  // measure 31
1000
0000
0002
0003
,  // measure 32
0200
0300
0020
0030
,  // measure 33
2000
3000
0200
0300
,  // measure 34
0020
0030
0002
0003
,  // measure 35
2000
3000
0020
0030
,  // measure 36
0100
0000
0000
0000
,  // measure 37
0001
0000
0000
0000
,  // measure 38
0010
0000
0000
0000
,  // measure 39
0100
0000
0000
0000
,  // measure 40
2000
0000
3000
0000
,  // measure 41
0002
0000
0003
0000
,  // measure 42
0200
0000
0300
0000
,  // measure 43
0020
0000
0000
0000
,  // measure 44
0030
0000
0000
0000
;
