#TITLE:Anything Could Happen;
#SUBTITLE:;
#ARTIST:Ellie Goulding;
#TITLETRANSLIT:;
#SUBTITLETRANSLIT:;
#ARTISTTRANSLIT:;
#GENRE:Halcyon;
#CREDIT:;
#BANNER:Anything Could Happen-bn.png;
#BACKGROUND:Anything Could Happen-bg.png;
#LYRICSPATH:;
#CDTITLE:;
#MUSIC:Anything Could Happen.mp3;
#OFFSET:0.018000;
#SAMPLESTART:93.208000;
#SAMPLELENGTH:18.641001;
#LASTBEATHINT:196.984177;
#SELECTABLE:YES;
#BPMS:0.000000=103.000000
;
#STOPS:
;
#BGCHANGES:0.000=Anything Could Happen-video.avi=1.000=1=0=1===CrossFade==,
99999=-nosongbg-=1.000=0=0=0 // don't automatically add -songbackground-
;
#KEYSOUNDS:;
#ATTACKS:;

//---------------dance-single - ----------------
#NOTES:
     dance-single:
     :
     Hard:
     7:
     0.320663,0.415995,0.017333,0.103999,0.077999,259.000000,257.000000,2.000000,12.000000,0.000000,0.000000,0.320663,0.415995,0.017333,0.103999,0.077999,259.000000,257.000000,2.000000,12.000000,0.000000,0.000000:
// measure 0
0000
0000
0000
0000
,  // measure 1
0000
0000
0000
0000
,  // measure 2
0000
0000
0000
0000
,  // measure 3
0000
0000
0000
0000
,  // measure 4
1000
0000
0001
0000
0100
0000
0001
1000
,  // measure 5
0100
0010
0100
0010
0001
0000
1000
0010
,  // measure 6
0100
0001
1000
0001
,  // measure 7
1000
0001
0010
0100
,  // measure 8
1000
0000
0001
0000
0010
0000
0001
1000
,  // measure 9
0100
0010
0100
0010
0001
0000
1000
0001
,  // measure 10
0100
0010
1000
0001
,  // measure 11
1000
0000
0010
1000
0001
0100
0001
0000
,  // measure 12
1001
0000
0001
0000
0010
0000
0001
1000
,  // measure 13
0000
0100
1000
0001
1000
0000
0010
1000
,  // measure 14
0100
1000
0001
0001
,  // measure 15
1000
0000
0001
1000
0100
0010
0001
1000
,  // measure 16
0001
0000
0010
0000
0100
0000
1000
0001
,  // measure 17
0000
1000
0010
1000
0001
0001
0100
0100
,  // measure 18
0010
1000
0001
1000
,  // measure 19
0100
0000
1000
0001
0100
0010
0100
0000
,  // measure 20
0001
0000
0000
0000
1000
0001
0100
0000
,  // measure 21
0001
0000
0000
1000
1000
0010
0001
1000
,  // measure 22
0100
0001
0000
0000
0001
0100
1000
0001
,  // measure 23
0010
1000
0000
0000
0001
0010
1000
0001
,  // measure 24
0100
1000
0000
0000
0001
0100
1000
0001
,  // measure 25
0010
1000
0000
0000
1000
0100
0001
1000
,  // measure 26
0010
0001
0000
0000
1000
0010
0001
1000
,  // measure 27
0100
0001
0000
0000
1000
0100
0001
1000
,  // measure 28
0110
0000
0000
0000
0010
0000
0000
0000
0010
0000
0000
2000
0000
0000
3100
0000
,  // measure 29
0100
0000
0000
0000
0100
0000
0000
0000
0100
0000
0000
0020
0000
0000
0031
0000
,  // measure 30
0001
0000
0000
0000
1000
0000
0000
0000
0100
0000
0000
0020
0000
0000
0130
0000
,  // measure 31
0100
0000
0000
0020
0000
0000
0031
0000
0001
0000
0000
2000
0000
0000
3001
0000
,  // measure 32
0001
0000
1000
0100
0000
0000
1000
0000
0010
0000
1000
0010
1000
0000
0001
0000
,  // measure 33
0100
0000
0100
0010
0000
0000
1000
0000
0001
0100
0001
0000
1000
0000
0100
0000
,  // measure 34
0010
0000
0100
1000
0000
0000
0001
0010
0001
0000
1000
0000
0000
0000
0100
1000
,  // measure 35
0100
0010
0001
1000
0100
0010
0100
0010
,  // measure 36
0001
1000
0001
0100
0010
0000
1000
0001
,  // measure 37
0000
1000
0001
1000
0010
0000
1000
0001
,  // measure 38
0000
0100
0010
0100
0001
0000
1000
0100
,  // measure 39
0000
0010
0100
0010
0001
0000
2000
0000
,  // measure 40
3100
0000
0000
0000
0100
0000
0000
0000
0100
0000
0000
0020
0000
0000
0031
0000
,  // measure 41
0100
0000
0000
0000
0001
0000
0000
0000
1000
0000
0000
0020
0000
0000
1030
0000
,  // measure 42
0001
0000
0000
0000
0100
0000
0000
0000
0010
0000
0000
2000
0000
0000
3001
0000
,  // measure 43
0100
0001
1000
0010
0100
0001
1000
0000
,  // measure 44
0100
0000
0000
0000
0100
0000
0000
0000
0100
0000
0000
0020
0000
0000
0031
0000
,  // measure 45
0100
0000
0000
0000
0100
0000
0000
0000
0100
0000
0000
0020
0000
0000
1030
0000
,  // measure 46
0100
0000
0000
0000
1000
0000
0000
0000
0001
0000
0000
0020
0000
0000
0031
0000
,  // measure 47
1000
0010
0100
0010
1000
0001
1000
0000
,  // measure 48
0100
0000
0000
0000
;

//---------------dance-single - ----------------
#NOTES:
     dance-single:
     :
     Medium:
     5:
     0.215426,0.249597,0.017333,0.008667,0.000000,174.000000,172.000000,2.000000,1.000000,0.000000,0.000000,0.215426,0.249597,0.017333,0.008667,0.000000,174.000000,172.000000,2.000000,1.000000,0.000000,0.000000:
0000
0000
0000
0000
,
0000
0000
0000
0000
,
0000
0000
0000
0000
,
0000
0000
0000
0000
,
1000
0000
0010
0000
1000
0000
0100
0010
,
0000
0100
0010
0000
0100
0000
1000
0000
,
0001
0000
1000
0000
,
0001
0000
1000
0000
,
0010
0000
1000
0000
0100
0000
0010
0100
,
0000
0010
0001
0000
1000
0000
0100
0000
,
0010
0000
0100
0000
,
1000
0000
0001
0100
0010
0000
0100
0000
,
0001
0000
1000
0000
0100
0000
0010
0100
,
0000
1000
0001
0000
1000
0000
0010
0000
,
0100
0000
0010
0000
,
1000
0000
0100
0000
0010
0100
0010
0000
,
0001
0000
1000
0000
0010
0000
1000
0001
,
0000
1000
0100
0000
0010
0000
0001
0000
,
0100
0000
0010
0000
,
1000
0000
0000
0000
0001
1000
0001
0000
,
0100
0000
0000
0000
0001
1000
0001
0000
,
0100
0000
0010
1000
,
0100
0000
0010
1000
,
0100
0000
0001
1000
,
0100
0000
0001
1000
,
0100
0000
0001
1000
,
0100
0000
0010
0001
,
1000
0000
0010
0001
,
1000
0000
1000
0000
1000
0000
0010
1000
,
0100
0000
0100
0000
0100
0000
1000
0001
,
0100
0000
0100
0000
0100
0000
0001
1000
,
0001
0010
0100
2000
,
3001
0100
0010
1000
,
0001
1000
0001
1000
0001
0000
0010
0000
,
0100
1000
0001
0100
,
0010
0100
0010
0000
1000
0000
0001
0000
,
1000
0010
1000
1000
,
0001
0010
0001
0001
,
0100
0000
0000
0000
,
0000
0000
0000
0000
,
1001
0000
0010
0000
1000
0000
1000
0100
,
0010
0000
0010
0000
0001
0000
1000
0001
,
0100
0000
0010
0000
1000
0000
0000
0100
,
1001
0000
0100
0001
0100
0000
0010
0000
,
1000
0000
0100
0000
0010
0000
0001
1000
,
0010
0000
0100
0000
0010
0000
1000
0010
,
0100
0000
0001
0000
1000
0000
0100
0010
,
0001
0000
1000
0001
0100
0000
0010
0000
,
1000
0000
0000
0000
;

//---------------dance-single - ----------------
#NOTES:
     dance-single:
     :
     Easy:
     3:
     0.131237,0.144082,0.008667,0.000000,0.000000,106.000000,105.000000,1.000000,0.000000,0.000000,0.000000,0.131237,0.144082,0.008667,0.000000,0.000000,106.000000,105.000000,1.000000,0.000000,0.000000,0.000000:
0000
0000
0000
0000
,
0000
0000
0000
0000
,
0000
0000
0000
0000
,
0000
0000
0000
0000
,
1000
0000
0100
0000
,
0010
0100
0010
0001
,
0100
0000
0010
0000
,
1000
0000
0001
0000
,
0010
0000
0100
0000
,
1000
0100
0010
0001
,
1000
0000
0010
0000
,
0100
0000
0001
0000
,
1000
0000
0100
0000
,
0010
0100
1000
0001
,
0100
0000
0010
0000
,
1000
0000
0001
0000
,
0100
0000
0010
0000
,
1000
0100
0010
0001
,
0100
0000
0001
0000
,
1000
0000
0010
1000
,
0100
0000
0010
1000
,
0100
0000
0001
1000
,
0001
0000
0001
1000
,
0001
0000
0010
1000
,
0001
0000
0010
1000
,
0001
0000
0001
1000
,
0001
0000
0100
0001
,
1000
0000
0100
0001
,
1000
0000
0100
0010
,
0100
0000
0010
0100
,
1000
0000
1000
0001
,
0100
0000
1000
0000
,
0001
0000
0000
0000
,
0000
0010
1000
0010
,
1000
0000
0000
0000
,
0000
1000
0100
0010
,
0001
0000
1000
0000
,
0001
0000
1000
0000
,
0010
0000
0000
0000
,
0000
0000
0000
0000
,
1001
0000
0100
0000
,
0010
0000
1000
0000
,
0100
0000
0010
0000
,
0001
0000
1000
0000
,
0010
0000
1000
0000
,
0100
0000
0010
0000
,
0100
0000
0010
0000
,
0001
0000
1000
0000
;

//---------------dance-single - ----------------
#NOTES:
     dance-single:
     :
     Beginner:
     1:
     0.076761,0.103999,0.017333,0.000000,0.000000,62.000000,60.000000,2.000000,0.000000,0.000000,0.000000,0.076761,0.103999,0.017333,0.000000,0.000000,62.000000,60.000000,2.000000,0.000000,0.000000,0.000000:
0000
0000
0000
0000
,
0000
0000
0000
0000
,
0000
0000
0000
0000
,
0000
0000
0000
0000
,
0010
0000
1000
0000
,
0100
0000
0010
0000
,
0001
0000
0000
0000
,
0000
0000
0000
0000
,
0001
0000
1000
0000
,
0010
0000
0100
0000
,
0001
0000
0000
0000
,
0000
0000
1000
0000
,
0100
0000
0010
0000
,
0100
0000
1000
0000
,
0001
0000
0000
0000
,
0000
0000
0100
0000
,
0010
0000
1000
0000
,
0001
0000
0100
0000
,
0010
0000
0000
0000
,
0000
0000
1000
0000
,
0100
0000
0010
0000
,
0001
0000
1000
0000
,
0100
0000
0000
0000
,
0100
0000
0000
0000
,
0010
0000
0000
0000
,
0010
0000
0000
0000
,
0100
0000
0000
0000
,
0100
0000
0000
0000
,
1001
0000
0000
0000
,
0010
0000
0000
0000
,
1000
0000
0000
0000
,
0001
0000
0010
0000
,
0100
0000
0000
0000
,
0000
1000
0000
1000
,
1000
0000
0000
0000
,
0000
0001
0000
0001
,
0001
0000
0000
0000
,
0010
0000
0000
0000
,
0100
0000
0000
0000
,
0100
0000
0000
0000
,
1001
0000
0000
0000
,
0100
0000
0000
0000
,
0010
0000
0000
0000
,
1000
0000
1000
0000
,
1000
0000
0000
0000
,
0001
0000
0001
0000
,
0001
0000
0000
0000
,
0100
0000
0100
0000
,
0100
0000
0000
0000
;
