#VERSION:0.83;
#TITLE:Another Sunny Day;
#SUBTITLE:;
#ARTIST:Belle & Sebastian;
#TITLETRANSLIT:;
#SUBTITLETRANSLIT:;
#ARTISTTRANSLIT:;
#GENRE:The Life Pursuit;
#ORIGIN:;
#CREDIT:[Ness];
#BANNER:Another Sunny Day.png;
#BACKGROUND:Another Sunny Day-bg.png;
#PREVIEWVID:;
#JACKET:Another Sunny Day-jacket.png;
#CDIMAGE:;
#DISCIMAGE:;
#LYRICSPATH:Another Sunny Day.lrc;
#CDTITLE:;
#MUSIC:Another Sunny Day.mp3;
#OFFSET:-0.183000;
#SAMPLESTART:15.225942;
#SAMPLELENGTH:22.748226;
#SELECTABLE:YES;
#BPMS:0.000=156.710,
31.000=158.000,
38.000=160.000,
45.000=157.000,
53.000=157.400,
69.000=157.700,
76.000=156.000,
86.000=155.000,
94.000=156.000,
108.000=158.000,
132.000=157.500,
144.000=155.000,
156.000=157.000,
168.000=156.500,
170.000=154.000,
176.000=153.000,
179.000=154.000,
183.000=155.500,
203.000=153.000,
210.000=154.500,
214.000=155.000,
240.000=158.000,
248.000=159.500,
268.000=158.000,
277.000=155.000,
286.000=156.000,
291.000=158.000,
298.000=157.000,
303.000=156.000,
304.000=154.000,
308.500=144.000,
309.000=120.000,
309.333=100.000,
309.500=95.000;
#STOPS:;
#DELAYS:;
#WARPS:;
#TIMESIGNATURES:0.000=4=4;
#TICKCOUNTS:0.000=2;
#COMBOS:0.000=1;
#SPEEDS:0.000=1.000=0.000=0;
#SCROLLS:0.000=1.000;
#FAKES:;
#LABELS:0.000=Song Start;
#LASTSECONDHINT:121.781784;
#BGCHANGES:0.000=Another Sunny Day-video.avi=1.000=0=0=0=StretchNoLoop====,
99999=-nosongbg-=1.000=0=0=0 // don't automatically add -songbackground-
;
#KEYSOUNDS:;
#ATTACKS:
;

//---------------dance-single - ----------------
#NOTEDATA:;
#CHARTNAME:[Ness];
#STEPSTYPE:dance-single;
#DESCRIPTION:[Ness];
#CHARTSTYLE:;
#DIFFICULTY:Hard;
#METER:7;
#RADARVALUES:0.479539,0.495183,0.174584,0.015871,0.047614,423.000000,401.000000,22.000000,2.000000,0.000000,0.000000,0.000000,0.000000,0.000000,0.479539,0.495183,0.174584,0.015871,0.047614,423.000000,401.000000,22.000000,2.000000,0.000000,0.000000,0.000000,0.000000,0.000000;
#CREDIT:[Ness];
#NOTES:
// measure 0
0000
0000
0000
0000
,  // measure 1
0000
0000
0000
0000
,  // measure 2
0000
0000
0000
0000
,  // measure 3
0000
0000
0000
0000
,  // measure 4
0000
0000
0000
0000
,  // measure 5
0000
0000
0000
0000
,  // measure 6
0001
0000
0000
0100
0000
0010
0100
0010
,  // measure 7
1000
0000
0000
0100
0010
0001
0100
0000
,  // measure 8
0001
0101
1000
1100
,  // measure 9
0001
0000
0101
0000
1000
0001
0100
0000
,  // measure 10
1000
0010
1000
0100
0010
0000
0110
0000
,  // measure 11
0010
0001
1000
0100
0000
1000
0001
1000
,  // measure 12
0000
0010
0100
0000
0001
0100
0001
0000
,  // measure 13
1000
0010
1000
0000
0001
0100
0001
0000
,  // measure 14
0010
0001
0010
0100
1000
0000
0110
0000
,  // measure 15
0001
1000
0001
0100
0000
0010
0100
0010
,  // measure 16
0000
1000
0100
0000
0100
1000
0001
0000
,  // measure 17
0001
0100
0010
0000
1010
0000
1010
0000
,  // measure 18
0001
0010
0001
0100
0000
0001
0100
0000
,  // measure 19
1000
0010
1000
0100
0000
0010
0100
0000
,  // measure 20
0010
0001
0100
0010
1000
0000
0001
0000
,  // measure 21
0010
0000
0100
1000
0000
0001
0100
0001
,  // measure 22
0000
1000
0010
1000
0000
0001
1000
0001
,  // measure 23
0000
0010
0100
0000
1000
0001
0100
0000
,  // measure 24
0010
1000
0001
0100
,  // measure 25
0001
0000
0010
0000
0100
0100
1000
0000
,  // measure 26
0001
0010
0100
1000
,  // measure 27
0010
0100
0001
1000
,  // measure 28
0010
1000
0010
0000
0001
0100
0001
0000
,  // measure 29
1000
0100
1000
0000
0010
0001
0010
0000
,  // measure 30
0001
1000
0010
0100
,  // measure 31
0001
1000
0100
0010
,  // measure 32
0001
0000
1000
0001
0100
0010
0000
1000
,  // measure 33
0010
1000
0100
0010
0000
0001
0010
0001
,  // measure 34
1000
0000
0001
0000
0100
0001
1000
0001
,  // measure 35
0000
0010
0000
0100
0000
1000
0100
1000
,  // measure 36
0100
0000
0010
0000
0001
1000
0001
1000
,  // measure 37
0000
0010
1000
0010
0000
0100
0001
0100
,  // measure 38
0001
0000
0000
1000
0010
1000
0100
1000
,  // measure 39
0000
1000
0001
1000
0000
0010
0100
0001
,  // measure 40
0100
0000
0010
1000
0010
0100
0000
0001
,  // measure 41
1000
0001
0100
0001
0000
0001
0010
0100
,  // measure 42
1000
0010
0100
0001
1000
0000
1001
0000
,  // measure 43
0001
1000
0001
0100
0000
0001
1000
0001
,  // measure 44
0000
0010
0001
0000
1000
0100
1000
0000
,  // measure 45
0001
0100
1000
0000
0001
0100
1000
0000
,  // measure 46
0001
0100
0001
1000
0010
0000
0110
0000
,  // measure 47
0001
0010
0100
1000
0000
1000
0010
0100
,  // measure 48
0001
1000
0100
0000
0001
1000
0010
0000
,  // measure 49
1000
0001
0100
0000
0101
0000
0101
0000
,  // measure 50
1001
0000
0100
0000
0001
0100
0010
0000
,  // measure 51
1000
0010
1000
0000
0100
1000
0001
0000
,  // measure 52
0100
0000
0110
0000
0001
1000
0100
0000
,  // measure 53
0010
0001
0100
0000
0010
1000
0100
0000
,  // measure 54
0010
0001
0010
0000
0001
1000
0100
1000
,  // measure 55
0001
0000
0010
0000
0100
1000
0010
0100
,  // measure 56
0001
1000
0010
0100
,  // measure 57
0001
0010
0110
1100
,  // measure 58
1000
0001
0100
0010
0000
0100
0010
0100
,  // measure 59
0000
0001
0010
0000
0100
1000
0001
0000
,  // measure 60
1000
0000
0101
0000
0001
0010
0100
0010
,  // measure 61
0001
0000
0110
0000
1000
0100
0010
0000
,  // measure 62
0001
0000
0000
0001
0010
0000
0000
0010
0100
0000
0000
0100
1000
0000
0000
1000
,  // measure 63
0100
0000
0000
0100
0010
0000
0000
0010
0001
0000
0000
0000
1000
0000
0001
0000
,  // measure 64
0000
0000
1001
0000
0010
0000
0001
1000
,  // measure 65
0000
1001
0010
0100
,  // measure 66
0001
0000
0000
0001
0100
0000
0000
0100
0010
0000
0000
0010
1000
0000
0000
1000
,  // measure 67
0100
0000
0000
0100
0010
0000
0000
0010
0001
0000
0000
0000
1000
0000
0001
0000
,  // measure 68
0000
0000
1001
0000
0010
0000
0001
1000
,  // measure 69
0000
0000
1001
0000
0010
1000
0100
0000
,  // measure 70
1000
0000
0001
0000
0010
0100
0010
0100
,  // measure 71
0000
1000
0000
0001
0000
0100
0001
0100
,  // measure 72
0010
0000
1000
0000
0001
1000
0001
1000
,  // measure 73
0000
0100
1000
0100
0000
0010
0001
0000
,  // measure 74
1000
0000
0010
1000
0001
1000
0100
1000
,  // measure 75
0000
0100
0010
0100
0000
0010
0001
0100
,  // measure 76
0010
1000
0001
0100
,  // measure 77
0010
1000
0100
0000
2002
0000
0000
0000
,  // measure 78
3003
0000
0000
0000
;

//---------------dance-single - ----------------
#NOTEDATA:;
#CHARTNAME:[Ness];
#STEPSTYPE:dance-single;
#DESCRIPTION:[Ness];
#CHARTSTYLE:;
#DIFFICULTY:Medium;
#METER:6;
#RADARVALUES:0.358237,0.433285,0.103163,0.031743,0.000000,316.000000,303.000000,13.000000,4.000000,0.000000,0.000000,0.000000,0.000000,0.000000,0.358237,0.433285,0.103163,0.031743,0.000000,316.000000,303.000000,13.000000,4.000000,0.000000,0.000000,0.000000,0.000000,0.000000;
#CREDIT:[Ness];
#NOTES:
0000
0000
0000
0000
,
0000
0000
0000
0000
,
0000
0000
0000
0000
,
0000
0000
0000
0000
,
0000
0000
0000
0000
,
0000
0000
0000
0000
,
0001
0010
0100
1000
,
0001
0010
0100
1000
,
0001
0001
1000
1000
,
0010
0010
0100
0100
,
0001
0010
0100
1000
,
0001
1000
0100
0010
,
0001
0100
0010
1000
,
0100
0001
0100
1000
,
0001
0100
0010
1000
,
0100
0010
0001
1000
,
0001
0010
0001
0100
,
0010
0100
0110
0110
,
0001
0100
0001
1000
,
0010
0000
1000
0000
0100
0010
0100
0000
,
0010
0001
0100
0010
,
1000
0000
0100
0000
0010
0100
0010
0000
,
0001
1000
0010
0100
,
0001
1000
0100
0010
,
0001
1000
0001
0100
,
0001
0000
1000
0000
0010
1000
0000
0000
,
1000
0100
0010
0001
,
1000
0000
0100
0000
0010
0000
0001
0010
,
0001
0100
0010
1000
,
0001
0100
0010
1000
,
0010
0100
0001
1000
,
0010
0100
1000
0100
,
0010
0001
1000
0010
,
0100
0000
0001
0000
1000
0001
1000
0000
,
0010
1000
0100
0010
,
0001
0000
1000
0000
0010
1000
0010
0000
,
0100
0001
1000
0100
,
0010
0000
0001
0000
0010
0001
0010
0000
,
0100
1000
0010
0100
,
0001
0100
0001
0000
1000
0010
1000
0000
,
0010
1000
0100
0010
,
0001
1000
0010
0100
,
0001
1000
0001
0000
1000
0100
1000
0000
,
0001
0010
0100
1000
,
0001
0000
1000
0000
0001
0100
0001
0000
,
1000
0010
1000
0000
0100
0000
0010
0000
,
0001
1000
0010
0100
,
0010
1000
0010
0000
0100
0001
0100
0000
,
0010
1000
0100
0010
,
0001
1000
0001
0010
,
0001
0000
0100
0000
1000
0100
0001
0000
,
1000
0100
0001
0000
0101
0000
1010
0000
,
0001
0100
0010
0000
1000
0010
0100
0000
,
1000
0100
0001
0010
,
0100
1000
0001
0100
,
0010
0000
1000
0000
0100
0010
0100
0000
,
0010
0001
0100
0100
,
0001
0001
1000
1000
,
0010
0000
0100
0000
0010
0000
0100
0010
,
0000
0000
1000
0000
0100
0010
0100
0000
,
0010
0001
0100
0001
,
0010
0000
0010
0100
,
0001
0010
0100
1000
,
0100
0000
0010
0000
0001
0000
0000
1001
,
0000
0000
1001
0000
0100
0000
0000
1001
,
0000
1001
0100
0010
,
0001
0010
0100
1000
,
0100
0000
0010
0000
0001
0000
0000
1001
,
0000
0000
1001
0000
0100
0000
0100
1001
,
0000
1001
0100
0010
,
1000
0100
0010
0100
,
0010
0000
0001
1000
0000
0010
0000
0100
,
0000
0001
1000
0100
,
0000
0010
0100
0000
0010
0000
0001
0000
,
0100
0020
0000
0000
2030
3000
0000
0000
,
0010
0100
0010
0100
,
1000
0001
0100
0010
,
1000
0001
1000
0000
2002
0000
0000
0000
,
3003
0000
0000
0000
;

//---------------dance-single - ----------------
#NOTEDATA:;
#CHARTNAME:[Ness];
#STEPSTYPE:dance-single;
#DESCRIPTION:[Ness];
#CHARTSTYLE:;
#DIFFICULTY:Easy;
#METER:2;
#RADARVALUES:0.204059,0.278540,0.087292,0.079356,0.000000,180.000000,169.000000,11.000000,10.000000,0.000000,0.000000,0.000000,0.000000,0.000000,0.204059,0.278540,0.087292,0.079356,0.000000,180.000000,169.000000,11.000000,10.000000,0.000000,0.000000,0.000000,0.000000,0.000000;
#CREDIT:[Ness];
#NOTES:
0000
0000
0000
0000
,
0000
0000
0000
0000
,
0000
0000
0000
0000
,
0000
0000
0000
0000
,
0000
0000
0000
0000
,
0000
0000
0000
0000
,
0010
0000
0000
1000
,
0100
0000
0000
0001
,
0010
0100
0000
0100
,
0000
0100
0000
1000
,
0000
0001
0000
1000
,
0000
0010
0000
0100
,
0000
0001
0000
0010
,
0000
0100
0000
1000
,
0000
0001
0000
0100
,
0000
0010
0000
1000
,
0000
0100
0000
0001
,
0000
1000
1001
1001
,
0000
0010
0000
0100
,
0000
0001
0000
0010
,
0000
0100
0000
1000
,
0000
0001
0000
0100
,
0000
0010
0000
1000
,
0000
0100
0000
0010
,
0000
0001
0000
1000
,
0000
0010
0100
0100
,
0001
0001
0001
0001
,
1000
1000
1000
0100
,
0001
0000
0100
0000
,
1000
0000
0100
0000
,
0010
1000
1000
1000
,
0001
0100
0100
0100
,
1000
0000
0100
0000
,
0001
1000
0100
0000
,
0010
0100
0010
0000
,
0001
0000
1000
0000
,
0100
0000
0010
0000
,
0001
0000
1000
0000
,
0010
1000
0010
0000
,
0100
0001
0100
0000
,
0001
0000
0010
0000
,
0100
0000
1000
0000
,
0010
0010
0000
1000
,
0000
0001
0000
0100
,
0000
0010
0000
1000
,
0000
0100
0000
0010
,
0000
0001
0000
1000
,
0000
0010
0000
0100
,
0000
0001
0000
0010
,
0000
0100
0110
0110
,
0000
1000
0000
0001
,
0000
1000
0000
0010
,
0000
0100
0000
0010
,
0000
1000
0000
0001
,
0000
0010
0000
0100
,
0000
1000
0000
0001
,
0000
0100
0000
0010
,
0000
1000
1001
1001
,
0010
0100
0000
0100
,
0000
0001
0000
1000
,
0000
0100
0000
1000
,
0000
0001
0000
0100
,
0100
0010
0100
0010
,
0100
0000
0010
0000
0100
0000
0000
0220
,
0000
0000
0330
0000
0000
0000
0000
0220
,
0000
0330
0000
0000
,
0001
1000
0001
1000
,
0001
0000
1000
0000
0001
0000
0000
2002
,
0000
0000
3003
0000
0000
0000
0000
2002
,
0000
3003
0000
0000
,
0001
0000
0010
0000
,
1000
1000
0100
0100
,
0001
0000
0100
0000
,
1000
0000
0100
0000
,
0001
0000
0100
0000
,
0010
0010
1000
1000
,
0100
0000
0010
0000
,
0001
0000
2002
0000
,
3003
0000
0000
0000
;

//---------------dance-single - ----------------
#NOTEDATA:;
#CHARTNAME:[Ness];
#STEPSTYPE:dance-single;
#DESCRIPTION:[Ness];
#CHARTSTYLE:;
#DIFFICULTY:Beginner;
#METER:1;
#RADARVALUES:0.164381,0.185694,0.039678,0.079356,0.000000,145.000000,140.000000,5.000000,10.000000,0.000000,0.000000,0.000000,0.000000,0.000000,0.164381,0.185694,0.039678,0.079356,0.000000,145.000000,140.000000,5.000000,10.000000,0.000000,0.000000,0.000000,0.000000,0.000000;
#CREDIT:[Ness];
#NOTES:
0000
0000
0000
0000
,
0000
0000
0000
0000
,
0000
0000
0000
0000
,
0000
0000
0000
0000
,
0000
0000
0000
0000
,
0000
0000
0000
0000
,
0100
0000
0000
0000
,
0010
0000
0000
0000
,
0000
0010
0000
0010
,
0000
0010
0000
0010
,
0000
1000
0000
0001
,
0000
0100
0000
0010
,
0000
1000
0000
0100
,
0000
0010
0000
0001
,
0000
1000
0000
0010
,
0000
0100
0000
0001
,
0000
0010
0000
0100
,
0000
1000
1000
1000
,
0000
0100
0000
0010
,
0000
0001
0000
0100
,
0000
0010
0000
1000
,
0000
0100
0000
0010
,
0000
0100
0000
0010
,
0000
0001
0000
0010
,
0000
1000
0000
0010
,
0000
0100
0100
0100
,
0000
1000
0000
1000
,
0000
0001
0000
0001
,
0000
0010
0000
0001
,
0000
0010
0000
0100
,
0000
1000
0000
1000
,
0000
0010
0000
0010
,
0000
0001
0000
0010
,
0000
1000
0000
0010
,
0000
0010
0000
0100
,
0000
0001
0000
1000
,
0000
0010
0000
0100
,
0000
0001
0000
1000
,
0000
0100
0000
1000
,
0000
0001
0000
0010
,
0000
0001
0000
0100
,
0000
0010
0000
1000
,
0000
0100
0000
1000
,
0000
0001
0000
0010
,
0000
0100
0000
1000
,
0000
0010
0000
0100
,
0000
0001
0000
1000
,
0000
0100
0000
0010
,
0000
0001
0000
0100
,
0000
0010
0010
0010
,
0000
0001
0000
1000
,
0000
0001
0000
0100
,
0000
0010
0000
0100
,
0000
0001
0000
1000
,
0000
0100
0000
0010
,
0000
0001
0000
1000
,
0000
0010
0000
0100
,
0000
0001
0001
0001
,
0000
0100
0000
0010
,
0000
1000
0000
0001
,
0000
0010
0000
0001
,
0000
1000
0000
0000
,
0010
0000
0010
0000
,
0010
0000
0010
0000
,
0220
0330
0000
0000
,
0220
0330
0000
0000
,
1000
0000
1000
0000
,
1000
0000
1000
0000
,
2002
3003
0000
0000
,
2002
3003
0000
0000
,
0000
1000
0000
0100
,
0000
0001
0000
0010
,
0000
1000
0000
0010
,
0000
0001
0000
0010
,
0000
1000
0000
0010
,
0000
0100
0000
0001
,
0000
0010
0000
0100
,
0000
0000
2002
0000
,
3003
0000
0000
0000
;
