#VERSION:0.83;
#TITLE:Animal;
#SUBTITLE:;
#ARTIST:Ellie Goulding;
#TITLETRANSLIT:;
#SUBTITLETRANSLIT:;
#ARTISTTRANSLIT:;
#GENRE:Bright Lights;
#ORIGIN:;
#CREDIT:;
#BANNER:Animal-bn.png;
#BACKGROUND:Animal-bg.png;
#PREVIEWVID:;
#JACKET:Animal-jacket.png;
#CDIMAGE:;
#DISCIMAGE:;
#LYRICSPATH:;
#CDTITLE:m.png;
#MUSIC:Animal.mp3;
#OFFSET:-1.945000;
#SAMPLESTART:111.303001;
#SAMPLELENGTH:15.484000;
#SELECTABLE:YES;
#DISPLAYBPM:62.000000:124.000000;
#BPMS:0.000=124.000,
173.000=62.000,
189.000=124.000;
#STOPS:108.000=1.452,
207.000=0.484;
#DELAYS:;
#WARPS:;
#TIMESIGNATURES:0.000=4=4,
104.000=5=4,
109.000=4=4,
205.000=3=4,
208.000=4=4;
#TICKCOUNTS:0.000=4;
#COMBOS:0.000=1;
#SPEEDS:0.000=1.000=0.000=0;
#SCROLLS:0.000=1.000;
#FAKES:;
#LABELS:0.000=Song Start;
#BGCHANGES:12.000=Animal-bg.png=1.000=1=0=1=Visualization2File=DIGI_GreenZoomSickles.avi=CrossFade==#FF0000,
28.000=Animal-bg.png=1.600=1=0=1=Visualization2File=DIGI_ScreenBlueFlip.avi=CrossFade==#FF0000,
44.000=Animal-bg.png=1.000=0=0=1=Visualization2File=DOTS_LightsRainbowDown.avi===#FF0000,
46.000=Animal-bg.png=1.000=0=0=1=Visualization2File=DOTS_LightsRainbowUp.avi===#FF0000,
48.000=Animal-bg.png=1.200=0=0=1=Visualization2File=DOTS_LightsRainbowDown.avi===#FF0000,
50.000=Animal-bg.png=1.200=0=0=1=Visualization2File=DOTS_LightsRainbowUp.avi===#FF0000,
52.000=Animal-bg.png=1.400=0=0=1=Visualization2File=DOTS_LightsRainbowDown.avi===#FF0000,
54.000=Animal-bg.png=1.400=0=0=1=Visualization2File=DOTS_LightsRainbowUp.avi===#FF0000,
56.000=Animal-bg.png=1.800=0=0=1=Visualization2File=DOTS_LightsRainbowDown.avi===#FF0000,
58.000=DOTS_LightsRainbowDown.avi=1.800=1=0=1===CrossFade=#FF0000=,
60.000=ART_dots3.avi=1.000=0=0=1====#FF0000=,
68.000=ACID_CylinderRotateMech.avi=1.000=0=0=1====#FF0000=,
76.000=SPIKE_Rain.avi=1.000=0=0=1====#FF0000=,
84.000=ABST_AmoebaOrange.avi=1.000=0=0=1====#FF0000=,
92.000=PEPL_AliceCherryBlossom.avi=1.000=0=0=1====#FF0000=,
100.000=PEPL_AliceReflectionWater.avi=1.000=0=0=1====#FF0000=,
108.000=PEPL_AliceReflectionWater.avi=0.900=1=0=1===CrossFade==,
109.000=iFEEL_WheelAndLady.avi=1.000=0=0=1=====,
125.000=MECH_FanGray.avi=1.000=0=0=1=====,
141.000=CUBE_GoldTopSpinRising.avi=1.000=0=0=1====#FF0000=,
149.000=CUBE_GoldRolling.avi=1.000=0=0=1====#FF0000=,
157.000=ACID_PetalsBurst.avi=1.400=0=0=1====#FF0000=,
173.000=RUN_Chase1Slower.avi=0.400=0=0=1=====,
189.000=RUN_Chase1Slower.avi=0.800=0=0=1=====,
189.750=RUN_VialThrow.avi=1.000=0=0=1=====,
190.500=RUN_Chase1Slower.avi=0.800=0=0=1=====,
190.750=RUN_VialThrow.avi=1.000=0=0=1=====,
191.000=RUN_Chase1Slower.avi=0.800=0=0=1=====,
191.250=RUN_VialThrow.avi=1.000=0=0=1=====,
191.500=RUN_Chase1Slower.avi=0.800=0=0=1=====,
192.000=RUN_VialThrow.avi=1.000=0=0=1=====,
192.250=RUN_Chase1Slower.avi=0.800=0=0=1=====,
192.500=RUN_VialThrow.avi=1.000=0=0=1=====,
192.750=RUN_Chase1Slower.avi=0.800=0=0=1=====,
193.000=DIGI_BlueWhiteSpinTunnel.avi=1.000=0=0=1====#FF0000=,
193.750=SPIKE_RedGrunge.avi=1.000=0=0=1=====,
194.500=DIGI_BlueWhiteSpinTunnel.avi=1.000=0=0=1====#FF0000=,
194.750=SPIKE_RedGrunge.avi=1.000=0=0=1=====,
195.000=DIGI_BlueWhiteSpinTunnel.avi=1.000=0=0=1====#FF0000=,
195.250=SPIKE_RedGrunge.avi=1.000=0=0=1=====,
195.500=DIGI_BlueWhiteSpinTunnel.avi=1.000=0=0=1====#FF0000=,
196.000=SPIKE_RedGrunge.avi=1.000=0=0=1=====,
196.250=DIGI_BlueWhiteSpinTunnel.avi=1.000=0=0=1====#FF0000=,
196.500=SPIKE_RedGrunge.avi=1.000=0=0=1=====,
196.750=DIGI_BlueWhiteSpinTunnel.avi=1.000=0=0=1====#FF0000=,
197.000=ACID_LavaGreenYellow.avi=1.000=0=0=1=====,
197.750=CODE_LettersProgramming.avi=1.000=0=0=1=====,
198.500=ACID_LavaGreenYellow.avi=1.000=0=0=1=====,
198.750=CODE_LettersProgramming.avi=1.000=0=0=1=====,
199.000=ACID_LavaGreenYellow.avi=1.000=0=0=1=====,
199.250=CODE_LettersProgramming.avi=1.000=0=0=1=====,
199.500=ACID_LavaGreenYellow.avi=1.000=0=0=1=====,
200.000=CODE_LettersProgramming.avi=1.000=0=0=1=====,
200.250=ACID_LavaGreenYellow.avi=1.000=0=0=1=====,
200.500=CODE_LettersProgramming.avi=1.000=0=0=1=====,
200.750=ACID_LavaGreenYellow.avi=1.000=0=0=1=====,
201.000=DIGI_SquareLightRayMoveRight.avi=1.000=0=0=1====#FF0000=,
205.000=PEPL_AliceReflectionWater.avi=1.000=0=0=1====#FF0000=,
205.750=DIGI_SquareLightRayMoveRight.avi=1.000=0=0=1====#FF0000=,
206.500=PEPL_AliceReflectionWater.avi=1.000=0=0=1====#FF0000=,
207.000=Animal-bg.png=0.500=0=0=1=Visualization2File=DIGI_SquaresExpand.avi===#FF0000,
208.000=DIGI_StairsFade1.avi=1.000=0=0=1=====,
224.000=DIGI_VortexGreenInward.avi=1.000=0=0=1=====,
240.000=iFEEL_LadyBlue.avi=0.400=0=0=1=====,
248.000=RUN_Chase1.avi=0.700=0=1=1=StretchRewind====,
256.000=ACID_CylinderRotateMech.avi=1.000=0=0=1=====,
264.000=CUBE_GoldRolling.avi=1.000=0=0=1====#FF0000=,
272.000=Animal-bg.png=0.600=0=0=1=Visualization2File=DIGI_GreenZoomSicklesReverse.avi===#FF0000,
280.000=Animal-bg.png=1.000=0=0=1===CrossFade_Faster==,
99999=-nosongbg-=1.000=0=0=0 // don't automatically add -songbackground-
;
#KEYSOUNDS:;
#ATTACKS:
;

//---------------dance-single - ----------------
#NOTEDATA:;
#CHARTNAME:;
#STEPSTYPE:dance-single;
#DESCRIPTION:;
#CHARTSTYLE:;
#DIFFICULTY:Challenge;
#METER:10;
#RADARVALUES:0.531444,0.604517,0.019511,0.117066,0.484524,572.000000,569.000000,3.000000,18.000000,0.000000,0.000000,0.000000,0.000000,0.000000,0.531444,0.604517,0.019511,0.117066,0.484524,572.000000,569.000000,3.000000,18.000000,0.000000,0.000000,0.000000,0.000000,0.000000;
#CREDIT:;
#OFFSET:-1.945000;
#BPMS:0.000000=124.000000
,173.000000=62.000000
,189.000000=496.000000
,204.000000=248.000000
,205.000000=496.000000
,207.000000=124.000000
;
#STOPS:108.000000=1.452000
,189.000000=0.272000
,189.750000=0.272000
,190.500000=0.091000
,190.750000=0.091000
,191.000000=0.091000
,191.250000=0.091000
,191.500000=0.181000
,192.000000=0.091000
,192.250000=0.091000
,192.500000=0.091000
,192.750000=0.091000
,193.000000=0.272000
,193.750000=0.272000
,194.500000=0.091000
,194.750000=0.091000
,195.000000=0.091000
,195.250000=0.091000
,195.500000=0.181000
,196.000000=0.091000
,196.250000=0.091000
,196.500000=0.091000
,196.750000=0.091000
,197.000000=0.272000
,197.750000=0.272000
,198.500000=0.091000
,198.750000=0.091000
,199.000000=0.091000
,199.250000=0.091000
,199.500000=0.181000
,200.000000=0.091000
,200.250000=0.091000
,200.500000=0.091000
,200.750000=0.091000
,201.000000=0.272000
,201.750000=0.272000
,202.500000=0.181000
,203.000000=0.363000
,204.000000=0.121000
,204.500000=0.121000
,205.000000=0.272000
,205.750000=0.272000
,206.500000=0.181000
,207.000000=0.484000
;
#DELAYS:;
#WARPS:;
#TIMESIGNATURES:0.000000=4=4
,104.000000=5=4
,109.000000=4=4
,205.000000=3=4
,208.000000=4=4
;
#TICKCOUNTS:0.000000=4
;
#COMBOS:0.000000=1
;
#SPEEDS:0.000000=1.000000=0.000000=0
;
#SCROLLS:0.000000=1.000000
;
#FAKES:;
#LABELS:0.000000=Song Start
;
#DISPLAYBPM:62.000000:124.000000;
#NOTES:
0000
0000
0000
0000
,
0000
0000
0000
0000
,
0000
0000
0000
0000
0000
0000
0000
1000
,
0001
0100
0001
1000
0001
0100
0001
1000
,
0100
1000
0000
0000
0000
0000
0000
1000
,
0100
1000
0001
0100
0001
1000
0001
0100
,
0001
1000
0000
0000
0000
0000
0000
0000
,
0001
1000
0100
1000
0001
1000
0001
0100
,
0001
1000
0000
0000
0000
0000
0000
0000
,
0001
1000
0100
1000
0001
0000
1000
0001
,
0100
0000
0001
1000
0100
1000
0100
0001
,
0000
0000
0100
1000
0000
0000
0100
0001
,
0000
0000
1000
0100
0000
0000
0001
1000
,
0000
0000
0100
0001
0000
0000
1000
0100
,
0000
0000
0001
1000
0100
0001
0000
0000
,
1000
0000
0010
1000
0010
0000
1000
0100
1000
0000
0001
0000
1000
0000
0001
0100
,
0001
0000
1000
0000
0100
0000
0010
0001
0100
0000
0001
0000
1000
0000
0000
0000
,
0001
0000
0100
0010
0100
0000
0001
1000
0001
0000
0010
0000
0100
0000
1000
0100
,
1000
0000
0010
0000
1000
0000
0001
0100
0010
0000
0100
0000
0001
0000
0000
0000
,
1000
0000
0010
1000
0010
0000
1000
0100
1000
0000
0001
0000
1000
0000
0001
0100
,
0001
0000
1000
0000
0010
0000
0100
0010
1000
0000
0001
0000
0100
0000
0000
0000
,
0010
0000
0100
0001
0100
0000
0001
1000
0001
0000
1000
0000
0100
0000
0010
0100
,
0010
0001
1000
0001
0100
0010
1000
0001
,
1000
0000
1000
0010
0001
0000
0001
0100
,
1000
0000
1000
0010
0001
0000
0001
0010
,
1000
0000
1000
0100
0001
0000
0001
0010
,
2000
0001
0100
0010
,
3001
0000
0000
0000
1000
0000
0000
0010
1000
0000
0010
0000
0100
0001
0100
0001
,
0100
0000
0010
0000
1000
0000
0000
0100
0010
0000
0001
0000
1000
0100
1000
0100
,
1000
0000
0001
0000
0100
0000
0000
0010
0100
0000
0001
0000
1000
0001
1000
0001
,
1000
0000
0100
0000
0010
0000
0000
0001
1000
0000
0001
0000
0100
0010
0100
0010
,
0100
0000
0001
0000
1000
0000
0000
0100
0010
0000
0001
0000
1000
0001
0100
0001
,
1000
0000
0001
0000
1000
0000
0000
0010
1000
0000
0001
0000
1000
0001
1000
0100
,
1000
0000
0001
0000
0010
0000
0000
0001
1000
0000
0001
0000
0100
0001
1000
0001
,
0100
0000
0010
0000
1000
0000
0000
0100
0010
0000
0100
0000
1000
0100
0010
0100
,
1000
0000
0001
0000
0010
0000
0000
0100
0010
0000
0001
0000
0100
0001
1000
0001
,
0100
0000
0010
0000
1000
0000
0000
0010
0100
0000
0001
0000
1000
0010
0100
0010
,
1000
0000
0001
0000
0100
0000
0000
0010
0100
0000
0001
0000
1000
0001
0100
0001
,
1000
0000
0010
0000
1000
0000
0000
0100
0010
0000
0001
0000
1000
0100
0010
0100
,
1000
0000
0001
0000
0100
0000
0000
0010
1000
0000
0001
0000
1000
0010
0100
0001
,
1000
0000
0001
0000
0100
0000
0000
0001
1000
0000
0100
0000
0010
0001
1000
0100
,
0010
0000
0100
0000
1000
0000
0000
0001
1000
0000
0010
0000
1000
0100
0010
0001
,
1000
0000
0001
0000
0100
0000
0000
0010
1000
0000
0010
0000
0100
0001
1000
0010
,
0100
0001
2000
0000
3200
0000
0302
0000
,
0023
2030
3200
0320
,
0032
2003
3020
0032
,
0203
2300
0000
3002
,
0000
0000
0000
0000
0103
0000
0000
0010
0000
0000
1000
0001
1000
0001
1000
0000
,
0100
0010
0100
0010
0001
0000
0000
1000
0000
0000
0010
1000
0100
0010
0001
0000
,
1000
0010
0100
0001
0010
0000
0000
0001
0000
0000
1000
0010
0100
0001
1000
0000
,
0100
0010
0001
1000
0010
0000
0000
0100
0000
0000
0001
0000
1000
0000
0000
0000
,
0100
0000
0010
0000
0001
0000
0000
1001
0000
0000
0101
0000
1001
0000
0000
0000
,
0001
0000
0100
0010
1000
0000
0010
0100
0001
0000
1000
0100
1000
0000
0001
0100
,
0001
0000
1000
0010
1000
0000
0001
0100
0010
0000
0100
0001
1000
0000
0010
1000
,
0100
0000
1000
0100
0010
0000
0001
1000
0001
0000
0100
0010
1000
0000
0010
0100
,
0001
0000
1000
0000
0000
0000
0100
0000
0010
0000
0001
1000
0100
0000
1000
0001
,
0100
0000
0001
0100
0001
0000
1000
0010
0100
0000
0010
1000
0010
0000
1000
0100
,
0010
0000
0100
1000
0100
0000
1000
0001
1000
0000
0010
1000
0001
0000
0100
0010
,
1000
0000
0010
0100
0001
0000
1000
0001
0100
0000
0010
1000
0001
0000
1000
0100
,
0010
0000
0001
0000
0000
0000
1000
0000
0010
0000
1000
0100
1000
0000
0001
0100
,
0010
0000
0100
0001
1000
0000
0001
0010
0100
0000
0010
0001
1000
0000
0100
0010
,
0001
0000
1000
0100
0010
0000
0100
1000
0100
1000
0001
0100
0000
0100
0010
1000
,
0001
0000
0100
0010
1000
0000
0010
0100
0001
0000
1000
0010
0000
1000
0100
0000
,
0000
0000
0010
0000
0000
0000
0001
1000
0001
0100
0010
1000
0000
1000
0010
0100
,
0001
0000
0010
0001
0100
0000
0001
1000
0100
0000
1000
0010
0000
1000
0001
0000
,
0100
0000
0010
1000
0100
0000
1000
0100
0010
0001
0100
0010
0000
0100
0001
1000
,
0100
0000
0010
0001
0100
0000
0001
1000
0100
0000
0010
0001
0000
0100
0010
0000
,
1000
0000
0001
0100
0001
0000
1000
0010
0100
0001
1000
0001
0000
1000
0100
0010
,
0002
0100
0000
0000
0000
0000
0000
0000
0000
0000
0000
0000
0000
0000
0000
0000
,
2003
0100
0000
0000
0000
0000
0000
0000
0000
0000
0000
0000
3001
0000
0100
0000
,
0002
0000
0000
0000
,
0000
0000
0003
0000
;

//---------------dance-single - ----------------
#NOTEDATA:;
#CHARTNAME:;
#STEPSTYPE:dance-single;
#DESCRIPTION:;
#CHARTSTYLE:;
#DIFFICULTY:Hard;
#METER:8;
#RADARVALUES:0.380930,0.534765,0.344695,0.117066,0.107311,410.000000,357.000000,53.000000,18.000000,0.000000,0.000000,0.000000,0.000000,0.000000,0.380930,0.534765,0.344695,0.117066,0.107311,410.000000,357.000000,53.000000,18.000000,0.000000,0.000000,0.000000,0.000000,0.000000;
#CREDIT:;
#DISPLAYBPM:62.000000:124.000000;
#NOTES:
// measure 0
0000
0000
0000
0000
,  // measure 1
0000
0000
0000
0000
,  // measure 2
0000
0000
0000
0000
0000
0000
0000
1000
,  // measure 3
0010
1000
0100
1000
0010
1000
0100
1000
,  // measure 4
0001
1000
0000
0000
0000
0000
0000
0001
,  // measure 5
0010
0001
0100
0001
0010
0001
0100
0001
,  // measure 6
1000
0001
0000
0000
0000
0000
0000
0000
,  // measure 7
1000
0010
0100
0010
1000
0001
0100
0010
,  // measure 8
0100
0001
0000
0000
0000
0000
0000
0000
,  // measure 9
1000
0010
0100
0010
1000
0000
0001
1000
,  // measure 10
0001
0000
1000
0100
0010
0001
0100
0010
,  // measure 11
0000
0000
1000
0010
0000
0000
0001
1000
,  // measure 12
0000
0000
0001
0010
0000
0000
1000
0001
,  // measure 13
0000
0000
1000
0010
0000
0000
0001
1000
,  // measure 14
0000
0000
0001
1000
0001
0010
0000
0000
,  // measure 15
0100
0010
0100
1000
0100
0010
0100
0001
,  // measure 16
0100
1000
0000
0000
0000
0000
0000
0000
,  // measure 17
0010
0100
0010
1000
0010
0100
0010
0001
,  // measure 18
0010
1000
0000
0000
0000
0000
0000
0000
,  // measure 19
0100
1000
0100
0010
0100
0001
0100
0010
,  // measure 20
0100
1000
0000
0000
0000
0000
0000
0000
,  // measure 21
0001
1000
0010
1000
0010
0100
0010
0001
,  // measure 22
0010
0000
1000
0010
0000
0000
1000
0100
,  // measure 23
0000
0000
1000
0001
0000
0000
1000
0010
,  // measure 24
0000
0000
0100
0010
0000
0000
0001
0010
,  // measure 25
0000
0000
1000
0010
0000
0000
1000
0002
,  // measure 26
0000
0000
0000
0000
,  // measure 27
0003
0000
0000
0000
0100
0000
0000
0001
1000
0000
0100
0000
0000
0000
0010
0000
,  // measure 28
0000
0011
0000
1001
0000
1010
0010
1000
,  // measure 29
0000
0000
0100
0000
1000
0000
0000
1000
0001
0000
0100
0000
0000
0000
0010
0000
,  // measure 30
0000
0110
0000
1010
0000
1001
1000
0001
,  // measure 31
0000
0000
0100
0000
0001
0000
0000
0010
0100
0000
1000
0000
0000
0000
1100
0000
,  // measure 32
0000
1001
0000
0101
0000
0110
0010
1000
,  // measure 33
0000
0000
0100
0000
1000
0000
0000
0010
0100
0000
0001
0000
0000
0000
1001
0000
,  // measure 34
0000
0101
0000
1100
0000
1000
0001
0100
,  // measure 35
0010
0000
1000
0000
0001
0000
0000
1000
0100
0000
0010
0000
0000
0000
0011
0000
,  // measure 36
0000
1001
0000
0101
0000
1100
0100
1000
,  // measure 37
0001
0000
0100
0000
0010
0000
0000
1000
0001
0000
0100
0000
0000
0000
0110
0000
,  // measure 38
0000
1010
0000
1100
0000
0100
1000
0001
,  // measure 39
0000
0000
0100
0000
0001
0000
0000
1000
0001
0000
0100
0000
0000
0000
1010
0000
,  // measure 40
0000
1001
0000
1100
0000
0100
1000
0001
,  // measure 41
0000
0000
0010
0000
0001
0000
0000
0100
0010
0000
1000
0000
0000
0000
1001
0000
,  // measure 42
0000
0101
0000
1100
0000
0100
0000
0010
,  // measure 43
0000
0001
2000
0000
3200
0000
0302
0000
,  // measure 44
0023
2030
3200
0320
,  // measure 45
0032
2003
3020
0032
,  // measure 46
0203
2300
0000
3002
,  // measure 47
0000
0000
0000
0000
0103
0000
0000
0010
0000
0000
1000
0100
1000
0100
1000
0000
,  // measure 48
0001
0100
0001
0100
0001
0000
0000
1000
0000
0000
0001
1000
0001
1000
0001
0000
,  // measure 49
0100
0001
0100
0001
0100
0000
0000
0010
0000
0000
1000
0010
1000
0010
1000
0000
,  // measure 50
0001
1000
0001
1000
0001
0000
0000
0010
0000
0000
0100
0000
1000
0000
0000
0000
,  // measure 51
0001
0000
1000
0000
0001
0000
0000
1000
0000
0000
0001
0000
0101
0000
0000
0000
,  // measure 52
0010
0000
0000
1000
0001
0000
0010
0000
0000
0000
0100
0000
0000
0000
1100
0000
,  // measure 53
0000
1001
0000
0101
0100
0001
0000
0010
,  // measure 54
0001
0000
0000
0001
1000
0000
0010
0000
0000
0000
0100
0000
0000
0000
0110
0000
,  // measure 55
0000
0101
0000
1001
0001
1000
0000
0010
,  // measure 56
1000
0000
0000
0100
0010
0000
0001
0000
0000
0000
0011
0000
0000
0000
1001
0000
,  // measure 57
0000
1010
0000
0110
0100
0001
0000
0010
,  // measure 58
0001
0000
0000
0100
0010
0000
1000
0000
0000
0000
1001
0000
0000
0000
1010
0000
,  // measure 59
0000
0011
0000
0001
1000
0010
0100
0001
,  // measure 60
1000
0000
0000
0001
0010
0000
0100
0000
0000
0000
1100
0000
0000
0000
1001
0000
,  // measure 61
0000
1010
0000
0011
0010
0001
1000
0010
,  // measure 62
0100
0000
0000
0001
1000
0000
0010
0000
0000
0000
0110
0000
0000
0000
0101
0000
,  // measure 63
0000
0011
0000
0010
0001
1000
0000
0010
,  // measure 64
1000
0000
0000
0001
1000
0000
0010
0000
0000
0000
0101
0000
0000
0000
1001
0000
,  // measure 65
0000
0011
0000
0010
0001
1000
0000
0100
,  // measure 66
1000
0000
0000
0010
0100
0000
0001
0000
0000
0000
1001
0000
0000
0000
1010
0000
,  // measure 67
0000
0011
0000
0010
0000
0100
0000
1000
,  // measure 68
0002
0000
0000
0000
,  // measure 69
2003
0000
0000
0000
0000
0000
3010
0100
,  // measure 70
0002
0000
0000
0000
,  // measure 71
0000
0000
0003
0000
;

//---------------dance-single - ----------------
#NOTEDATA:;
#CHARTNAME:;
#STEPSTYPE:dance-single;
#DESCRIPTION:;
#CHARTSTYLE:;
#DIFFICULTY:Medium;
#METER:6;
#RADARVALUES:0.251785,0.253969,0.000000,0.156088,0.016259,271.000000,271.000000,0.000000,24.000000,0.000000,0.000000,0.000000,0.000000,0.000000,0.251785,0.253969,0.000000,0.156088,0.016259,271.000000,271.000000,0.000000,24.000000,0.000000,0.000000,0.000000,0.000000,0.000000;
#CREDIT:;
#DISPLAYBPM:62.000000:124.000000;
#NOTES:
0000
0000
0000
0000
,
0000
0000
0000
0000
,
0000
0000
0000
0000
,
1000
1000
1000
1000
,
1000
0100
0001
0100
,
1000
1000
1000
1000
,
1000
0010
0100
0010
,
0001
0001
0001
0001
,
0010
1000
0010
1000
,
0001
0001
1000
1000
,
0100
0100
0010
0001
,
0100
0000
0010
0010
0000
0000
1000
1000
,
0000
0000
0001
0001
0000
0000
1000
1000
,
0000
0000
0100
0100
0000
0000
0010
0010
,
0000
0000
0001
0001
0000
1000
0000
0000
,
0010
1000
0100
0010
,
0100
0000
1000
0001
1000
0001
1000
0000
,
0010
0100
0001
0010
,
0100
0000
1000
0000
0001
1000
0001
0000
,
0100
0010
1000
0100
,
0010
0000
0001
1000
0001
1000
0001
0000
,
0100
0010
1000
0100
,
0010
0000
0100
0100
0000
0000
1000
1000
,
0000
0000
0001
0001
0000
0000
0100
0100
,
0000
0000
0010
0010
0000
0000
1000
1000
,
0000
0000
0001
0001
0000
0000
0100
0200
,
0000
0000
0000
0000
,
0300
0000
0010
0000
0010
1000
0000
0100
,
0000
0010
0000
0100
0000
0000
1000
0001
,
0000
0100
0000
0000
0010
1000
0000
0010
,
0000
0100
0000
0000
0000
0001
1000
0100
,
0000
0010
0000
0000
0001
1000
0000
0001
,
0000
1000
0000
0010
0000
0000
0100
0010
,
0000
1000
0000
0000
0100
1000
0000
0001
,
0000
0010
0000
0000
0000
0001
0100
0001
,
0100
0001
0000
0000
0000
1000
0000
0010
,
0000
1000
0000
0100
0000
0010
0100
0010
,
0100
0010
0000
0000
0100
1000
0000
0001
,
0000
1000
0000
0000
0000
0010
1000
0010
,
0000
1000
0000
0000
0100
0010
0000
0100
,
0000
1000
0000
0001
0000
0000
1000
0010
,
0000
0100
0000
0000
0010
1000
0000
0001
,
0000
0100
0000
0000
0010
1000
0000
0000
,
0100
0100
0200
0000
2300
0000
3002
0000
,
0023
0032
0203
0320
,
2030
3200
0320
0032
,
2003
3020
0000
0230
,
0000
0000
0000
0000
0301
0000
0000
0001
0000
0000
0002
0000
0000
0000
0003
0000
,
0002
0000
0000
0000
1003
0000
0000
1000
0000
0000
2000
0000
0000
0000
3000
0000
,
2000
0000
0000
0000
3010
0000
0000
0010
0000
0000
0020
0000
0000
0000
0030
0000
,
0200
0000
0000
0000
0301
0000
0000
1000
0000
0000
0001
0000
1000
0000
0000
0000
,
0100
0000
0000
0000
0010
0000
0000
0010
0000
0000
0010
0000
0010
0000
0000
0000
,
0001
0000
0001
1000
0000
0010
0000
1000
,
0000
0100
0000
0000
0010
0100
0000
0010
,
0000
0000
0001
1000
0000
0010
0000
0100
,
0000
0000
0000
0010
1000
0100
0000
0010
,
0000
0000
0001
1000
0000
0001
0000
0100
,
0000
0010
0000
0000
1000
0010
0000
1000
,
0000
0000
0100
0010
0000
0001
0000
1000
,
0000
0000
0000
0001
0100
0010
0100
0010
,
0000
0000
0000
1000
0000
0001
0000
0100
,
0000
0010
0000
1000
0001
1000
0001
0100
,
0000
0000
0010
1000
0000
0100
0000
0010
,
0000
0000
0000
0100
1000
0001
0000
0100
,
0000
0000
0010
1000
0000
0100
0000
0010
,
0000
0100
0000
0000
0010
0001
0000
1000
,
0000
0000
0001
0100
0000
0010
0000
1000
,
0000
0000
0001
0010
0000
0000
0100
0100
,
0200
0000
0000
0000
,
2300
0000
0000
3001
,
0200
0000
0000
0000
,
0300
0000
0000
0000
;

//---------------dance-single - ----------------
#NOTEDATA:;
#CHARTNAME:;
#STEPSTYPE:dance-single;
#DESCRIPTION:;
#CHARTSTYLE:;
#DIFFICULTY:Easy;
#METER:4;
#RADARVALUES:0.197898,0.204866,0.000000,0.026015,0.000000,213.000000,213.000000,0.000000,4.000000,0.000000,0.000000,0.000000,0.000000,0.000000,0.197898,0.204866,0.000000,0.026015,0.000000,213.000000,213.000000,0.000000,4.000000,0.000000,0.000000,0.000000,0.000000,0.000000;
#CREDIT:;
#DISPLAYBPM:62.000000:124.000000;
#NOTES:
0000
0000
0000
0000
,
0000
0000
0000
0000
,
0000
0000
0000
0000
,
0010
0010
1000
1000
,
0100
0000
0000
0000
,
0010
0010
0001
0001
,
0100
0000
0000
0000
,
0001
0001
0100
0100
,
0010
0000
0000
0000
,
1000
1000
0100
0100
,
0010
0010
0001
0100
,
0001
0100
0000
0010
,
0000
0100
0000
0010
,
0000
1000
0000
0010
,
0000
0001
0000
0000
,
1000
1000
0100
0010
,
0001
0000
1000
0000
,
0001
0001
0010
0100
,
1000
0000
0001
0000
,
0100
0100
0010
1000
,
0001
0000
0100
0000
,
0010
0010
1000
0001
,
1000
0100
0000
0010
,
0000
0001
0000
1000
,
0000
0010
0000
0100
,
0000
0001
0000
1000
,
0000
0000
0000
0000
,
0000
1000
0010
1000
,
0010
0100
0001
1000
,
0010
1000
0100
1000
,
0010
1000
0000
0001
,
0100
0001
0010
0001
,
1000
0001
0100
0001
,
0010
0100
0010
0001
,
1000
0001
0000
1000
,
0010
0100
0000
0010
,
1000
0001
1000
0100
,
1000
0001
0100
0001
,
0010
0001
0000
1000
,
0010
1000
0100
0010
,
0100
1000
0010
1000
,
0001
0100
0001
1000
,
0010
0100
0000
0000
,
0000
0001
1000
0010
,
0100
0001
1000
0100
,
0010
0100
1000
0001
,
0010
0002
0000
2003
,
0000
3100
0000
0100
,
0010
0100
0000
0010
,
0001
0100
0000
0010
,
1000
0100
0010
0100
,
0010
0001
0000
1000
,
0001
0100
0001
0100
,
1000
0100
0001
0100
,
0001
0010
0001
0100
,
0001
1000
0100
0010
,
0100
1000
0010
1000
,
0100
1000
0001
0100
,
0010
1000
0001
0100
,
0001
0000
1000
0000
,
0010
1000
0010
0100
,
0010
1000
0001
1000
,
0010
0100
0010
0001
,
0010
1000
0010
1000
,
0100
1000
0100
0010
,
0100
0001
0100
1000
,
0100
0001
0100
1000
,
0010
1000
0001
0100
,
0020
0000
0000
0000
,
0230
0000
0000
0000
,
0301
0000
0000
0000
;

//---------------dance-single - ----------------
#NOTEDATA:;
#CHARTNAME:;
#STEPSTYPE:dance-single;
#DESCRIPTION:;
#CHARTSTYLE:;
#DIFFICULTY:Beginner;
#METER:1;
#RADARVALUES:0.122641,0.136577,0.000000,0.000000,0.000000,132.000000,132.000000,0.000000,0.000000,0.000000,0.000000,0.000000,0.000000,0.000000,0.122641,0.136577,0.000000,0.000000,0.000000,132.000000,132.000000,0.000000,0.000000,0.000000,0.000000,0.000000,0.000000,0.000000;
#CREDIT:;
#DISPLAYBPM:62.000000:124.000000;
#NOTES:
0000
0000
0000
0000
,
0000
0000
0000
0000
,
0000
0000
0000
0000
,
0010
0000
1000
0000
,
0100
0000
0000
0000
,
0010
0000
0001
0000
,
0100
0000
0000
0000
,
0010
0000
1000
0000
,
0001
0000
0000
0000
,
0100
0000
0010
0000
,
1000
0000
0100
0000
,
0000
0010
0000
0010
,
0000
0100
0000
0100
,
0000
0010
0000
0010
,
0000
0010
0000
0000
,
0100
0000
1000
0000
,
0001
0000
0000
0000
,
0100
0000
0001
0000
,
1000
0000
0000
0000
,
0010
0000
1000
0000
,
0001
0000
0000
0000
,
0010
0000
0001
0000
,
1000
0000
0000
0000
,
0000
0001
0000
0001
,
0000
1000
0000
1000
,
0000
0001
0000
0001
,
0000
0000
0000
0000
,
0000
0100
0000
0010
,
0000
1000
0000
0100
,
0100
0100
0000
0010
,
0000
0001
0000
1000
,
1000
1000
0000
0010
,
0000
0100
0000
0001
,
0001
0001
0000
0010
,
0000
0100
0000
1000
,
1000
1000
0000
0001
,
0000
0100
0000
0010
,
0010
0010
0000
0100
,
0000
0001
0000
1000
,
1000
1000
0000
0010
,
0000
1000
0000
0100
,
0100
0100
0000
0010
,
0000
0001
0000
1000
,
0000
0001
0000
0100
,
0000
0010
0000
1000
,
0000
0100
0000
0010
,
0000
0001
0000
0000
,
0000
1000
0000
0000
,
0000
0001
0000
0000
,
0000
1000
0000
0000
,
0000
0010
0000
1000
,
0000
0100
0000
0000
,
0100
0000
0010
0000
,
1000
0000
0100
0100
,
0100
0000
0010
0000
,
0001
0000
1000
1000
,
1000
0000
0010
0000
,
0100
0000
0001
0001
,
0001
0000
0010
0000
,
0100
0000
1000
1000
,
1000
0000
0001
0000
,
0100
0000
0010
0010
,
0010
0000
0100
0000
,
0001
0000
1000
1000
,
1000
0000
0010
0000
,
1000
0000
0100
0100
,
0100
0000
0010
0000
,
0001
0000
1000
0000
,
0010
0000
0000
0000
,
0100
0000
0000
0000
,
0100
0000
0000
0000
;
