#TITLE:Anaconda;
#SUBTITLE:;
#ARTIST:Nikki Minaj;
#TITLETRANSLIT:;
#SUBTITLETRANSLIT:;
#ARTISTTRANSLIT:;
#GENRE:The Pinkprint;
#CREDIT:;
#BANNER:Anaconda-bn.png;
#BACKGROUND:Black.png;
#LYRICSPATH:;
#CDTITLE:;
#MUSIC:Anaconda.mp3;
#OFFSET:-0.010000;
#SAMPLESTART:52.400284;
#SAMPLELENGTH:15.912098;
#LASTBEATHINT:323.002625;
#SELECTABLE:YES;
#DISPLAYBPM:130.000000;
#BPMS:0.000000=130.000000
,4.000000=696.900024
,4.500000=300.000000
,4.750000=200.000000
,5.000000=130.000000
,8.000000=696.900024
,8.500000=300.000000
,8.750000=200.000000
,9.000000=130.000000
,12.000000=520.000000
,18.000000=130.000000
,72.000000=520.000000
,72.500000=130.000000
,83.000000=520.000000
,84.500000=130.000000
,103.000000=520.000000
,103.500000=130.000000
,116.000000=696.900024
,116.500000=300.000000
,116.750000=200.000000
,117.000000=130.000000
,120.000000=696.900024
,120.500000=300.000000
,120.750000=200.000000
,121.000000=130.000000
,124.000000=520.000000
,130.000000=130.000000
,196.000000=696.900024
,196.500000=300.000000
,196.750000=200.000000
,197.000000=130.000000
,200.000000=696.900024
,200.500000=300.000000
,200.750000=200.000000
,201.000000=130.000000
,204.000000=520.000000
,212.000000=696.900024
,212.500000=300.000000
,212.750000=200.000000
,213.000000=130.000000
,216.000000=260.000000
,221.000000=520.000000
,230.000000=130.000000
;
#STOPS:5.000000=0.288000,
9.000000=0.288000,
12.000000=0.346000,
13.000000=0.346000,
14.000000=0.173000,
14.500000=0.173000,
15.000000=0.173000,
15.500000=0.173000,
16.000000=0.346000,
17.000000=0.087000,
17.250000=0.087000,
17.500000=0.173000,
72.000000=0.087000,
72.250000=0.087000,
83.000000=0.087000,
83.250000=0.087000,
83.500000=0.087000,
83.750000=0.087000,
84.000000=0.087000,
84.250000=0.087000,
103.000000=0.087000,
103.250000=0.087000,
117.000000=0.288000,
121.000000=0.288000,
124.000000=0.346000,
125.000000=0.346000,
126.000000=0.173000,
126.500000=0.173000,
127.000000=0.173000,
127.500000=0.173000,
128.000000=0.346000,
129.000000=0.087000,
129.250000=0.087000,
129.500000=0.173000,
197.000000=0.288000,
201.000000=0.288000,
204.000000=0.346000,
205.000000=0.346000,
206.000000=0.173000,
206.500000=0.173000,
207.000000=0.173000,
207.500000=0.173000,
208.000000=0.346000,
209.000000=0.087000,
209.250000=0.087000,
209.500000=0.173000,
210.000000=0.173000,
210.500000=0.173000,
211.000000=0.173000,
211.500000=0.173000,
213.000000=0.288000,
221.000000=0.115000,
222.000000=0.115000,
223.000000=0.115000,
224.000000=0.346000,
225.000000=0.346000,
226.000000=0.173000,
226.500000=0.173000,
227.000000=0.173000,
227.500000=0.173000,
228.000000=0.346000,
229.000000=0.087000,
229.250000=0.087000,
229.500000=0.173000
;
#BGCHANGES:0.000=Anaconda-video.avi=1.000=1=0=1===CrossFade==,
99999=-nosongbg-=1.000=0=0=0 // don't automatically add -songbackground-
;
#KEYSOUNDS:;
#ATTACKS:;

//---------------dance-single - ----------------
#NOTES:
     dance-single:
     [Ness]:
     Challenge:
     10:
     0.746374,0.884806,0.948097,0.121034,0.447152,777.000000,631.000000,141.000000,18.000000,0.000000,8.000000,0.746374,0.884806,0.948097,0.121034,0.447152,777.000000,631.000000,141.000000,18.000000,0.000000,8.000000:
0000
0000
0000
0001
1000
0010
0100
0001
,
1001
0000
0000
1000
0001
0100
0010
1000
,
1001
0000
0000
0001
1000
0010
0100
0001
,
1001
0000
1100
0000
0101
0100
0010
1000
,
0100
0000
0000
0000
0010
0001
0100
0000
0101
0000
0000
0000
2000
0000
0000
0000
,
0100
0100
3100
0010
1000
1000
0010
0001
,
0100
0100
0100
0010
0001
0001
0010
1000
,
0100
0100
0100
0010
1000
1000
0010
0001
,
0100
0100
0100
0010
0001
0001
0010
1000
,
0100
0010
0001
1000
0010
0010
1000
0001
,
0100
1000
0001
0010
1000
1000
0100
0010
,
0001
0000
1000
0000
0100
0010
0001
0000
2000
0000
0100
0000
3100
0000
0001
0000
,
0100
0010
0001
1000
0010
0100
0001
0000
,
0101
1010
2022
3033
,
0000
0001
0010
1000
0100
0000
0010
0001
,
1100
0000
0011
0010
2022
0000
3033
0000
,
0000
0000
0001
0000
1000
0010
0100
0000
0001
0000
1000
0000
0100
0000
0010
0000
,
1001
0000
0110
0010
2022
0000
3033
0000
,
0010
0100
0010
0000
1000
0000
0100
0000
0001
0000
1000
0000
0010
0000
0001
0000
,
0100
0010
1000
0001
1001
0000
0010
0000
,
0010
0000
0100
0000
0001
0000
1000
0000
0100
0000
0000
0000
1000
0100
1000
0100
,
1000
0100
0001
0100
1000
0000
0000
0000
0110
0000
1000
0010
0001
0000
0000
0000
,
0110
0000
0100
0001
1000
0000
0001
0010
0100
1000
0010
0000
0110
0000
0000
0000
,
1001
0000
0100
0001
0010
0100
1000
0010
0100
0001
0010
0000
0110
0000
0001
0100
,
1000
0100
0001
0000
0110
0000
1000
0100
0001
0100
1000
0000
0110
0000
1000
0100
,
0010
0001
0100
0010
1000
0000
0001
1000
0010
0100
0001
0010
0100
0000
0010
0001
,
1000
0001
0100
0010
1000
0100
1000
0100
0001
0100
1000
0100
0010
0000
0001
0100
,
1000
0100
0001
0100
0010
0000
1000
0100
0001
0100
1000
0100
0010
0000
0001
0000
,
0101
0000
0101
0100
0101
0000
1001
0000
0101
1000
0101
0000
0011
0000
0101
0000
,
1001
0000
0000
1000
0001
0100
0010
1000
,
1001
0000
0000
0001
1000
0010
0100
0001
,
1001
0000
0011
0000
1100
0010
0100
0010
,
0101
0000
0000
0000
0010
1000
0001
0000
1010
0000
0000
0000
0200
0000
0000
0000
,
0310
1000
0000
0000
0001
0100
0000
0000
0002
2000
0000
0000
0010
0000
3003
0000
,
0100
0001
0000
0000
1000
0000
0000
0000
0100
0000
0000
0000
1011
0000
0000
0000
,
0001
0010
0000
0000
0100
1000
0000
0000
2000
0002
0000
0000
0010
0000
3003
0000
,
0100
1000
0000
0000
0001
0000
0000
0000
0100
0000
1010
0000
0001
0000
1000
0000
,
0010
0001
0000
0000
0001
0010
0000
0000
2000
0002
0000
0000
0010
0000
3003
0000
,
0100
0010
0000
0000
1000
0000
0000
0000
0001
0000
0000
0000
1011
0000
0000
0000
,
0100
0001
0000
0000
1100
0000
0000
0000
0101
0000
0100
0001
0100
0001
0100
0001
,
0100
0000
0101
1100
0101
0000
1001
0000
,
1100
0000
0101
0000
1100
0000
0101
0000
1100
0000
1100
0000
0101
0000
0000
1000
,
0100
1000
0000
0000
0101
0000
1100
0000
0101
0000
0011
0000
0101
0000
0000
0000
,
1100
0000
0101
0000
1100
0000
0101
0000
1100
0000
1100
0000
0101
0000
0000
1000
,
0001
1000
0000
0000
0101
0000
1100
0000
0101
0000
0011
0000
0101
0000
0000
0000
,
1100
0000
0100
1000
0100
1000
0100
1000
0100
0000
0101
0000
1100
0000
0000
0010
,
0100
0010
0000
0000
0101
0000
1100
0000
1010
0000
1100
0000
0101
0000
0000
0000
,
0010
0100
0000
0000
0100
0001
0000
0000
0001
1000
0000
0000
1100
0000
0000
0000
,
0001
0000
1000
0010
0100
0100
0010
0100
,
0101
0000
0000
1000
0010
0001
0100
1000
,
1001
0000
0000
0100
0001
0010
1000
0100
,
0110
0000
1001
0000
0011
1000
0100
0010
,
0100
0000
0000
0000
1000
0001
0100
0000
0010
0000
1000
0000
1000
0000
1000
0000
,
1001
0000
0000
1000
0001
0100
0010
1000
,
1001
0000
0000
0000
,
0000
0000
0000
0000
,
1001
0000
1100
0000
0101
0100
0010
1000
,
0100
0000
0000
0000
1000
0010
0001
0000
0010
0000
0000
0000
0110
0000
0000
0000
,
1001
0000
0001
0010
0100
1000
0010
0100
0001
0000
1100
0000
0101
0000
0000
1000
,
0100
1000
0000
0000
0101
0000
1100
0000
1010
0000
1100
0000
0101
0000
0010
1000
,
0001
0000
0010
0100
1000
0001
0100
0010
1000
0000
0101
0000
1100
0000
0000
0010
,
0100
0010
0000
0000
1100
0000
0101
0000
0011
0000
0101
0000
1100
0000
0001
0000
,
0100
0000
0001
0100
0010
1000
0001
0100
0010
0000
1100
0000
0101
0000
0000
1000
,
0100
1000
0000
0000
0110
0000
1001
0000
0011
0000
1100
0000
0101
0000
0000
0000
,
1100
0000
0101
0000
1100
0000
0101
0000
1100
0000
0100
0001
0100
0001
0100
0001
,
0100
0000
0010
1000
0100
1100
0101
1100
,
0101
1100
0101
0000
,
0000
0000
0000
1001
,
0100
0000
0001
0100
0010
0100
0001
0100
0010
0100
0001
0100
0010
0000
1000
0000
,
0100
0000
0010
0100
1000
0100
0010
0100
1000
0100
0010
0100
1000
0000
0001
0000
,
0100
0000
0010
1000
0001
1000
0010
1000
0001
1000
0010
1000
0001
0000
0010
0000
,
0100
0000
1000
0100
0010
0100
1000
0100
0010
0100
1000
0100
0010
0000
0001
0000
,
0100
0000
0001
0010
0100
1000
0010
0100
0001
1000
0100
0010
0001
0000
1000
0000
,
0010
0000
0100
0001
1000
0100
0010
0001
0100
0010
1000
0001
0010
0000
0100
0000
,
1000
0000
0010
1000
0001
0100
0010
1000
0001
0010
0100
1000
0001
0000
1000
0000
,
0010
0000
0010
0100
0001
1000
0100
0010
0001
1000
0010
0100
0010
0000
1000
0000
,
0101
0000
1010
0000
1100
0101
1100
0101
,
1100
0000
0000
0000
1000
0100
0001
0000
0110
0000
1000
0000
0001
0000
0000
0000
,
0110
0000
1001
0000
0011
1010
0110
0101
,
1001
0000
0000
0000
0001
0100
1000
0000
0110
0000
0001
0000
1000
0000
0000
0000
;

//---------------dance-single - ----------------
#NOTES:
     dance-single:
     [Ness]:
     Hard:
     9:
     0.567705,0.643495,0.517755,0.161378,0.124396,591.000000,514.000000,77.000000,24.000000,0.000000,0.000000,0.567705,0.643495,0.517755,0.161378,0.124396,591.000000,514.000000,77.000000,24.000000,0.000000,0.000000:
0000
0000
0000
1000
0001
0100
0001
0100
,
0101
0000
0000
0001
1000
0100
1000
0100
,
1100
0000
0000
1000
0001
0100
0001
0100
,
0101
0000
1100
0000
1001
0100
0010
1000
,
0100
0010
1001
0200
,
0310
0000
2000
0000
3100
0000
0010
0001
,
1000
0010
0100
0002
0000
0000
2003
0000
,
3100
0000
0010
0001
0100
0100
0010
1000
,
0001
0010
0100
2000
0000
0000
3001
0010
,
0100
0010
0001
1000
0200
0000
0310
0001
,
1000
0010
0100
0010
1000
0001
0001
0100
,
0010
0000
0100
0000
0001
0100
0001
0000
0200
0000
0000
0000
0310
0000
1000
0000
,
0100
0010
0100
1000
0001
1000
0100
0000
,
1100
0101
2002
3003
,
0000
0100
0001
1000
0100
0000
0010
0100
,
1000
0000
0001
1000
2002
0000
3003
0000
,
0000
0000
0010
0000
0001
1000
0001
0000
0010
0000
0100
0000
1000
0000
0001
0000
,
0100
0010
0100
0010
2002
0000
3003
0000
,
0000
0100
0001
1000
0100
0010
0001
1000
,
0010
0100
0010
0100
2002
0000
3003
0000
,
0000
0001
1000
0010
0100
0000
0220
0000
,
0330
0000
1000
0100
2000
0000
0000
0000
3000
0000
0001
0010
0002
0000
0000
0000
,
0003
0000
1000
0010
1000
0000
0001
0100
0001
0000
1000
0000
0100
0000
0000
0000
,
0010
0000
0001
0100
0001
0000
1000
0000
0100
0000
0010
0000
0100
0000
1000
0000
,
0001
1000
0001
0000
0100
0000
0010
0000
1000
0001
1000
0000
0100
0000
0010
0000
,
0001
0000
0100
0000
0010
0000
1000
0000
0100
0010
0100
0000
0010
0000
0010
0000
,
0001
0100
0001
0000
1000
0000
0100
0000
0010
0000
0001
0000
1000
0000
0010
0000
,
0100
0010
0100
0000
0001
0000
1000
0000
0001
1000
0001
0000
0010
0000
0100
0000
,
1000
0000
0001
1000
0001
0000
0100
0000
0010
0000
1000
0000
0100
0000
0010
0000
,
1001
0000
0000
1000
0001
0100
0010
1000
,
1001
0000
0000
0001
1000
0010
0100
0001
,
1001
0000
0101
0000
1100
1000
0100
0010
,
0001
1000
1001
0010
,
0200
1000
0310
1010
,
1000
0002
0000
0000
0010
0000
0000
0000
0103
0000
0000
0000
0110
0000
0000
0000
,
0020
0001
0130
0101
,
0100
0020
0000
0000
0001
0000
0000
0000
0130
0000
0010
0000
1000
0000
0001
0000
,
0010
0010
0100
0100
1000
1000
0001
0001
,
0100
0100
0010
0010
1000
1000
0001
0001
,
0100
0100
0010
0010
1000
0001
0100
0010
,
1000
0000
0001
1000
0100
0000
0000
0000
,
1100
0000
0101
0000
1100
0101
1100
0000
,
0010
0100
0010
0100
0001
1000
0100
0000
,
0101
0000
1100
0000
0101
1100
0101
0000
,
0010
0100
0010
0100
0001
1000
0100
0000
,
1100
0000
0101
0000
1100
0101
1100
0000
,
0010
0100
0010
0100
0001
1000
0100
0000
,
1100
0101
1100
0101
,
0110
0000
1100
0101
2100
0000
3010
0000
,
0110
0000
0000
0100
0001
0100
0001
0100
,
0101
0000
0000
1000
0100
1000
0100
1000
,
1100
0000
0101
0000
1001
0100
0010
1000
,
0100
0000
0010
0000
0001
0001
0001
0001
,
0001
0000
0000
1000
0100
0010
0001
1000
,
1100
0000
0000
0000
,
0000
0000
0000
0000
,
1100
0000
0101
0000
1100
0001
0100
0010
,
1000
0001
1001
0010
,
0100
0001
0100
0001
1000
0100
0010
0000
,
0100
1000
0100
1000
0001
0100
0010
0000
,
1000
0100
0001
0100
0010
0100
0010
0000
,
0001
0100
1000
0100
0010
0100
0010
0000
,
1000
0010
0001
0010
1000
0100
0001
0000
,
0001
0100
1000
0100
0010
0001
0100
0000
,
0001
0000
0000
0000
1000
0000
0000
0000
0001
0000
1000
0001
1000
0001
1000
0001
,
1000
0000
0101
1100
0101
0000
0010
0000
,
1001
1100
1001
0000
,
0000
0000
0000
0000
,
0100
0000
1000
0100
1000
0000
0100
0000
1000
0100
1000
0000
0100
0000
1000
0000
,
0100
0000
1000
0100
1000
0000
0100
0000
1000
0100
1000
0000
0100
0000
1000
0000
,
0001
0000
0100
0001
0100
0000
0001
0000
0100
0001
0100
0000
0001
0000
0100
0000
,
0001
0000
0100
0001
0100
0000
0001
0000
0100
0001
0100
0000
0001
0000
0100
0000
,
0001
0000
1000
0001
1000
0000
0001
0000
1000
0001
1000
0000
0001
0000
1000
0000
,
0001
0000
1000
0001
1000
0000
0001
0000
1000
0001
1000
0000
0001
0000
1000
0000
,
0010
0000
1000
0001
1000
0000
0100
0000
1000
0001
1000
0000
0010
0000
0100
0000
,
0001
0000
1000
0001
1000
0000
0010
0000
0100
0001
0100
0000
0010
0000
1000
0000
,
1100
0000
0101
0000
1100
1100
1100
1100
,
1100
0000
0000
0000
0010
0100
0010
0000
0101
0000
0001
0000
1000
0000
0000
0000
,
0101
0000
1100
0000
0101
0101
0101
0101
,
0101
0000
0000
0000
0010
0100
0010
0000
1100
0000
1000
0000
0001
0000
0000
0000
;

//---------------dance-single - ----------------
#NOTES:
     dance-single:
     [Ness]:
     Medium:
     7:
     0.382313,0.455809,0.470686,0.242067,0.000000,398.000000,328.000000,70.000000,36.000000,0.000000,0.000000,0.382313,0.455809,0.470686,0.242067,0.000000,398.000000,328.000000,70.000000,36.000000,0.000000,0.000000:
// measure 0
0000
0000
0000
0000
,  // measure 1
2200
3300
0000
0000
,  // measure 2
0202
0303
0000
0000
,  // measure 3
1100
0000
0101
0000
1000
0100
0001
0100
,  // measure 4
1000
0101
1100
0000
,  // measure 5
0002
1003
0020
0130
,  // measure 6
0001
0100
0001
0100
0000
0000
0010
0000
,  // measure 7
2000
3100
0020
0031
,  // measure 8
1000
0100
1000
0100
0000
0000
0020
0000
,  // measure 9
0130
0000
1000
0001
1000
0000
0010
0000
,  // measure 10
0100
0000
0001
0100
0001
0000
0010
0000
,  // measure 11
0100
0000
1000
0100
1000
0000
0001
0000
,  // measure 12
0010
0100
0010
0100
0000
0000
1100
0000
,  // measure 13
0110
0000
0101
0000
2200
0000
0000
3300
,  // measure 14
0000
0001
1000
0010
0100
0000
0001
0000
,  // measure 15
0101
1100
0202
0303
,  // measure 16
0000
1000
0001
0010
0100
0000
1000
0000
,  // measure 17
0110
1001
0220
0330
,  // measure 18
0000
0010
1000
0100
0010
0000
0001
0000
,  // measure 19
1100
0101
2200
3300
,  // measure 20
0000
0001
1000
0001
1000
0000
0100
0000
,  // measure 21
0000
0001
0010
1000
,  // measure 22
0100
0001
0010
0000
1000
0100
0001
0000
,  // measure 23
0010
0000
1000
0000
0100
0001
0010
0000
,  // measure 24
1000
0100
0001
0000
0010
1000
0100
0000
,  // measure 25
0001
0010
1000
0000
0100
0000
0001
0000
,  // measure 26
0010
1000
0100
0000
0001
0010
1000
0000
,  // measure 27
0100
0001
0010
1000
0100
0001
0010
1000
,  // measure 28
0100
0100
0100
0001
1000
0001
1000
0000
,  // measure 29
2200
3300
0000
0000
,  // measure 30
0202
0303
0000
0000
,  // measure 31
1100
0000
0101
0000
1000
0100
0001
0100
,  // measure 32
1000
0101
1100
0000
,  // measure 33
0010
1000
0002
0003
,  // measure 34
0010
0100
2000
3000
,  // measure 35
0001
0100
0020
0030
,  // measure 36
1000
0000
0001
0000
0100
0010
1000
0001
,  // measure 37
0100
0010
2000
3000
,  // measure 38
0001
0010
0200
0300
,  // measure 39
1000
0001
0100
0010
,  // measure 40
1000
0000
0001
1000
0100
0000
0000
0000
,  // measure 41
1000
0100
1000
0100
1000
1000
0100
0000
,  // measure 42
0000
0000
0000
0000
,  // measure 43
0001
0100
0001
0100
0001
0001
0100
0000
,  // measure 44
0000
0000
0000
0000
,  // measure 45
1000
0001
0100
0010
1000
0001
1000
0000
,  // measure 46
0000
0000
0000
0000
,  // measure 47
1100
0101
1100
0101
,  // measure 48
1100
0000
0001
0100
0001
0000
1100
0000
,  // measure 49
0202
0303
0000
0000
,  // measure 50
2200
3300
0000
0000
,  // measure 51
0101
0000
1100
0000
0001
0100
1000
0100
,  // measure 52
0001
1100
0101
1010
,  // measure 53
0011
0000
0000
1000
0100
1000
0100
1000
,  // measure 54
1100
0000
0000
0000
,  // measure 55
0000
0000
0000
0000
,  // measure 56
1100
0000
0101
0000
1000
0100
0001
0100
,  // measure 57
1000
0101
1100
0000
,  // measure 58
1002
0000
0103
0000
1000
0001
0100
0000
,  // measure 59
0010
1000
0100
0000
1000
0001
1000
0000
,  // measure 60
2100
0000
3010
0000
1000
0100
0001
0000
,  // measure 61
0010
0100
0010
0000
0001
0100
1000
0000
,  // measure 62
0110
0101
1001
0100
,  // measure 63
0010
1000
0100
0000
0001
0010
1000
0000
,  // measure 64
0011
1010
1001
0100
,  // measure 65
0010
0000
0000
0000
,  // measure 66
1000
0000
0001
0000
1000
0100
0001
0010
,  // measure 67
0100
1000
0101
0000
,  // measure 68
2010
3001
0010
1100
,  // measure 69
0010
0000
0101
0000
1000
0010
0100
0000
,  // measure 70
0012
1003
0010
0101
,  // measure 71
0010
0000
1100
0000
0001
0010
0100
0000
,  // measure 72
2010
0000
3001
0000
0010
0100
1100
0000
,  // measure 73
0010
0000
0101
0000
1000
0010
0100
0000
,  // measure 74
0012
0000
1003
0000
0010
0100
0101
0000
,  // measure 75
0010
0000
1100
0000
0001
0010
0100
0000
,  // measure 76
1000
0000
0001
0000
1000
0001
0100
0010
,  // measure 77
1000
0001
1001
0000
,  // measure 78
1100
0000
0101
0000
1100
0000
0001
1000
,  // measure 79
0010
0000
0100
0001
1000
0000
0101
0000
;

//---------------dance-single - ----------------
#NOTES:
     dance-single:
     [Ness]:
     Easy:
     5:
     0.319875,0.482622,0.558100,0.295860,0.000000,333.000000,250.000000,83.000000,44.000000,0.000000,0.000000,0.319875,0.482622,0.558100,0.295860,0.000000,333.000000,250.000000,83.000000,44.000000,0.000000,0.000000:
0000
0000
0000
0000
,
2002
3003
0000
0000
,
2002
3003
0000
0000
,
1001
1001
1001
1001
,
1001
0110
1001
0000
,
0200
0300
0020
0030
,
2000
3000
0100
0010
,
0002
0003
2000
3000
,
0020
0030
0100
0001
,
2000
3000
0200
0300
,
0020
0030
0001
1000
,
0200
0300
0020
0030
,
2000
3000
0001
0100
,
0110
0110
0220
0330
,
1000
0000
0001
0000
,
1001
1010
2002
3003
,
0010
0000
1000
0000
,
1010
1100
2020
3030
,
0001
0000
0100
0000
,
0101
0011
0202
0303
,
0010
0000
0100
0000
,
0001
0001
1000
1000
,
0010
0001
0010
1000
,
0001
0001
0001
0000
1000
1000
1000
0000
,
0100
0001
0010
1000
,
0100
0010
0100
0010
,
0001
0100
1000
0100
,
0001
0010
1000
0100
,
0001
0001
0001
0000
1000
1000
1000
0000
,
2002
3003
0000
0000
,
2002
3003
0000
0000
,
1001
1001
1001
1001
,
1001
0110
1001
0000
,
0010
1000
0200
0310
,
0010
0001
1000
0001
,
0100
0010
2000
3001
,
0010
0100
0020
0031
,
1000
0001
0200
0310
,
1000
0100
0020
0130
,
1000
0001
1000
0200
,
0310
0000
0000
0000
,
0001
0100
1000
1100
,
1000
0100
0001
0101
,
0001
0100
1000
1100
,
1000
0100
0001
0101
,
0001
0100
1000
1100
,
1000
0100
0001
0101
,
0010
0100
0010
0100
,
0001
0000
0000
0000
,
2002
3003
0000
0000
,
2002
3003
0000
0000
,
1001
1001
1001
1001
,
1001
0110
1001
0110
,
1001
0000
0000
0000
,
1001
0000
0000
0000
,
0000
0000
0000
0000
,
1001
1001
1001
1001
,
1001
0110
1001
0000
,
0100
0120
0130
0000
,
0001
1002
1003
0000
,
0010
0210
0310
0000
,
1000
2001
3001
0010
,
0100
1000
0010
0110
,
1000
0100
0001
0110
,
0001
0010
1000
0110
,
0001
1000
0100
0000
,
1100
0101
1100
0000
,
0000
0000
0000
0000
,
0010
0010
1000
1001
,
0010
0100
0010
1001
,
0010
0010
0001
1001
,
0010
0100
0010
1001
,
0010
1100
0010
0101
,
0010
1100
0010
0101
,
0010
1100
0010
0101
,
0010
1100
0010
0101
,
1001
0100
0010
0010
,
0100
0110
2001
3010
,
1001
0100
0010
0100
,
0010
0110
1002
0013
;

//---------------dance-single - ----------------
#NOTES:
     dance-single:
     [Ness]:
     Beginner:
     2:
     0.179629,0.374196,0.181550,0.047069,0.000000,187.000000,160.000000,27.000000,7.000000,0.000000,0.000000,0.179629,0.374196,0.181550,0.047069,0.000000,187.000000,160.000000,27.000000,7.000000,0.000000,0.000000:
0000
0000
0000
0000
,
1001
0000
0000
0000
,
1001
0000
0000
0000
,
1001
0000
0000
0000
,
0000
0000
0000
0000
,
0010
0000
1000
0000
,
0001
0000
1000
0000
,
0100
0000
0010
0000
,
0001
0000
1000
0000
,
0001
0000
0100
0000
,
0010
0000
1000
0000
,
0001
0000
1000
0000
,
0100
0000
0010
0000
,
0001
0001
0002
0000
,
0003
0000
1000
0000
,
0100
0100
0200
0000
,
0300
0000
0010
0000
,
0001
0001
0002
0000
,
0003
0000
1000
0000
,
0010
0010
0020
0000
,
0030
0000
0100
0200
,
0000
0000
0000
0000
,
0000
0000
0000
0300
,
0001
0000
0001
0000
,
1000
0000
1000
0000
,
0100
0100
0100
0100
,
0100
0100
0100
0100
,
0100
0100
0100
0100
,
0100
0100
0100
0100
,
0100
0000
0000
0000
,
0100
0000
0000
0000
,
0100
0100
0100
0000
,
0010
0000
0010
0000
,
0001
0000
1000
0000
,
0010
0000
0100
0000
,
0001
0000
1000
0000
,
0100
0000
0010
0000
,
0100
0100
0100
0000
,
1000
1000
1000
0000
,
0001
0001
0001
0000
,
0100
0100
0100
0000
,
0010
0010
0010
0010
,
0000
0000
0000
0000
,
0100
0100
0100
0100
,
0000
0000
0000
0000
,
0001
0001
0001
0001
,
0000
0000
0000
0000
,
1000
1000
1000
0000
,
0010
0000
0100
0000
,
0110
0000
0000
0000
,
0110
0000
0000
0000
,
0110
0000
0000
0000
,
0000
0000
0000
0000
,
1001
0000
0000
0000
,
1001
0000
0000
0000
,
0000
0000
0000
0000
,
1001
0000
1001
0000
,
1001
0000
1001
0000
,
0010
0010
0010
0000
,
1000
1000
1000
0000
,
0010
0010
0010
0000
,
0001
0001
0001
0000
,
1001
1001
1001
0000
,
0110
0110
0110
0000
,
1001
1001
1001
0000
,
0000
0000
0000
0000
,
1001
1001
2002
0000
,
3003
0000
0000
0000
,
0010
0010
0000
0010
,
0000
1000
0000
1000
,
0000
0100
0000
0001
,
0000
0010
0000
1000
,
0000
1001
0000
0010
,
0000
0001
0000
1001
,
0000
0100
0000
1000
,
0000
1001
0000
0010
,
0010
0000
0010
0000
,
0100
0100
0100
0000
,
0001
0000
0001
0000
,
1000
1000
1000
0000
;
