#VERSION:0.83;
#TITLE:Aloha!;
#SUBTITLE:(Theme From The White Lotus);
#ARTIST:Cristobal Tapia De Veer;
#TITLETRANSLIT:;
#SUBTITLETRANSLIT:;
#ARTISTTRANSLIT:;
#GENRE:The White Lotus;
#ORIGIN:;
#CREDIT:[Ness];
#BANNER:Aloha-bn.png;
#BACKGROUND:Black.png;
#PREVIEWVID:;
#JACKET:Aloha-jacket.png;
#CDIMAGE:;
#DISCIMAGE:Aloha-bg.png;
#LYRICSPATH:;
#CDTITLE:;
#MUSIC:Aloha.mp3;
#OFFSET:-0.015000;
#SAMPLESTART:36.225285;
#SAMPLELENGTH:15.371895;
#SELECTABLE:YES;
#DISPLAYBPM:121.000000;
#BPMS:0.000=121.000,
35.000=60.500,
37.000=121.000;
#STOPS:;
#DELAYS:;
#WARPS:;
#TIMESIGNATURES:0.000=4=4;
#TICKCOUNTS:0.000=2;
#COMBOS:0.000=1;
#SPEEDS:0.000=1.000=0.000=0;
#SCROLLS:0.000=1.000;
#FAKES:;
#LABELS:0.000=Song Start;
#LASTSECONDHINT:73.435364;
#BGCHANGES:3.500=Aloha.avi=1.000=1=0=0=StretchNoLoop==CrossFade==,
150.500=Black.png=1.000=0=0=1===CrossFade_Fastest==,
99999=-nosongbg-=1.000=0=0=0 // don't automatically add -songbackground-
;
#KEYSOUNDS:;
#ATTACKS:
;

//---------------dance-single - ----------------
#NOTEDATA:;
#CHARTNAME:;
#STEPSTYPE:dance-single;
#DESCRIPTION:[Ness];
#CHARTSTYLE:;
#DIFFICULTY:Challenge;
#METER:9;
#RADARVALUES:0.551754,0.501088,0.457375,0.889341,0.482785,304.000000,268.000000,36.000000,70.000000,0.000000,0.000000,0.000000,0.000000,0.000000,0.551754,0.501088,0.457375,0.889341,0.482785,304.000000,268.000000,36.000000,70.000000,0.000000,0.000000,0.000000,0.000000,0.000000;
#CREDIT:[Ness];
#DISPLAYBPM:121.000000;
#NOTES:
0000
0000
0000
0000
,
0000
0000
0010
0010
0010
0010
0001
0001
,
0010
0000
0000
0000
0010
0000
0100
0000
0000
0000
0000
0100
0000
0000
0000
0000
0010
0000
0000
0000
0010
0000
0000
0000
1000
0000
0000
0000
1000
0000
0000
0000
,
0010
0000
0000
0000
0010
0000
0100
0000
0000
0000
0000
0100
0000
0000
0000
0000
0100
0000
0000
0000
0000
0100
0000
0000
0000
0000
0100
0000
0000
0000
0000
0100
,
0000
0000
0000
0000
0000
0100
0000
0000
0000
0000
0000
0000
0100
0000
0000
0000
0010
0000
0000
0000
1000
0000
0000
0000
0100
0000
0000
0000
1100
0000
0000
0000
,
0101
0000
0010
0010
0010
0010
0001
0001
,
0010
0000
0000
0000
0010
0000
0100
0000
0000
0000
0000
0100
0000
0000
0000
0000
0010
0000
0000
0000
0010
0000
0000
0000
1000
0000
0000
0000
1010
0000
0000
0000
,
0011
0000
0000
0000
0000
0000
0010
0000
0000
0100
0000
0000
0000
0000
0100
0000
0000
0000
0000
0000
0100
0000
0000
0000
0000
0100
0000
0000
0000
0000
0100
0000
0000
0000
0000
0100
0000
0000
0000
0000
0100
0000
0000
0000
0000
0100
0000
0000
,
1000
0000
0000
0000
0000
0000
0000
0000
0000
0000
0000
0000
0000
0000
0000
0000
0000
0000
0000
0000
1000
0000
0000
0000
0000
0000
0000
0000
0000
0000
0000
0000
0000
0000
0000
0000
0000
0000
0000
0000
0000
0000
1000
0000
0000
0000
0000
0000
0000
0000
0000
0000
0000
0000
0000
0000
0000
0000
0000
0000
0000
0000
0000
0000
0000
0000
0000
0000
0000
0000
0000
0000
0000
0000
0000
0000
0000
0000
0000
0000
0000
0000
0000
0000
0000
0000
0000
0000
0000
0000
0000
0000
0000
0000
0000
0000
0010
0000
0000
0000
0000
0000
0000
0000
0000
0000
0000
0000
0000
0000
0000
0000
0000
0000
0000
0000
0000
0000
0000
0000
0001
0000
0000
0000
0000
0000
0000
0000
0000
0000
0000
0000
0000
0000
0000
0000
0000
0000
0000
0000
0000
0000
0000
0000
1001
0000
0000
0000
0000
0000
0000
0000
0000
0000
0000
0000
0000
0000
0000
0000
0000
0000
0000
0000
0000
0000
0000
0000
0000
0000
0000
0000
0000
0000
0000
0000
0000
0000
0000
0000
0000
0000
0000
0000
0000
0000
0000
0000
0000
0000
0000
0000
,
0000
0000
0101
1010
0110
0000
1000
1000
,
1000
0000
0000
0000
0000
1000
0000
0000
0000
0000
1000
0000
0100
0000
0000
0000
0000
0000
0100
0000
0000
0000
0000
0000
0010
0000
0000
0000
0000
0010
0000
0000
0000
0100
0000
0000
0000
0000
0100
0000
0000
0000
0000
0100
0000
0000
0000
0000
,
0010
0000
0010
0000
0001
0000
0001
0000
0010
0000
0010
0100
0000
0100
0000
0100
,
0000
0000
0000
0100
0000
0000
0000
0000
0000
0100
0000
0000
0000
0000
0000
0100
0000
0000
0000
0000
0000
0100
0000
0000
1000
0000
0000
0000
1000
0000
0000
0000
1000
0000
0000
0000
1000
0000
0000
0000
1000
0000
0000
0000
1000
0000
0000
0000
,
1000
0000
1000
0000
1000
0000
0002
0000
0023
0000
0230
0000
0300
0000
0000
0000
0000
0000
0001
0000
0000
0001
0000
0000
,
0001
0000
0000
0000
0000
0001
0000
0000
0000
0000
0001
0000
0100
0000
0000
0000
0000
0000
0100
0000
0000
0000
0000
0000
0010
0000
0000
0000
0000
0010
0000
0000
0000
0100
0000
0000
0000
0000
0100
0000
0000
0000
0000
0100
0000
0000
0000
0000
,
0010
0000
0010
0000
1000
0000
1000
0000
0010
0000
0010
0100
0000
0100
0000
0100
,
0000
0000
0000
0100
0000
0000
0000
0000
0000
0100
0000
0000
0000
0000
0000
0100
0000
0000
0000
0000
0000
0100
0000
0000
0001
0000
0000
0000
0001
0000
0000
0000
0001
0000
0000
0000
0001
0000
0000
0000
0001
0000
0000
0000
0001
0000
0000
0000
,
0001
0010
1000
0000
0000
0000
0100
0001
,
0010
0000
0000
0000
0000
0000
0100
0000
0000
0000
0000
0000
1000
0000
0000
0000
0000
0000
0010
0000
0000
0000
0000
0000
0100
0000
0000
0000
0000
0000
0001
0000
0000
0100
0000
0000
0000
0000
0010
0000
0000
0000
0000
0100
0000
0000
0000
0000
,
1000
0000
0000
0000
0000
0000
0001
0000
0000
0000
0000
0000
0100
0000
0000
0000
0000
0000
0010
0000
0000
0000
0000
0000
1000
0000
0000
0000
0000
0000
0001
0000
0000
0010
0000
0000
0000
0000
0100
0000
0000
0000
0000
0010
0000
0000
0000
0000
,
0001
0000
0000
0000
1000
0000
0000
0000
0000
0000
0000
0100
0000
0000
0000
0000
0000
0000
0010
0000
0000
0000
0000
0000
0001
0000
0000
0000
0000
0000
1000
0000
0000
0000
0000
0000
0100
0000
0000
0000
0000
0000
0010
0000
0000
0000
0000
0000
,
0001
0000
1000
0000
2002
0000
0000
0000
3003
0000
0202
0303
0010
0000
2002
3003
,
0010
0000
2200
3300
0010
0000
2002
0000
0000
0000
3003
0000
0010
0000
0202
0303
,
0010
0000
2200
3300
0010
0000
2002
0000
3003
0000
0000
0000
0000
0000
0220
0330
,
1000
0000
0220
0330
0001
0000
0220
0000
0000
0000
0330
0000
0000
0000
2200
3300
,
0010
0000
0202
0303
0010
0000
2200
0000
3300
0000
0000
0000
0000
0000
2020
3030
,
0100
0000
0022
0033
0100
0000
2002
0000
0000
0000
3003
0000
0000
0000
0022
0033
,
1000
0000
0022
0033
0100
0000
2020
0000
3030
0000
0000
0000
0000
0000
2002
3003
,
0100
0000
2002
3003
0010
0000
2200
0000
0000
0000
3300
0000
0000
0000
2020
3030
,
0100
0000
0022
0033
0100
0000
2020
0000
3030
0000
0000
0000
0010
0000
0100
0000
,
1000
0000
0000
0000
0010
0000
0000
0000
0001
0000
0000
0000
0100
0000
0000
0000
0010
0000
0000
0000
0001
0000
0100
0000
0000
0000
0000
1000
0000
0000
0000
0000
,
0100
0000
0000
0000
0000
0000
0010
0000
0000
0000
0000
0000
0001
0000
0000
0000
0000
0000
1000
0000
0000
0000
0000
0000
0010
0000
0000
0000
0000
0000
1000
0000
0000
0100
0000
0000
0000
0000
0001
0000
0000
0000
0000
0000
0100
0000
0000
0000
,
0000
0000
0000
0000
1000
0000
0000
0000
0000
0000
0000
0000
0000
0000
0000
0000
0000
0000
0000
0000
0000
0000
0000
0000
0100
0000
0000
0000
0000
0000
0000
0000
0000
0000
0000
0000
0000
0000
0000
0000
0000
0000
0000
0000
0010
0000
0000
0000
0000
0000
0000
0000
0000
0000
0000
0000
0000
0000
0000
0000
0000
0000
0000
0000
0100
0000
0000
0000
0000
0000
0000
0000
0000
0000
0000
0000
0000
0000
0000
0000
0000
0000
0000
0000
1000
0000
0000
0000
0000
0000
0000
0000
0000
0000
0000
0000
0001
0000
0000
0000
0000
0000
0000
0000
0000
0000
0000
0000
0000
0000
0000
0000
0000
0000
0000
0000
1000
0000
0000
0000
0000
0000
0000
0000
0000
0000
0000
0000
0000
0000
0000
0000
0000
0000
0000
0000
0000
0000
0001
0000
0000
0000
0000
0000
0000
0000
0000
0000
0000
0000
0000
0000
0000
0000
0000
0000
0000
0000
0000
0000
0000
0000
0000
0000
0000
0000
0000
0000
0000
0000
0000
0000
0000
0000
0000
0000
0000
0000
0000
0000
0000
0000
0000
0000
0000
0000
0000
0000
0000
0000
0000
0000
,
0100
0010
2002
0000
3003
0000
0100
0020
,
0130
2000
3100
0020
0130
0002
1003
0020
,
0130
0001
0001
2000
3100
0010
0100
2000
,
3001
0200
0310
0002
0013
2000
3010
0200
,
0301
0000
0010
0000
0100
0000
0010
0000
2002
3003
0000
0000
0000
0000
0000
0000
;

//---------------dance-single - ----------------
#NOTEDATA:;
#CHARTNAME:;
#STEPSTYPE:dance-single;
#DESCRIPTION:[Ness];
#CHARTSTYLE:;
#DIFFICULTY:Hard;
#METER:7;
#RADARVALUES:0.439225,0.429504,0.038115,0.241392,0.158811,242.000000,239.000000,3.000000,19.000000,0.000000,0.000000,0.000000,0.000000,0.000000,0.439225,0.429504,0.038115,0.241392,0.158811,242.000000,239.000000,3.000000,19.000000,0.000000,0.000000,0.000000,0.000000,0.000000;
#CREDIT:[Ness];
#DISPLAYBPM:121.000000;
#NOTES:
// measure 0
0000
0000
0000
0000
,  // measure 1
0001
0000
0000
0001
1000
0000
0000
1000
0010
0000
0100
0000
0010
0000
0000
0000
,  // measure 2
1000
0000
0000
1000
0100
0000
0000
0100
0010
0000
0001
0000
0100
0000
0000
0000
,  // measure 3
0001
0000
0000
0001
1000
0000
0000
1000
0100
0000
0010
0000
0100
0000
0000
0000
,  // measure 4
1000
0000
0000
1000
0001
0000
0000
0001
0100
0000
0010
0000
2000
0000
0001
0000
,  // measure 5
3001
0000
0000
0000
0010
0000
0000
0010
0001
0000
1000
0000
0100
0000
0000
0000
,  // measure 6
0010
0000
0000
0010
0100
0000
0000
0100
1000
0000
0001
0000
0100
0000
0000
0000
,  // measure 7
0010
0000
0000
0010
1000
0000
0000
1000
0001
0000
1000
0000
0100
0000
0000
0000
,  // measure 8
0010
0000
0000
0010
0001
0000
0000
0001
1000
0000
0100
0000
1001
0000
0000
0000
,  // measure 9
0000
0000
0200
0010
0310
0000
2000
0000
,  // measure 10
0001
0000
0000
0000
3100
0000
0010
0000
0001
0000
0010
0200
0000
0000
1300
0000
,  // measure 11
0010
0000
0100
0000
0010
0000
1000
0000
0010
0000
0100
0002
0000
0000
0000
0000
,  // measure 12
0010
1000
0013
0000
0100
1000
0001
0100
,  // measure 13
0010
0100
0010
0000
0000
0000
1000
0001
,  // measure 14
1000
0000
0001
0000
0100
0000
0001
0000
1000
0000
0100
2000
0000
0000
3001
0000
,  // measure 15
0010
0000
0001
0000
1000
0000
0001
0000
0010
0000
0001
0200
0000
0000
0000
0000
,  // measure 16
0001
0010
0301
0000
1000
0010
0100
0000
,  // measure 17
0010
0100
0001
0000
1000
0000
0001
1000
,  // measure 18
0100
0000
0000
0000
0010
0000
0001
0000
0100
0000
0001
0020
0000
0000
0130
0000
,  // measure 19
1000
0000
0001
0000
1000
0000
0100
0000
1000
0000
0010
0200
0000
0000
0000
0000
,  // measure 20
0010
0001
0310
0000
1000
0001
0100
0000
,  // measure 21
0001
1000
2002
0000
3003
0000
0001
0100
,  // measure 22
1000
0100
0001
2000
0000
3010
0100
0001
,  // measure 23
0000
1000
0001
1000
0000
0001
0010
1000
,  // measure 24
0010
0001
0010
0200
0000
1300
0100
0010
,  // measure 25
0000
0001
1000
0001
0000
1000
0010
0001
,  // measure 26
0010
1000
0010
0200
0000
0301
0100
0010
,  // measure 27
0000
1000
0001
1000
0000
0100
0001
0100
,  // measure 28
0010
0100
1000
0002
0000
1003
0100
0010
,  // measure 29
0000
0001
1000
0001
0000
0000
0010
0010
,  // measure 30
0010
0000
0000
0000
0010
0000
0000
0000
0001
0000
0000
0000
0001
0000
0000
0000
0010
0000
0000
0000
0010
0000
0200
0000
0000
0000
0000
0300
0000
0000
0000
0000
,  // measure 31
0010
0000
0001
0000
1000
0000
0001
0000
0010
0000
0100
1000
0000
0100
0000
1000
,  // measure 32
0100
1000
0100
1000
0001
1000
0001
0000
,  // measure 33
0100
0010
2002
0000
3003
0000
1000
0001
,  // measure 34
0100
0000
0100
0010
1000
0000
1000
0010
,  // measure 35
0001
0000
0001
0010
0100
0000
0100
0001
,  // measure 36
0010
0000
0010
0100
1000
0000
1000
0001
,  // measure 37
0100
0000
0000
0000
0010
0000
1000
0000
0200
0300
0000
0000
0000
0000
0000
0000
;

//---------------dance-single - ----------------
#NOTEDATA:;
#CHARTNAME:;
#STEPSTYPE:dance-single;
#DESCRIPTION:[Ness];
#CHARTSTYLE:;
#DIFFICULTY:Medium;
#METER:6;
#RADARVALUES:0.328512,0.357920,0.127049,0.076229,0.025410,181.000000,171.000000,10.000000,6.000000,0.000000,0.000000,0.000000,0.000000,0.000000,0.328512,0.357920,0.127049,0.076229,0.025410,181.000000,171.000000,10.000000,6.000000,0.000000,0.000000,0.000000,0.000000,0.000000;
#CREDIT:[Ness];
#DISPLAYBPM:121.000000;
#NOTES:
0000
0000
0000
0000
,
0000
1000
0001
1000
,
0001
0000
0000
0100
0000
0000
0100
0000
0010
0000
0000
0000
1000
0000
0000
0000
,
0001
0000
0000
1000
0000
0000
0100
0000
1000
0000
0000
0000
0010
0000
0000
0000
,
0100
0000
0001
0000
0010
0001
2000
0000
,
3000
0010
0100
0010
,
1000
0000
0000
0100
0000
0000
0010
0000
0001
0000
0000
0000
0010
0000
0000
0000
,
0001
0000
0000
0100
0000
0000
0010
0000
1000
0000
0000
0000
0100
0000
0000
0000
,
0010
0000
0100
0000
0010
0001
1000
0000
,
0000
0000
0000
0000
0000
0000
0001
0100
,
0001
0000
1000
0000
0010
1000
0100
0000
,
1000
0000
0100
0000
0010
0100
1000
0000
,
0001
1000
0001
0010
,
0100
0010
0100
0010
0100
0000
1000
0000
,
0010
0100
0001
0010
,
0100
0010
0100
0000
1000
0000
0001
0000
,
1000
0000
0001
0000
1000
0010
1000
0000
,
0001
0100
0001
0000
0000
1000
0000
0001
,
0000
1000
0000
0001
0000
0010
0000
0100
,
0000
1000
0010
0100
0000
0010
0000
1000
,
0000
0001
0000
0010
0000
0100
0000
0010
,
0100
0010
2002
0000
3003
0000
0000
1000
,
0001
1000
0001
0100
0000
0100
0000
0001
,
0000
1001
0000
0110
0000
1000
0000
0100
,
0010
0100
0000
1100
0000
0101
0000
0100
,
0010
0100
0000
0001
0000
1000
0000
0001
,
0000
0010
0100
0010
0000
0011
0000
1010
,
0000
0010
1000
0010
0000
1000
0000
0001
,
0000
0010
0100
1000
0000
0001
1000
0100
,
0000
0101
0000
1100
0000
0010
0000
0001
,
0000
1000
0000
0001
0000
1000
0000
0100
,
0000
0001
0000
0010
0000
1000
0000
0010
,
0000
0001
0000
0100
0000
0010
0000
1000
,
0001
0100
0020
0000
0030
0000
0001
1000
,
0001
0100
0010
0000
1000
0100
0010
0000
,
0001
0000
1000
0000
0100
0000
0010
0100
,
1000
0100
0010
0000
0001
1000
0001
0000
,
0100
0000
0000
0000
0010
0000
0000
0000
2002
3003
0000
0000
0000
0000
0000
0000
;

//---------------dance-single - ----------------
#NOTEDATA:;
#CHARTNAME:;
#STEPSTYPE:dance-single;
#DESCRIPTION:[Ness];
#CHARTSTYLE:;
#DIFFICULTY:Easy;
#METER:4;
#RADARVALUES:0.279507,0.310197,0.254097,0.012705,0.000000,154.000000,134.000000,20.000000,1.000000,0.000000,0.000000,0.000000,0.000000,0.000000,0.279507,0.310197,0.254097,0.012705,0.000000,154.000000,134.000000,20.000000,1.000000,0.000000,0.000000,0.000000,0.000000,0.000000;
#CREDIT:[Ness];
#DISPLAYBPM:121.000000;
#NOTES:
0000
0000
0000
0000
,
0000
1000
1000
0100
,
0001
0100
0001
1000
,
0001
0100
0100
0100
,
0010
0010
1000
1001
,
0000
1000
1000
0100
,
0001
0100
0001
1000
,
0001
0100
0100
0100
,
0010
0010
1000
1001
,
0000
0000
0000
0001
,
0010
0001
0100
0001
,
0010
0001
0100
0010
,
0010
0010
1000
1000
,
1000
1000
0000
0100
,
0100
0001
0100
1000
,
1000
0001
1000
0100
,
0100
0100
0100
0100
,
0010
0001
0000
1000
,
1000
0001
1000
0100
,
1000
0001
1000
0100
,
0100
0100
0010
0010
,
0001
1001
0000
0101
,
1000
1100
0001
0101
,
1000
1100
0000
1001
,
0100
1001
0100
1001
,
0010
1001
0000
1010
,
0001
0011
1000
1010
,
0001
0011
0000
0110
,
1000
0110
0001
0110
,
1000
0110
0000
1000
,
0001
1000
0010
0001
,
0010
1000
0010
0100
,
0100
0100
0001
0001
,
1000
1001
0000
0100
,
1000
0010
0001
1000
,
0100
0001
0010
1000
,
0100
0010
1000
0100
,
0001
0000
0000
0000
1000
0000
0000
0000
0020
0030
0000
0000
0000
0000
0000
0000
;

//---------------dance-single - ----------------
#NOTEDATA:;
#CHARTNAME:;
#STEPSTYPE:dance-single;
#DESCRIPTION:[Ness];
#CHARTSTYLE:;
#DIFFICULTY:Beginner;
#METER:1;
#RADARVALUES:0.136124,0.190573,0.063524,0.000000,0.000000,75.000000,70.000000,5.000000,0.000000,0.000000,0.000000,0.000000,0.000000,0.000000,0.136124,0.190573,0.063524,0.000000,0.000000,75.000000,70.000000,5.000000,0.000000,0.000000,0.000000,0.000000,0.000000,0.000000;
#CREDIT:[Ness];
#DISPLAYBPM:121.000000;
#NOTES:
0000
0000
0000
0000
,
1000
0000
0000
0000
,
0001
0000
0000
0000
,
1000
0000
0000
0000
,
0100
0000
0010
0000
,
0001
0000
0000
0000
,
1000
0000
0000
0000
,
0001
0000
0000
0000
,
0100
0000
0010
0000
,
0000
0000
0000
1000
,
0000
0100
0100
0000
,
0001
0000
0100
0100
,
0000
0000
1000
0000
,
0000
0000
0000
0001
,
0000
0100
0100
0000
,
1000
1000
1000
0000
,
0000
0000
0001
0000
,
0010
0000
0000
0100
,
0000
1000
1000
0000
,
0001
0001
0001
0000
,
0000
0000
0010
0000
,
0001
0000
0000
1000
,
0000
0001
0000
0100
,
0000
1001
0000
0010
,
0000
0100
0000
0010
,
0000
1001
0000
0001
,
0000
1000
0000
0001
,
0000
1001
0000
0100
,
0000
0010
0000
0100
,
0000
1001
0000
0001
,
0000
1000
1000
0000
,
0010
0000
0100
0100
,
0000
0000
0010
0000
,
1000
1000
0000
0100
,
0100
0100
0100
0100
,
0000
0000
0000
0010
,
0010
0010
0010
0010
,
0010
0000
1001
0000
;
