#TITLE:All Of Your Love;
#SUBTITLE:(Sanxion7 Remix);
#ARTIST:HelloGoodbye;
#TITLETRANSLIT:;
#SUBTITLETRANSLIT:;
#ARTISTTRANSLIT:;
#GENRE:Zombies! Aliens! Vampires! Dinosaurs!;
#CREDIT:;
#BANNER:All Of Your Love (Sanxion7 Remix)-bn.png;
#BACKGROUND:All Of Your Love (Sanxion7 Remix)-bg.png;
#LYRICSPATH:;
#CDTITLE:;
#MUSIC:All Of Your Love (Sanxion7 Remix).mp3;
#OFFSET:-0.029000;
#SAMPLESTART:48.000000;
#SAMPLELENGTH:12.000000;
#LASTBEATHINT:273.037323;
#SELECTABLE:YES;
#DISPLAYBPM:140.000000;
#BPMS:0.000000=139.994995
,236.000000=34.999001
,237.000000=139.988007
;
#STOPS:
;
#BGCHANGES:;
#KEYSOUNDS:;
#ATTACKS:;

//---------------dance-single - ----------------
#NOTES:
     dance-single:
     :
     Challenge:
     9:
     0.609995,0.563049,0.117215,0.092097,0.016745,485.000000,14.000000,11.000000,0.000000,0.000000,0.000000,0.609995,0.563049,0.117215,0.092097,0.016745,485.000000,14.000000,11.000000,0.000000,0.000000,0.000000:
0000
0000
0000
0000
,
0000
0000
0000
0000
,
0000
0000
0000
0000
,
0000
0000
0000
0000
,
1001
0001
1000
0100
1000
0001
0010
0001
,
0100
0010
0100
1000
0100
0010
0100
0001
,
1000
0010
0100
0010
1000
0001
0100
0010
,
1000
0010
0001
0010
1000
0010
0100
0001
,
1000
0100
0001
0100
1000
0100
0010
0001
,
1000
0010
0001
0010
1000
0010
0100
0001
,
1000
0100
0010
0001
1000
0100
0010
0100
,
1000
0100
0010
0100
0001
0100
0010
0001
,
1001
0001
1000
0001
1000
0010
0100
0001
,
0100
0010
0100
0010
0100
0010
0100
0010
,
1000
0100
0010
0100
1000
0100
0010
0001
,
1000
0010
0100
0002
0000
0103
0010
0100
,
0001
0010
0100
1000
0100
0010
0001
1000
,
0010
0100
0010
1000
0001
0100
0010
1000
,
0001
0010
0100
1000
0100
0010
0001
1000
,
0100
0010
0100
2000
0000
3010
0100
0010
,
1000
1000
0001
0001
0100
0100
0010
0010
,
1000
0100
0010
0002
0000
0013
0100
1000
,
0001
0001
0100
0100
0010
0010
1000
1000
,
0002
0103
0010
2000
0000
3010
0100
0000
,
0010
1000
0100
0100
0010
0001
0100
0100
,
0001
1000
0010
2000
0000
3100
0010
0100
,
1000
0010
0100
0100
0010
1000
0001
0001
,
0010
0001
1000
0010
0000
0100
0000
0000
,
1001
1000
0001
0010
0100
1000
0001
0100
,
0010
1000
1100
0000
0010
0001
0101
0000
,
0001
0010
0100
1000
0010
0100
0001
1000
,
0010
0100
0001
1000
0000
0001
0100
0010
,
1000
0001
0010
0100
1000
0010
0100
0001
,
0010
0100
1001
0000
1000
0010
0110
0000
,
0010
1000
0100
0010
0001
0100
0010
0100
,
0001
0010
0100
1000
0000
0010
0100
0010
,
1010
1000
0001
1000
0100
1000
0010
0100
,
0001
0010
0100
0010
0001
1000
0100
0010
,
0100
1000
0001
1000
0010
1000
0001
1000
,
0010
0100
0001
0100
1000
0100
0010
1000
,
0001
0100
0001
0010
0001
0100
0010
1000
,
0100
1000
0010
1000
0100
0010
0100
1000
,
0001
0010
0100
0010
0001
1000
0100
0010
,
0100
1000
0100
1000
0100
1000
0001
0010
,
0001
0100
0010
1000
0001
1000
0010
1000
,
0001
0100
0001
1000
0010
1000
0001
0100
,
0010
0100
0001
1000
0010
0100
0001
1000
,
0100
0010
0100
1000
0001
0010
0100
0010
,
0001
1000
0010
0100
0010
1000
0001
0100
,
0010
0100
0001
1000
0010
0100
0001
1000
,
0010
1000
0100
1000
0010
1000
0100
0010
,
0001
1000
0001
1000
0010
0100
0001
1000
,
0010
1000
0010
1000
0001
0100
0001
0100
,
0001
0010
0100
2000
0000
3100
0010
0001
,
1000
0100
1000
0100
0010
0001
0010
0001
,
1000
0100
0010
0002
0000
0103
0010
0000
,
1000
0001
0100
0010
1000
0001
0010
0100
,
0010
0001
0100
0020
0000
1030
0001
1000
,
0100
0010
0001
0100
0010
1000
0100
0010
,
0001
0100
0010
1000
0000
0001
0000
0000
1001
0000
0000
0000
0001
0000
0000
0000
1000
0000
0000
0000
0010
0000
0000
0000
0100
0000
0000
0000
0001
0000
0000
0000
,
0010
0100
1000
0010
1010
0000
0001
1000
,
0101
0000
0001
0010
0100
1000
0010
0100
,
0010
1000
0001
0100
0010
2000
0000
3010
,
0100
0001
1000
0010
0100
0001
0010
0100
,
1000
0001
0100
0010
0101
0000
0010
0100
,
1010
0000
1000
0001
0010
0100
1000
0100
,
0010
0001
1000
0100
0010
0002
0000
0103
,
0010
0100
1001
0000
0000
0000
0000
0000
;

//---------------dance-single - ----------------
#NOTES:
     dance-single:
     :
     Hard:
     7:
     0.444937,0.422287,0.167449,0.016745,0.000000,350.000000,20.000000,2.000000,0.000000,0.000000,0.000000,0.444937,0.422287,0.167449,0.016745,0.000000,350.000000,20.000000,2.000000,0.000000,0.000000,0.000000:
0000
0000
0000
0000
,
0000
0000
0000
0000
,
0000
0000
0000
0000
,
0000
0000
0000
0000
,
1001
0000
1000
0000
0001
0000
0010
0001
,
0000
0010
0000
1000
0000
0010
0001
0010
,
0001
0000
0100
0000
0010
0000
1000
0100
,
0000
0001
0000
0100
0000
1000
0010
1000
,
0010
0000
0100
0000
0001
0000
0010
0100
,
0000
0010
0000
0001
0000
1000
0010
0100
,
0001
0000
1000
0000
0100
0000
0010
0001
,
0000
1000
0000
0001
0000
0100
0010
1000
,
2002
0000
0000
0000
3003
0000
0010
1000
,
0000
0001
0000
0010
0000
0001
0100
0010
,
1000
0010
0100
0000
0001
0010
0100
0010
,
0001
1000
0100
0010
0000
0100
1000
0100
,
1000
0000
0010
0000
0100
0000
0001
1000
,
0000
0010
0000
0100
0000
0010
1000
0010
,
1000
0100
0010
0001
1000
0100
0010
0001
,
1000
0001
0100
0010
0000
1000
0001
1000
,
0010
0100
0010
0100
0001
1000
0001
1000
,
0001
0100
0001
0100
0000
0000
0010
0000
,
1000
0100
1000
0100
0010
0001
0010
0001
,
1000
0001
1000
0001
0000
0000
0100
0000
,
0010
0100
0010
0100
0010
1000
0010
1000
,
0001
1000
0001
1000
0000
0001
0100
0001
,
0100
0010
0100
0010
1000
0001
1000
0001
,
0010
0001
0100
0010
0000
0100
0000
0000
,
1001
0000
0101
0000
0001
0100
0010
1000
,
0000
0010
0100
0000
0010
1000
0100
0000
,
1001
0000
1100
0000
1000
0010
0100
0001
,
0000
0010
0100
1000
0000
0100
0010
0001
,
1001
0000
0011
0000
0001
0100
0010
1000
,
0000
0010
0100
0000
0001
0100
0010
0000
,
1001
0000
1010
0000
1000
0100
0010
0001
,
0000
1000
0100
0010
0000
0001
0010
0100
,
1000
0000
0001
0000
0100
0000
0010
1000
,
0000
0010
0000
0001
0000
0010
0100
1000
,
0001
0000
0100
0000
0010
0000
0100
0001
,
0000
1000
0000
0100
0000
0010
0100
1000
,
0001
0000
0010
0000
0100
0000
1000
0010
,
0000
0001
0000
0010
0000
1000
0010
0100
,
0001
0000
0100
0000
0010
0000
1000
0001
,
0000
0010
0000
0100
0000
0010
0001
1000
,
0010
0000
0100
0000
0010
0000
1000
0001
,
0000
0010
0000
0100
0000
1000
0100
0010
,
0001
0000
0010
0000
0001
0000
1000
0010
,
0000
0100
0000
0001
0000
0100
0010
1000
,
0001
0000
0100
0000
0010
0000
0100
0001
,
0000
1000
0000
0010
0000
1000
0010
1000
,
0100
0000
0010
0000
0100
0000
1000
0001
,
0000
0100
0000
0010
0000
1000
0010
0100
,
0001
0010
0100
1000
,
0001
0010
0001
0100
0000
0000
0010
0000
,
1000
0100
1000
0000
0001
0010
0001
0000
,
1000
0010
0100
0001
0000
0000
1001
0000
,
0010
1000
0100
0010
,
0001
1000
0010
0100
0000
0010
1000
0000
,
0001
0010
0001
0000
1000
0100
1000
0000
,
0000
0000
1001
0000
0011
0000
0001
0100
,
0010
1000
0000
0001
0010
0000
0100
1000
,
0001
0000
1010
0000
1001
0000
1000
0010
,
0100
0001
0000
0100
0010
1000
0000
0001
,
0010
0100
1001
0000
1100
0000
1000
0010
,
1000
0100
0000
0010
0001
0000
0100
0001
,
1000
0000
1001
0000
0101
0000
0001
0100
,
0010
1000
0000
0001
0010
0001
0000
1000
,
0100
0010
1001
0000
0000
0000
0000
0000
;

//---------------dance-single - ----------------
#NOTES:
     dance-single:
     :
     Medium:
     6:
     0.333703,0.309677,0.184194,0.117215,0.000000,243.000000,22.000000,14.000000,0.000000,0.000000,0.000000,0.333703,0.309677,0.184194,0.117215,0.000000,243.000000,22.000000,14.000000,0.000000,0.000000,0.000000:
0000
0000
0000
0000
,
0000
0000
0000
0000
,
0000
0000
0000
0000
,
0000
0000
0000
0000
,
1001
0000
0010
0000
0100
0000
0001
0001
,
0000
0010
0000
0001
0000
1000
0000
0000
,
0010
0000
0100
0000
0010
0000
1000
1000
,
0000
0100
0000
0010
0000
0100
0000
0000
,
0010
0000
0001
0000
1000
0000
0010
0010
,
0000
0100
0000
0001
0000
1000
0000
0000
,
0010
0000
0100
0000
0010
0000
1000
1000
,
0000
0001
0000
0100
0000
0001
0000
0000
,
2002
0000
3003
0010
,
1000
0010
0001
0010
,
1000
0100
0010
0000
0100
0000
0010
0000
,
0001
1000
0010
0100
,
2002
0000
3003
0010
,
1000
0000
0100
0000
0010
0000
0001
1000
,
0010
0100
0010
1000
,
0001
0100
0001
0100
0000
0000
0010
0000
,
1000
0100
0010
0001
,
1000
0001
0100
1001
,
0010
1000
0100
0010
,
0001
1000
0010
0110
,
0010
1000
0100
0010
,
0001
1000
0010
0110
,
0001
0100
0010
1000
,
0001
0010
0100
1000
,
2002
0000
3003
0011
,
0100
1001
0000
0010
,
0200
0001
0010
0301
,
1000
0001
1000
0001
0000
0000
0010
0000
,
2002
0000
3003
1010
,
0100
1001
0000
0010
,
0200
1000
0010
1300
,
0001
1000
0001
1000
0000
0000
0010
0000
,
1000
0000
0100
0000
0010
0000
0001
0001
,
0000
0010
0000
0100
0000
1000
0000
0000
,
0001
0000
0010
0000
0100
0000
1000
1000
,
0000
0100
0000
0010
0000
0001
0000
0000
,
1000
0000
0010
0000
0100
0000
0001
0001
,
0000
0100
0000
0010
0000
1000
0000
0000
,
0010
0000
0100
0000
0001
0000
1000
0001
,
0000
0100
0000
0010
0000
1000
0000
0000
,
0001
0000
0010
0000
0100
0000
0010
0001
,
0000
0010
0000
0001
0000
0010
0000
0000
,
0100
0000
1000
0000
0100
0000
0010
0100
,
0000
1000
0000
0100
0000
0010
0000
0000
,
0001
0000
1000
0000
0010
0000
0100
0001
,
0000
0100
0000
0010
0000
0100
0000
0000
,
0010
0000
1000
0000
0001
0000
1000
0010
,
0000
1000
0000
0100
0000
0010
0000
0000
,
1001
0001
1000
1000
,
0010
0100
0001
1000
,
0100
0010
0100
0010
,
0001
1000
0001
1000
,
0010
0100
0001
0010
,
0100
1000
0010
0100
,
0001
1000
0100
0010
,
0000
2002
0000
3003
,
0110
0100
1001
0000
,
0010
0100
0001
1000
,
1001
0000
0010
0100
0010
0100
0000
0000
,
0001
2002
0000
3003
,
0110
0100
1001
0000
,
0010
0100
1000
0001
,
1001
0000
0010
0100
0010
0100
0000
0000
,
0000
1001
0000
0000
;

//---------------dance-single - ----------------
#NOTES:
     dance-single:
     :
     Easy:
     4:
     0.265527,0.253372,0.100470,0.167449,0.000000,190.000000,12.000000,20.000000,0.000000,0.000000,0.000000,0.265527,0.253372,0.100470,0.167449,0.000000,190.000000,12.000000,20.000000,0.000000,0.000000,0.000000:
0000
0000
0000
0000
,
0000
0000
0000
0000
,
0000
0000
0000
0000
,
0000
0000
0000
0000
,
0010
1000
0100
0000
,
0010
0001
0010
0000
,
0001
1000
0010
0000
,
0100
0001
0010
0000
,
0001
1000
0100
0000
,
0010
0100
0010
0000
,
0100
1000
0001
0000
,
1000
0010
1000
0000
,
2002
0000
3003
0000
,
0010
0100
1000
0000
,
0100
0010
0001
0000
,
1000
0010
0100
0001
,
2002
0000
3003
0000
,
0010
1000
0100
0000
,
0010
0001
1000
0000
,
0001
0100
0010
0000
,
1001
0010
0100
0000
,
0001
0010
0100
0000
,
1000
1000
0001
0001
,
0100
0100
0010
0000
,
1000
0010
0100
0000
,
0010
0100
0001
0000
,
0010
0010
0100
0100
,
1000
1000
0001
0000
,
2002
0000
3003
0010
,
0001
0100
1000
0100
,
2002
0000
3003
0010
,
1000
0100
0001
0100
,
2002
0000
3003
0100
,
0001
0010
1000
0010
,
2002
0000
3003
0100
,
1000
0010
0001
0010
,
0100
1000
0001
0010
,
0001
0001
0001
0000
,
0001
0100
0010
1000
,
0100
0100
0100
0000
,
0010
0001
0100
0010
,
1000
1000
1000
0000
,
0100
1000
0010
0100
,
0010
0010
0010
0000
,
1000
0010
0001
0010
,
0100
0100
0100
0000
,
0001
0100
1000
0100
,
0010
0010
0010
0000
,
1000
0001
1000
0010
,
0100
0010
0100
0000
,
0001
0010
0100
1000
,
0001
0001
0001
0000
,
0100
0000
0010
0000
,
1000
0000
0001
0000
,
0010
0000
0100
0000
,
1000
0000
0100
0000
,
0010
0000
0001
0000
,
0100
0000
0010
0000
,
1000
0000
0001
0000
,
0000
2002
0000
3003
,
1000
0010
0100
0001
,
0010
2002
0000
3003
,
0001
0010
0100
1000
,
0010
2002
0000
3003
,
1000
0100
0001
0010
,
1000
2002
0000
3003
,
0001
0010
1000
0100
,
0001
1001
0000
0000
;

//---------------dance-single - ----------------
#NOTES:
     dance-single:
     :
     Beginner:
     2:
     0.180606,0.168915,0.100470,0.133960,0.000000,123.000000,12.000000,16.000000,0.000000,0.000000,0.000000,0.180606,0.168915,0.100470,0.133960,0.000000,123.000000,12.000000,16.000000,0.000000,0.000000,0.000000:
0000
0000
0000
0000
,
0000
0000
0000
0000
,
0000
0000
0000
0000
,
0000
0000
0000
0000
,
0010
0000
0000
0000
,
0100
0000
0000
0000
,
0001
0000
0000
0000
,
1000
0000
0000
0000
,
0100
0000
0000
0000
,
0010
0000
0000
0000
,
0001
0000
0000
0000
,
1000
0000
0000
0000
,
1001
0000
0000
0000
,
0010
0000
0000
0000
,
1000
0000
1000
0000
,
0001
0000
0001
0000
,
0100
0000
0000
0000
,
0010
0000
0000
0000
,
0100
0000
0100
0000
,
0010
0000
0010
0000
,
1001
0000
0010
0000
,
1000
0000
0010
0000
,
0100
0000
0001
0000
,
0010
0000
0100
0000
,
0010
0000
0001
0000
,
1000
0000
0010
0000
,
0100
0000
0010
0000
,
1000
0000
0001
0000
,
2002
0000
3003
0000
,
0100
0100
0000
0000
,
2002
0000
3003
0000
,
0100
0100
0000
0000
,
2002
0000
3003
0000
,
0100
0100
0000
0000
,
2002
0000
3003
0000
,
0100
0100
0000
0000
,
0010
0010
0010
0000
,
1000
1000
1000
0000
,
0001
0001
0001
0000
,
0100
0100
0100
0000
,
0010
0010
0010
0000
,
1000
1000
1000
0000
,
0010
0010
0010
0000
,
0100
0100
0100
0000
,
0001
0001
0001
0000
,
0010
0010
0010
0000
,
0100
0100
0100
0000
,
1000
1000
1000
0000
,
0010
0010
0010
0000
,
0100
0100
0100
0000
,
0001
0001
0001
0000
,
1000
1000
1000
0000
,
1001
0000
0010
0000
,
0001
0000
0001
0000
,
0100
0000
0100
0000
,
0010
0000
1000
0000
,
0010
0000
1000
0000
,
0100
0000
0010
0000
,
0001
0000
1000
0000
,
0000
2002
0000
3003
,
0000
0100
0100
0000
,
0000
2002
0000
3003
,
0000
0100
0100
0000
,
0000
2002
0000
3003
,
0000
0100
0100
0000
,
0000
2002
0000
3003
,
0000
0100
0100
0000
,
0000
1001
0000
0000
;
