#TITLE:Airbrushed;
#SUBTITLE:(RAC Remix);
#ARTIST:Anamanaguchi;
#TITLETRANSLIT:;
#SUBTITLETRANSLIT:;
#ARTISTTRANSLIT:;
#GENRE:Airbrushed;
#CREDIT:;
#BANNER:Airbrushed (RAC Remix)-bn.png;
#BACKGROUND:Airbrushed (RAC Remix)-bg.png;
#LYRICSPATH:;
#CDTITLE:;
#MUSIC:Airbrushed (RAC Remix).mp3;
#OFFSET:-0.022000;
#SAMPLESTART:75.445473;
#SAMPLELENGTH:13.714287;
#LASTBEATHINT:322.987183;
#SELECTABLE:YES;
#BPMS:0.000000=140.000000
;
#STOPS:
;
#BGCHANGES:;
#KEYSOUNDS:;
#ATTACKS:;

//---------------dance-single - ----------------
#NOTES:
     dance-single:
     :
     Hard:
     8:
     0.487043,0.509273,0.304149,0.247563,0.031830,482.000000,439.000000,43.000000,35.000000,0.000000,0.000000,0.487043,0.509273,0.304149,0.247563,0.031830,482.000000,439.000000,43.000000,35.000000,0.000000,0.000000:
// measure 0
0000
0000
0000
0000
,  // measure 1
0000
0000
0000
0000
,  // measure 2
0000
0000
0000
0000
,  // measure 3
0000
0000
0000
0000
,  // measure 4
0010
0000
0000
1000
0000
0000
0001
0000
0010
0000
0000
0000
0100
0000
0000
0000
,  // measure 5
0010
0000
0000
0010
0000
0000
0010
0000
0001
0000
0000
0100
0000
0000
0100
0000
,  // measure 6
0010
1000
0001
0010
0000
1000
0001
0010
,  // measure 7
0000
1000
0001
0010
1000
0001
0100
0010
,  // measure 8
1000
1020
1030
1010
,  // measure 9
0001
0000
0010
0100
0000
0100
0010
0000
,  // measure 10
0001
0021
0031
0011
,  // measure 11
1000
0000
0010
0100
0000
0100
0010
0000
,  // measure 12
1000
0001
0100
0010
1000
0001
0100
0010
,  // measure 13
1000
0001
1000
0100
0000
0100
0010
0000
,  // measure 14
0001
1000
0100
0010
0001
1000
0100
0010
,  // measure 15
0001
1000
0001
0100
0000
0100
0010
0000
,  // measure 16
0000
1000
0100
0001
0000
1000
0100
0001
,  // measure 17
0000
1000
0100
0010
0000
1000
0100
0001
,  // measure 18
0000
0001
0100
0010
0000
0001
0100
1000
,  // measure 19
0000
0001
0100
0010
0000
0001
0100
1000
,  // measure 20
0000
0001
0010
1000
0000
0001
1000
0100
,  // measure 21
0000
0001
1000
0010
0000
0001
1000
0001
,  // measure 22
0000
0100
0001
0010
0000
0001
1000
0100
,  // measure 23
0000
1000
0001
0010
0000
0001
1000
0000
,  // measure 24
1001
1010
0101
1010
,  // measure 25
1001
1100
0011
1100
,  // measure 26
0110
0101
1100
0101
,  // measure 27
0110
1010
0011
1100
,  // measure 28
0102
0000
0100
0000
1003
0001
0100
0010
,  // measure 29
2000
0000
0001
0000
3100
0000
0010
0100
,  // measure 30
0001
0000
0010
0000
0100
1000
0001
0100
,  // measure 31
0020
0000
0001
0000
0100
0000
1030
0001
,  // measure 32
1000
0000
1100
0000
0010
0100
0001
0001
,  // measure 33
0010
0001
1000
1000
0100
1000
0100
0010
,  // measure 34
0000
0001
1000
0100
0000
0001
1000
0100
,  // measure 35
0000
0001
1000
0001
0010
0100
1000
0001
,  // measure 36
0100
0000
1001
0000
0100
0000
0001
1000
,  // measure 37
0001
0000
0101
0000
1000
0000
0001
1000
,  // measure 38
0100
0000
0011
0000
1000
0010
0000
1001
,  // measure 39
0000
0010
1000
0000
1010
1000
0001
0000
,  // measure 40
0200
0000
0001
0301
0020
0000
0100
0130
,  // measure 41
2000
0000
0001
3001
0200
0000
0310
0020
,  // measure 42
0000
0000
1000
1030
0200
0000
0010
0310
,  // measure 43
0000
0001
0100
1000
0001
0010
1000
0001
,  // measure 44
0200
0010
0300
2000
0010
3000
0200
0001
,  // measure 45
0300
0020
0100
0030
2000
0001
3000
1100
,  // measure 46
0000
0011
0000
2002
0000
3003
0100
0000
,  // measure 47
0010
0001
0100
0020
0000
0000
1030
0000
,  // measure 48
0002
0100
0003
0200
0010
0300
0020
1000
,  // measure 49
0030
2000
0001
3000
0002
0010
0003
1100
,  // measure 50
0000
1010
0000
0202
0000
0303
1000
0000
,  // measure 51
0010
1000
0100
0020
0000
0000
0031
0000
,  // measure 52
2000
0001
3000
0200
0001
0300
0020
0001
,  // measure 53
0030
2000
0001
3000
0002
0100
0003
1001
,  // measure 54
0000
1100
0000
0202
0000
0303
1001
0000
,  // measure 55
0010
1000
0001
0200
0000
0000
0310
0000
,  // measure 56
1000
0010
1000
0010
0001
0010
0001
0010
,  // measure 57
1000
0100
1000
0100
0001
0100
0001
0100
,  // measure 58
1000
0001
1000
0001
0100
0010
0100
0010
,  // measure 59
1000
0001
1000
0001
0100
0010
0100
0010
,  // measure 60
1000
0010
0100
0000
0001
0010
0100
0000
,  // measure 61
1000
0001
0100
0000
0010
1000
0001
0000
,  // measure 62
0010
0001
1000
0000
0100
1000
0001
0100
,  // measure 63
0000
0100
0010
0000
1000
0010
1000
0000
,  // measure 64
0001
0010
0100
1000
0001
0010
0100
1000
,  // measure 65
0001
0100
0001
0010
0000
0100
1000
0100
,  // measure 66
0000
0000
0010
0000
0001
1000
0000
1010
,  // measure 67
0000
0001
0100
0000
0101
0000
1001
0000
,  // measure 68
0010
0010
0010
0010
1000
1000
1000
1000
,  // measure 69
0001
0001
0001
0001
0010
0010
0010
0100
,  // measure 70
0100
1000
1000
1000
0001
0100
0000
0010
,  // measure 71
0000
1000
0001
0000
0110
0000
0101
0000
,  // measure 72
1001
0100
0001
1000
0000
0100
0001
1000
,  // measure 73
0000
0100
0001
1000
0000
0100
0001
1000
,  // measure 74
0000
0100
0001
1000
0000
0100
0001
1000
,  // measure 75
0000
0100
0001
1000
0010
0100
0001
1000
,  // measure 76
0100
0000
0000
0010
0000
0000
0100
0000
1000
0000
0000
0000
0001
0000
0000
0000
,  // measure 77
0010
0000
0000
0001
0000
0000
1000
0000
0100
0000
0000
1000
0000
0000
0001
0000
,  // measure 78
0100
0000
0000
0001
0000
0000
1000
0000
0100
0000
0000
0000
0010
0000
0000
0000
,  // measure 79
0001
0000
0000
0001
0000
0000
0001
0000
0100
0000
0000
0100
0000
0000
0010
0000
,  // measure 80
1000
0000
0000
0000
;

//---------------dance-single - ----------------
#NOTES:
     dance-single:
     :
     Medium:
     6:
     0.287982,0.367808,0.070732,0.304149,0.000000,285.000000,275.000000,10.000000,43.000000,0.000000,0.000000,0.287982,0.367808,0.070732,0.304149,0.000000,285.000000,275.000000,10.000000,43.000000,0.000000,0.000000:
0000
0000
0000
0000
,
0000
0000
0000
0000
,
0000
0000
0000
0000
,
0000
0000
0000
0000
,
0010
0100
0001
0000
,
0010
0100
1000
0001
,
0100
0010
0100
0000
,
0001
0010
0100
1000
,
0001
0000
0010
0000
,
0100
1000
0001
0100
,
0010
0000
1000
0000
,
0001
0010
0100
1000
,
0010
0100
0000
0100
,
0010
1000
0100
0010
,
0100
1000
0000
1000
,
0001
0010
0100
1001
,
0000
0001
0000
0001
0000
0010
0000
0010
,
0000
0100
0000
0100
0000
1000
0000
1000
,
0000
0001
0000
0010
0000
0100
0000
1000
,
0000
0001
0000
0010
0000
0100
0000
1000
,
0000
0010
0000
1000
0000
0010
0000
0001
,
0000
0100
0000
1000
0000
0100
0000
0001
,
0000
0010
0000
1000
0000
0100
0000
0001
,
0000
0010
0000
0100
0000
0010
0100
0000
,
1000
1000
0001
0001
,
0100
0100
0010
0010
,
1000
0000
1000
0000
0001
0000
0001
0100
,
0010
0010
1000
1000
,
2002
0000
3003
0000
0000
0001
0010
0100
,
1000
0000
1000
0000
0001
0000
0001
0100
,
0000
0001
0010
0100
,
1000
0000
0001
0000
1000
0000
1000
0010
,
0000
0000
0100
0000
0010
0000
1000
0001
,
0000
0000
0010
0000
0100
0000
1000
0001
,
0000
1100
0000
1100
0000
1001
0000
1001
,
0000
0100
0000
0010
0000
0100
0000
0010
,
1000
0000
0100
0000
0010
0000
0001
0100
,
0000
0000
0001
0000
1000
0000
0001
0010
,
0000
0100
1000
0001
,
0100
0010
0100
0000
1001
0000
0100
0000
,
2000
3000
0020
0030
,
0200
0300
0002
0003
,
2000
3000
0020
0030
,
0100
0001
1000
0100
,
1000
2000
3000
0001
0002
0003
0100
0200
,
0300
0010
0020
0030
1000
2000
3000
0001
,
0000
0100
0000
0002
0000
0000
1003
0000
,
0001
0000
0010
0001
0020
0000
0130
0000
,
1000
2000
3000
0001
0002
0003
0010
0020
,
0030
0100
0200
0300
1000
2000
3000
0001
,
0000
0010
0000
0002
0000
0000
1003
0000
,
0001
0000
1000
1000
0200
0000
0310
0000
,
0001
0002
0003
1000
2000
3000
0100
0200
,
0300
0010
0020
0030
0001
0002
0003
1000
,
0000
0100
0000
2000
0000
0000
3001
0000
,
1000
0000
0010
1000
0020
0000
0130
0000
,
0001
0001
1000
1000
,
0100
0000
0100
0000
0010
0000
0010
0100
,
0000
0000
1000
0000
0001
0000
0001
0100
,
0000
0000
0001
1000
0000
0001
1000
0000
,
0200
0000
0000
0300
,
0020
0000
0030
0001
,
0200
0000
0000
0000
0300
0000
0001
1000
,
0000
0002
0000
0000
0000
0000
0003
0000
,
0010
0100
1000
0001
,
0100
0001
0100
0000
0010
0000
1000
0000
,
0100
0000
0100
0000
1000
0001
0000
1000
,
0000
0001
0100
0000
0010
0000
0100
0000
,
0001
0001
1000
1000
,
0010
0000
0010
0000
0100
0000
0100
0001
,
0000
0001
1000
0000
0010
0000
0010
0000
,
0100
0100
1001
0110
,
2002
0000
0000
0000
,
0000
0000
0000
0000
,
3003
0000
0000
0000
,
0020
0000
2030
0000
,
3200
0000
0000
0000
,
0320
0000
0032
0000
,
0203
0000
0000
0000
,
0320
0000
2030
0000
,
3100
0000
0000
0000
;

//---------------dance-single - ----------------
#NOTES:
     dance-single:
     :
     Easy:
     4:
     0.232406,0.282929,0.014146,0.141465,0.000000,230.000000,228.000000,2.000000,20.000000,0.000000,0.000000,0.232406,0.282929,0.014146,0.141465,0.000000,230.000000,228.000000,2.000000,20.000000,0.000000,0.000000:
0000
0000
0000
0000
,
0000
0000
0000
0000
,
0000
0000
0000
0000
,
0000
0000
0000
0000
,
0001
0000
0010
0000
,
1000
0000
0010
0000
,
0001
0000
0010
0000
,
1000
0000
0010
0000
,
0001
0100
0001
0000
,
0010
0100
0010
0000
,
0100
1000
0100
0000
,
1000
0001
1000
0000
,
0010
0100
0010
0000
,
1000
0010
1000
0000
,
0001
0100
0001
0000
,
0010
0001
0010
1001
,
0000
1000
0010
0001
,
0000
1000
0100
0001
,
0000
1000
0010
0100
,
0000
1000
0010
0001
,
0000
0001
0010
1000
,
0000
0001
0100
1000
,
0000
0100
0010
0001
,
0000
1000
0010
0001
,
0100
0100
0010
0010
,
1000
1000
0001
0001
,
0010
0010
0100
0100
,
1000
1000
0001
0001
,
0100
0000
0010
1000
,
0100
0100
0010
0000
,
0001
0000
1000
0000
,
0010
0100
0001
1000
,
0100
0000
0010
0000
,
0001
1000
0010
0100
,
0001
0010
0010
0100
,
0100
1000
1000
0001
,
0001
0100
1000
0000
,
1000
0100
0001
0000
,
0010
0100
1000
0000
,
0001
0010
0100
1000
,
0002
0000
2003
0000
,
3020
0000
0230
0000
,
0302
0000
2003
0000
,
3100
0010
0001
1000
,
0010
0010
0100
0100
,
0001
0001
0010
0100
,
1000
0010
0100
0001
,
0010
0100
1000
0000
,
0001
0001
1000
1000
,
0010
0010
0100
0001
,
0010
0100
1000
0010
,
0100
0001
0010
0000
,
0100
0100
1000
1000
,
0001
0001
1000
0010
,
0100
0001
0010
0100
,
1000
0010
0100
0000
,
0001
0010
0001
0010
,
1000
0010
1000
0010
,
0001
0010
0001
0010
,
0100
1000
0100
1000
,
0200
0000
0000
0000
,
0320
0000
0000
0031
,
2000
0000
0000
3010
,
0100
0002
0000
0000
,
0013
0100
0010
0100
,
1000
0001
1000
0001
,
0200
0000
0320
0000
,
1030
0100
0010
0010
,
0001
0001
1000
1000
,
0001
0001
0100
0100
,
0010
0010
1000
0100
,
0010
0001
0100
0010
,
2002
0000
0000
0000
,
0000
0000
3003
0000
,
0000
0000
0000
0000
,
0000
0000
0000
0000
,
0020
0000
0000
0000
,
2030
0000
3002
0000
,
0203
0000
0000
0000
,
0302
0000
2003
0000
,
3100
0000
0000
0000
;

//---------------dance-single - ----------------
#NOTES:
     dance-single:
     :
     Beginner:
     2:
     0.181883,0.282929,0.056586,0.042439,0.000000,180.000000,172.000000,8.000000,6.000000,0.000000,0.000000,0.181883,0.282929,0.056586,0.042439,0.000000,180.000000,172.000000,8.000000,6.000000,0.000000,0.000000:
0000
0000
0000
0000
,
0000
0000
0000
0000
,
0000
0000
0000
0000
,
0000
0000
0000
0000
,
0001
0000
0010
0000
,
1000
0000
0010
0000
,
0001
0000
0010
0000
,
1000
0000
0010
0000
,
0001
0000
0100
0000
,
0010
0000
0010
0000
,
1000
0000
0100
0000
,
0010
0000
0010
0000
,
0001
0000
1000
0000
,
0010
0000
0100
0000
,
0001
0000
0010
0000
,
0100
0000
1000
1000
,
0000
0001
0000
0100
,
0000
0010
0000
1000
,
0000
0001
0000
0010
,
0000
0100
0000
1000
,
0000
0001
0000
0100
,
0000
0010
0000
0100
,
0000
0010
0000
1000
,
0000
0100
0000
0010
,
0010
0010
0010
0010
,
0010
0010
0010
0000
,
0100
0100
0100
0100
,
0100
0100
0100
0000
,
1000
0000
0001
0000
,
0100
0100
0100
0000
,
0010
0000
1000
0000
,
0001
0001
0001
0000
,
0010
0000
0100
0000
,
1000
1000
1000
0000
,
0000
1001
0000
0110
,
0000
1001
0000
0110
,
0110
0000
0001
0000
,
0010
0000
0100
0000
,
1000
0000
0001
0000
,
0100
0000
0010
0000
,
2000
3000
2000
3000
,
0002
0003
0002
0003
,
0100
0000
0010
0000
,
0100
0100
0100
0000
,
1001
0000
0100
0000
,
1000
1000
1000
0000
,
0100
0100
0000
0001
,
0001
0000
0010
0000
,
0100
0000
1000
1000
,
0000
0001
0001
0000
,
0100
0000
0010
0000
,
1000
1000
1000
0000
,
1001
0000
0100
0000
,
1000
1000
1000
0000
,
0100
0100
0000
0001
,
0001
0000
0010
0000
,
0100
0100
0100
0100
,
0100
0100
0100
0100
,
0100
0100
0100
0100
,
0100
0100
0100
0100
,
0100
0000
0000
0000
,
1000
0000
0000
0010
,
0010
0000
0000
0100
,
0100
0000
0000
0000
,
0001
0000
0010
0000
,
0100
0000
1000
0000
,
0001
0000
0010
0000
,
0100
0000
1000
0000
,
0001
0001
0001
0001
,
0001
0001
0001
0000
,
1000
1000
1000
1000
,
1000
1000
1000
0000
,
2002
0000
0000
0000
,
0000
0000
3003
0000
,
0000
0000
0000
0000
,
0000
0000
0010
0000
,
0000
0000
0010
0000
,
0000
0000
0010
0000
,
0000
0000
0010
0000
,
0000
0000
0010
0000
,
0100
0000
0000
0000
;
