#VERSION:0.83;
#TITLE:Ace of Hz;
#SUBTITLE:(Tiesto Mix);
#ARTIST:Ladytron;
#TITLETRANSLIT:;
#SUBTITLETRANSLIT:(Tiesto Mix);
#ARTISTTRANSLIT:;
#GENRE:Gravity the Seducer;
#ORIGIN:;
#CREDIT:;
#BANNER:Ace of Hz (Tiësto Mix)-bn.png;
#BACKGROUND:Ace of Hz (Tiësto Mix)-bg.png;
#PREVIEWVID:;
#JACKET:Ace of Hz (Tiësto Mix)-jacket.png;
#CDIMAGE:;
#DISCIMAGE:;
#LYRICSPATH:;
#CDTITLE:;
#MUSIC:Ace of Hz (Tiësto Mix).mp3;
#OFFSET:-0.034000;
#SAMPLESTART:43.646370;
#SAMPLELENGTH:13.636360;
#SELECTABLE:YES;
#BPMS:0.000=132.000;
#STOPS:;
#DELAYS:;
#WARPS:;
#TIMESIGNATURES:0.000=4=4;
#TICKCOUNTS:0.000=4;
#COMBOS:0.000=1;
#SPEEDS:0.000=1.000=0.000=0;
#SCROLLS:0.000=1.000;
#FAKES:;
#LABELS:0.000=Song Start;
#LASTSECONDHINT:116.377701;
#BGCHANGES:;
#KEYSOUNDS:;
#ATTACKS:
;

//---------------dance-single - ----------------
#NOTEDATA:;
#CHARTNAME:;
#STEPSTYPE:dance-single;
#DESCRIPTION:;
#CHARTSTYLE:;
#DIFFICULTY:Hard;
#METER:9;
#RADARVALUES:0.630313,0.768525,0.144324,0.075598,0.371119,642.000000,621.000000,21.000000,11.000000,0.000000,0.000000,0.000000,0.000000,0.000000,0.630313,0.768525,0.144324,0.075598,0.371119,642.000000,621.000000,21.000000,11.000000,0.000000,0.000000,0.000000,0.000000,0.000000;
#CREDIT:;
#NOTES:
// measure 0
0000
0000
0000
0000
,  // measure 1
0000
0000
0000
0000
,  // measure 2
0000
0000
0000
0000
,  // measure 3
0000
0000
0000
0000
,  // measure 4
0000
0000
0001
1000
0000
0000
1000
0010
0000
0000
0010
1000
0000
0000
1000
0100
,  // measure 5
0000
0000
0100
0010
0000
0000
0010
0001
0000
0000
0001
1000
0000
0000
1000
0001
,  // measure 6
0000
0000
0100
0001
0000
0000
0001
1000
0000
0000
1000
0100
0000
0000
0100
0010
,  // measure 7
0000
0000
0010
0001
0000
0000
0001
1000
0000
0000
1000
0001
0000
0000
0001
0010
,  // measure 8
0001
0100
1000
0100
0001
0010
0100
1000
,  // measure 9
0010
1000
0100
0000
0010
0001
0100
0000
,  // measure 10
0010
1000
0001
0010
0100
1000
0100
1100
,  // measure 11
0000
0000
1000
0100
0000
0000
0100
0010
0000
0000
0010
0001
0000
0000
0001
1000
,  // measure 12
0100
0010
0001
0100
0010
1000
0100
0001
,  // measure 13
0100
1000
0010
0000
0100
0001
0010
0100
,  // measure 14
1000
0010
0100
0010
0100
0001
1000
0101
,  // measure 15
0000
0000
0001
0100
0000
0000
0100
0010
0000
0000
0010
1000
0000
0000
1000
0001
,  // measure 16
1000
0010
0001
0010
1000
0100
0010
0001
,  // measure 17
0100
0010
0100
0000
0001
1000
0100
0000
,  // measure 18
0010
0001
0100
1000
0100
0001
0010
0110
,  // measure 19
0000
0000
0100
1000
0000
0000
1000
0001
0000
0000
0001
0100
0000
0000
0100
0010
,  // measure 20
0100
0001
0010
1000
0010
0001
0010
0100
,  // measure 21
1000
0010
0001
0000
0001
0010
1000
0000
,  // measure 22
0001
0100
0010
1000
0100
0010
0100
1100
,  // measure 23
1000
0001
1000
0001
1000
0001
1000
0001
1000
0001
1000
0001
1000
0001
1000
0001
,  // measure 24
1000
0000
0010
1000
0010
0000
0100
0000
0001
0000
0100
0010
0100
0000
0001
0000
,  // measure 25
0010
0000
0100
1000
0100
0000
0010
0000
0001
0000
0100
0001
0100
0000
0010
0000
,  // measure 26
1000
0000
0001
1000
0001
0000
0010
0000
0100
0000
1000
0001
1000
0000
0110
0000
,  // measure 27
0000
0000
1000
0010
0000
0000
0010
0001
0000
0000
0001
0010
0000
0000
0010
1000
,  // measure 28
0010
0000
0100
0001
0100
0000
0010
0000
1000
0000
0100
1000
0100
0000
0010
0000
,  // measure 29
0001
0000
0010
0001
0010
0000
0001
0000
0010
0000
0100
1000
0100
0000
1000
0000
,  // measure 30
0010
0000
1000
0010
1000
0000
0001
0000
0100
0000
0010
0100
0010
0000
1001
0000
,  // measure 31
0000
0000
1000
0100
0000
0000
0001
0100
0001
0000
0100
0000
1000
0000
0100
0000
,  // measure 32
0002
0010
0003
0010
2000
0010
3000
0010
,  // measure 33
0002
0100
0003
0100
2000
0100
3000
0100
,  // measure 34
0001
0010
1000
0010
0001
0100
1000
0100
,  // measure 35
0001
0010
1000
0010
0000
0100
0100
0000
,  // measure 36
0101
0000
1100
0000
0100
1000
0010
0200
,  // measure 37
0000
1300
0100
0001
0000
0001
0100
0010
,  // measure 38
1000
0000
0100
0000
0010
0000
0001
0000
1000
0000
0010
0100
0010
0000
1010
0000
,  // measure 39
0000
1000
0100
1000
0000
1000
0001
1000
,  // measure 40
1100
0000
0101
0000
0100
0001
0010
0200
,  // measure 41
0000
0301
0100
1000
0000
1000
0100
0010
,  // measure 42
0001
0000
0100
0000
0010
0000
1000
0000
0001
0000
0010
0100
0010
0000
0011
0000
,  // measure 43
0000
0001
0100
0001
0000
0001
1000
0001
,  // measure 44
0010
0000
0100
0000
1000
0000
0100
1000
0100
0000
0010
0000
0001
0000
0010
0001
,  // measure 45
0010
0000
0001
0000
0100
0000
0010
1000
0010
0000
0100
0000
0001
0000
0100
0001
,  // measure 46
0100
0000
0010
0000
1000
0000
0100
0000
0010
0000
0001
1000
0001
0000
0101
0000
,  // measure 47
0000
0001
0100
0001
0000
0001
1000
0001
,  // measure 48
0110
0000
1001
0000
0100
0001
1000
0200
,  // measure 49
0000
0310
0100
1000
0000
1000
0010
0100
,  // measure 50
0001
0000
0010
0000
0100
0000
1000
0000
0001
0000
0010
0100
1000
0000
1100
0000
,  // measure 51
0000
0010
1000
0001
0000
0010
1000
0001
,  // measure 52
1000
0000
0100
0010
0001
0000
0100
0000
0010
0000
1000
0001
0100
0000
0010
0000
,  // measure 53
1000
0000
0001
1000
0100
0000
1000
0000
0100
0000
0100
0010
0001
0000
1000
0000
,  // measure 54
0010
0000
0100
0001
1000
0000
0100
0000
1000
0000
0010
1000
0010
0000
1010
0000
,  // measure 55
0000
0000
1000
0010
0000
0000
0100
0010
0000
0000
0001
0010
0000
0000
1000
0010
,  // measure 56
1000
0000
0010
0100
0001
0000
1000
0000
0100
0000
0010
0100
1000
0000
0010
0000
,  // measure 57
1000
0000
0010
0100
0001
0000
0100
0000
0010
0000
1000
0010
1000
0000
0100
0000
,  // measure 58
1000
0000
0100
0010
0001
0000
0100
0000
0010
0000
0100
0001
1000
0000
1100
0000
,  // measure 59
0000
0000
0010
1000
0000
0000
0100
0010
0000
0000
0001
0100
0000
0000
1000
0100
,  // measure 60
0010
0000
0001
1000
0001
0000
0100
0000
0010
0000
1000
0001
0100
0000
0010
0000
,  // measure 61
1000
0000
0100
1000
0001
0000
0010
0000
0100
0000
1000
0001
0010
0000
0100
0000
,  // measure 62
1000
0000
0010
0100
0001
0000
0010
0000
0100
0000
1000
0010
0100
0000
0101
0000
,  // measure 63
0000
0000
0001
1000
0000
0000
0100
0010
0000
0000
1000
0010
0000
0000
0001
0010
,  // measure 64
0001
0000
1000
0100
0010
0000
0001
0000
0100
0000
0010
1000
0100
0000
1000
0000
,  // measure 65
0010
0000
1000
0010
0100
0000
0001
0000
0010
0000
0100
1000
0001
0000
0001
0000
,  // measure 66
0010
0000
0100
1000
0010
0000
0010
0000
1000
0000
0100
0010
0001
0000
1001
0000
,  // measure 67
0000
0000
1000
0010
0000
0000
1000
0100
1000
0000
0100
0000
0001
0000
0100
0000
,  // measure 68
2000
0010
3000
0010
0002
0010
0003
0010
,  // measure 69
2000
0100
3000
0100
0002
0100
0003
0100
,  // measure 70
1000
0010
0001
0010
1000
0100
0001
0100
,  // measure 71
1000
0010
0001
0010
0000
0100
0100
0000
,  // measure 72
1001
0000
0010
0000
0100
0000
0001
0100
0001
0000
0000
0000
1000
0000
0010
0000
,  // measure 73
0000
0000
1000
0000
0100
0000
1000
0100
1000
0000
0010
0000
0001
0000
0010
0000
,  // measure 74
0000
0000
0100
0000
0001
0000
0010
0001
0010
0000
0100
0000
1000
0000
0010
0000
,  // measure 75
0000
0000
1000
0000
0100
0000
0010
0100
0010
0000
0001
0000
1000
0000
0010
0000
,  // measure 76
0000
0000
0100
0000
0010
0000
1000
0100
1000
0000
0010
0000
0100
0000
0001
0000
,  // measure 77
0000
0000
0010
0000
0001
0000
1000
0100
1000
0000
0010
0000
0001
0000
0010
0000
,  // measure 78
0000
0000
0100
0000
0010
0000
1000
0100
1000
0000
0100
0000
0001
0000
0100
0000
,  // measure 79
0000
0000
1000
0000
0100
0000
0010
1000
0010
0000
0001
0000
0010
0000
0100
0000
;

//---------------dance-single - ----------------
#NOTEDATA:;
#CHARTNAME:;
#STEPSTYPE:dance-single;
#DESCRIPTION:;
#CHARTSTYLE:;
#DIFFICULTY:Medium;
#METER:6;
#RADARVALUES:0.259194,0.328852,0.096216,0.336756,0.000000,264.000000,250.000000,14.000000,49.000000,0.000000,0.000000,0.000000,0.000000,0.000000,0.259194,0.328852,0.096216,0.336756,0.000000,264.000000,250.000000,14.000000,49.000000,0.000000,0.000000,0.000000,0.000000,0.000000;
#CREDIT:;
#NOTES:
0000
0000
0000
0000
,
0000
0000
0000
0000
,
0000
0000
0000
0000
,
0000
0000
0000
0000
,
0000
0001
0000
0010
0000
1000
0000
0100
,
0000
0100
0000
1000
0000
0100
0000
0000
,
0000
1000
0000
0010
0000
0001
0000
1000
,
0000
0001
0000
1000
0000
0100
0000
0010
,
0001
0000
0001
0100
0001
0100
0001
0100
,
0000
0000
0000
0000
,
0020
0000
0000
0000
2030
0000
0000
3100
,
0000
1000
0000
0001
0000
1000
0000
0010
,
0100
0000
0001
0000
1000
0001
1000
0001
,
0000
0000
0000
0000
0000
1000
0100
1000
,
0020
0000
0000
0000
0230
0000
0000
0301
,
0000
1000
0000
0001
0000
1000
0000
0010
,
0100
0000
0001
0000
0010
0100
0010
0100
,
0000
0000
0000
0000
,
2000
0000
0000
0000
3020
0000
0000
0130
,
0000
0001
0000
1000
0000
0100
0000
0010
,
0001
0000
1000
0000
0010
1000
0010
1000
,
0000
0000
0000
0000
,
0200
0000
0000
0000
0320
0000
0000
0031
,
0000
1000
0000
0001
0000
0100
0000
0000
,
1001
0000
0010
0000
1000
0100
0000
2200
,
0000
0000
0000
0000
3300
0000
0000
0001
,
0020
0000
0000
0000
0230
0000
0000
1300
,
0000
1001
0000
0100
0000
1001
0000
0010
,
1000
0000
0100
0000
1000
0100
0000
0010
,
0000
0001
0020
0000
0000
0000
0000
0000
,
0230
0000
0000
0000
2300
0000
0000
3001
,
0000
0000
0000
0000
0100
0010
1000
0001
,
2000
0000
0000
0000
,
3200
0000
0000
0000
0310
0001
1000
0100
,
0020
0000
0000
0000
,
0032
0000
0000
0103
,
1001
0000
0100
0000
0001
0100
0001
0200
,
0000
0000
0300
0000
,
0020
0000
0000
0000
2030
0000
0000
3100
,
0000
0000
0000
0000
,
0010
0000
0001
0000
1000
0010
1000
0020
,
0000
0000
0000
0000
0030
0100
0001
0100
,
0002
0000
0000
0000
2003
0000
0000
3100
,
0000
0000
0000
0000
,
0010
0000
0001
0000
1000
0100
1000
0200
,
0000
0000
0300
0000
0000
0010
0001
0010
,
0002
0000
0000
0000
2003
0000
0000
3010
,
0000
0000
0000
0000
,
1000
0000
0001
0000
0100
0001
0100
0002
,
0000
0000
0000
0000
0000
1003
0100
1000
,
0200
0000
0000
0000
0320
0000
0000
0031
,
0000
0000
0000
0000
,
1001
0000
0010
0000
0001
0100
0000
0202
,
0000
0000
0000
0000
0303
0000
0000
1000
,
0020
0000
0000
0000
0230
0000
0000
0301
,
0000
1001
0000
0100
0000
1001
0000
0010
,
0001
0000
0100
0000
0001
0100
0000
0010
,
0000
1000
0020
0000
0000
0000
0000
0000
,
0230
0000
0000
0000
0302
0000
0000
1003
,
0000
0000
0000
0000
,
1001
0000
0010
0000
1000
0100
0000
2200
,
0000
0000
0000
0000
3300
0000
0000
0001
,
0020
0000
0000
0000
0230
0000
0000
1300
,
0000
1001
0000
0100
0000
1001
0000
0010
,
1000
0000
0100
0000
1000
0100
0000
0010
,
0000
0001
0020
0000
0000
0000
0000
0000
,
0230
0000
0000
0000
2300
0000
0000
3001
,
0000
0000
0000
0000
0100
0010
1000
0001
,
2000
0000
0000
0000
,
3200
0000
0000
0000
0310
0001
1000
0100
,
0020
0000
0000
0000
,
0032
0000
0000
0103
,
1001
0000
0100
0001
0100
0000
1000
0000
,
1000
0000
0100
1000
0100
0000
0001
0000
,
0001
0000
0100
0001
0100
0000
1000
0000
,
1000
0000
0100
1000
0100
0000
0001
0000
,
0001
0000
0010
1000
0001
0000
0100
0000
,
0100
0000
0010
0001
1000
0000
0100
0000
,
0100
0000
0010
1000
0100
0000
0100
0000
,
0100
0000
0010
0001
0100
0000
0100
0000
;

//---------------dance-single - ----------------
#NOTEDATA:;
#CHARTNAME:;
#STEPSTYPE:dance-single;
#DESCRIPTION:;
#CHARTSTYLE:;
#DIFFICULTY:Easy;
#METER:4;
#RADARVALUES:0.216977,0.273185,0.027490,0.020618,0.000000,221.000000,217.000000,4.000000,3.000000,0.000000,0.000000,0.000000,0.000000,0.000000,0.216977,0.273185,0.027490,0.020618,0.000000,221.000000,217.000000,4.000000,3.000000,0.000000,0.000000,0.000000,0.000000,0.000000;
#CREDIT:;
#NOTES:
0000
0000
0000
0000
,
0000
0000
0000
0000
,
0000
0000
0000
0000
,
0000
0000
0000
0000
,
1000
1000
0100
0100
,
0001
0001
0100
0100
,
1000
1000
0100
0100
,
0001
0001
0100
0100
,
0010
0100
0010
0100
,
0001
0000
0000
0000
,
0010
0100
0010
0100
,
1000
0000
0000
0000
,
0001
1000
0001
1000
,
0010
0000
0000
0000
,
0001
1000
0001
1000
,
0100
0000
0000
0000
,
1000
0100
1000
0100
,
0010
0000
0000
0000
,
0001
0100
0001
0100
,
0010
0000
0000
0000
,
1000
0010
1000
0010
,
0001
0000
0000
0000
,
0001
0010
0001
0010
,
1000
0000
0000
0000
,
0010
0010
0100
0100
,
0001
0001
0100
0100
,
1000
0100
0001
0100
,
1000
0000
0000
0000
,
0100
0100
0010
0010
,
0001
0001
1000
1000
,
0001
0010
1000
0010
,
0001
0000
1000
0001
,
2000
0000
0000
0000
,
3100
0000
0010
0000
,
0001
0000
0100
0000
,
0010
0000
1000
0000
,
1001
1000
0001
0001
,
0100
0000
0000
0000
,
0001
0001
1000
1000
,
0001
0000
0000
0000
,
1000
1000
0001
0001
,
0010
0000
0000
0000
,
0001
0001
0010
0010
,
0100
0000
0000
0000
,
1000
0010
0001
0100
,
1000
0000
0000
0000
,
0001
0010
1000
0100
,
0001
0000
0000
0000
,
1000
0100
0010
0001
,
1000
0000
0000
0000
,
0001
0100
0010
1000
,
0001
0000
0000
0000
,
1001
1000
0001
0001
,
0100
0100
0010
0010
,
1000
0100
0001
0100
,
1000
0000
0000
0000
,
0001
0001
0010
0010
,
1000
1000
0010
0010
,
0001
0010
1000
0010
,
0001
0000
1000
0000
,
1001
0100
0001
0001
,
0100
0100
1000
1000
,
0010
0001
0010
1000
,
0010
0000
0000
0000
,
0001
0001
0010
0010
,
0100
0100
1000
1000
,
0100
0001
0100
1000
,
0100
0000
0010
0100
,
0002
0000
0000
0000
,
0013
0000
0100
0000
,
1000
0000
0010
0000
,
2000
0000
0000
3100
,
1001
0100
0001
0000
,
0001
0010
1000
0000
,
0010
1000
0100
0000
,
0010
0100
1000
0000
,
0100
0010
0001
0000
,
1000
0001
0100
0000
,
0010
0100
0001
0000
,
0010
0100
1000
0000
;

//---------------dance-single - ----------------
#NOTEDATA:;
#CHARTNAME:;
#STEPSTYPE:dance-single;
#DESCRIPTION:;
#CHARTSTYLE:;
#DIFFICULTY:Beginner;
#METER:1;
#RADARVALUES:0.143342,0.163911,0.020618,0.013745,0.000000,146.000000,143.000000,3.000000,2.000000,0.000000,0.000000,0.000000,0.000000,0.000000,0.143342,0.163911,0.020618,0.013745,0.000000,146.000000,143.000000,3.000000,2.000000,0.000000,0.000000,0.000000,0.000000,0.000000;
#CREDIT:;
#NOTES:
0000
0000
0000
0000
,
0000
0000
0000
0000
,
0000
0000
0000
0000
,
0000
0000
0000
0000
,
0010
0000
0010
0000
,
0100
0000
0100
0000
,
0001
0000
0001
0000
,
0010
0000
0010
0000
,
0100
0000
1000
0000
,
0001
0000
0100
0000
,
0010
0000
1000
0000
,
0100
0000
0010
0000
,
0001
0000
1000
0000
,
0010
0000
0100
0000
,
0010
0000
1000
0000
,
0100
0000
0010
0000
,
0001
0000
1000
0000
,
0100
0000
0010
0000
,
0100
0000
1000
0000
,
0001
0000
0100
0000
,
0001
0000
0010
0000
,
1000
0000
0010
0000
,
0001
0000
0001
0000
,
1000
0000
0000
0000
,
1001
0000
0100
0000
,
1000
0000
1000
0000
,
0100
0000
0001
0000
,
0001
0000
0001
0000
,
0010
0000
1000
0000
,
0010
0000
0010
0000
,
0100
0000
0001
0000
,
0100
0000
0100
0000
,
0001
0000
0000
0000
,
0010
0000
0100
0000
,
1000
0000
0100
0000
,
0010
0000
0000
0000
,
0001
0000
1000
0000
,
0010
0000
0100
0000
,
0010
0000
1000
0000
,
0100
0000
0000
0000
,
0010
0000
0001
0000
,
0100
0000
0010
0000
,
0100
0000
0001
0000
,
0010
0000
0100
0000
,
1000
0000
0100
0000
,
0001
0000
0100
0000
,
1000
0000
0010
0000
,
0100
0000
0001
0000
,
0010
0000
0100
0000
,
1000
0000
0100
0000
,
0010
0000
0001
0000
,
1000
0000
0010
0000
,
0110
0000
0100
0000
,
1000
0000
0100
0000
,
0001
0000
0010
0000
,
0100
0000
1000
0000
,
0001
0000
0100
0000
,
1000
0000
0100
0000
,
0001
0000
0010
0000
,
0100
0000
1000
0000
,
0010
0000
0100
0000
,
0001
0000
0010
0000
,
0100
0000
1000
0000
,
0001
0000
0100
0000
,
0010
0000
1000
0000
,
0010
0000
0001
0000
,
0010
0000
0100
0000
,
0001
0000
0100
0000
,
0002
0000
0000
0000
,
0003
0000
0010
0000
,
0200
0000
0000
0000
,
0300
0000
0000
0000
,
1001
0000
0100
0000
,
0010
0000
0010
0000
,
0100
0000
0100
0000
,
0010
0000
0010
0000
,
1000
0000
0100
0000
,
1000
0000
1000
0000
,
0001
0000
0010
0000
,
0001
0000
0001
0000
;
