#TITLE:Abracadabra;
#SUBTITLE:;
#ARTIST:Lady Gaga;
#TITLETRANSLIT:;
#SUBTITLETRANSLIT:;
#ARTISTTRANSLIT:;
#GENRE:Mayhem;
#CREDIT:[Ness];
#BANNER:Abracadabra.png;
#BACKGROUND:Black.png;
#LYRICSPATH:Abracadabra.lrc;
#CDTITLE:;
#MUSIC:Abracadabra.mp3;
#OFFSET:-0.015000;
#SAMPLESTART:60.979321;
#SAMPLELENGTH:24.761902;
#LASTBEATHINT:297.000000;
#SELECTABLE:YES;
#BPMS:0.000000=125.999992
;
#STOPS:
;
#BGCHANGES:0.000=Abracadabra.avi=1.000=1=0=0=StretchNoLoop==CrossFade==,
99999=-nosongbg-=1.000=0=0=0 // don't automatically add -songbackground-
;
#KEYSOUNDS:;
#ATTACKS:;

//---------------dance-single - ----------------
#NOTES:
     dance-single:
     :
     Challenge:
     9:
     0.676707,0.722437,0.440809,0.265885,0.587745,677.000000,614.000000,63.000000,38.000000,0.000000,0.000000,0.676707,0.722437,0.440809,0.265885,0.587745,677.000000,614.000000,63.000000,38.000000,0.000000,0.000000:
0000
0000
0000
0000
,
0000
0000
0000
0000
,
0000
0000
0000
0000
,
0000
0000
0000
0000
,
0101
0000
0000
1000
0100
0000
0001
0000
0100
0000
1000
0000
0100
0000
0001
0000
,
1000
0000
0000
1000
0100
0000
0000
0100
0001
0000
0000
1000
0100
0000
0000
0000
,
1010
0000
0000
0001
0010
0000
1000
0000
0001
0000
0010
0000
1000
0000
0001
0000
,
0010
0000
0000
0010
1000
0000
0000
1000
0001
0010
0100
0000
0021
0000
0000
0000
,
0130
0000
1000
0100
0000
0000
1000
0000
0001
0000
1000
0100
0000
0000
1000
0010
,
0100
0000
0001
0000
0010
0000
0000
0000
0001
0000
1000
0001
0100
0000
0010
1000
,
0000
1000
0010
0000
0100
0000
0000
0000
0001
0000
1000
0100
1000
0010
0000
0000
,
0100
0000
0001
0000
1000
0000
0000
0000
0100
0010
0001
0000
1200
0000
0000
0000
,
0310
0000
0001
1000
0000
0000
0001
0000
0100
0000
0001
0010
0000
0000
0100
1000
,
0010
0000
0100
0000
0001
0000
0000
0000
1000
0000
0001
0100
0010
0000
1000
0010
,
0000
0100
0010
0000
1000
0000
0000
0000
0100
0000
1000
0001
0100
0001
0000
0000
,
0010
0000
0001
0000
1000
0000
0100
0000
0010
0001
0100
0000
1020
0000
0000
0000
,
1030
0000
0001
0000
1001
0000
0000
0000
1001
0000
0000
0001
1000
0000
1001
0000
,
0000
0000
1001
0000
0100
0000
1000
0000
0001
0000
0100
0001
1000
0000
1001
0000
,
0000
0000
1100
0000
0001
0000
0100
0000
0001
0000
0000
0001
1000
0000
1001
0000
,
0000
0000
1001
0000
0001
0000
1000
0000
1000
0001
0100
0000
1200
0000
0010
0000
,
0310
0000
0001
0000
1001
0000
0000
0000
0101
0000
0000
1000
0100
0000
1001
0000
,
0000
0000
0011
0000
0100
0000
0010
0000
0001
0000
1000
0001
0100
0000
1010
0000
,
0000
0000
1001
0000
1000
0000
0100
0000
1000
0000
0000
0001
0100
0000
1001
0000
,
0000
0000
1001
0000
0010
0000
1000
0000
0001
1000
0100
0000
0101
0000
0001
0000
,
0020
0000
0001
0200
0000
0330
0110
1000
,
0010
1000
0020
0001
0030
0010
0100
0001
,
1000
0000
1100
0000
0101
0001
1000
0001
,
0200
0000
0010
0000
1000
0010
0301
0010
,
0100
0001
1000
0200
0000
0000
0301
0100
,
0010
0001
1000
0020
0000
0130
1000
0100
,
0001
0000
0101
0000
1010
0100
0010
0100
,
0001
1000
0100
1000
0001
1000
0100
0010
0001
0100
0001
1000
0010
0100
0010
0100
,
0010
1000
1001
0010
1001
0010
1000
0100
,
0001
1000
0100
0000
0001
1000
0100
0000
0001
1000
0100
0000
0010
0000
0100
0000
,
1000
0001
0100
0000
1000
0001
0100
0000
1000
0001
0100
0000
0001
0000
1000
0000
,
0010
0000
0100
0000
0001
0000
0010
0000
0100
1000
0001
0000
0210
0000
0000
0000
,
0310
0001
1001
0010
1001
0100
1001
1000
,
0010
1000
0001
0000
0010
1000
0001
0000
0010
1000
0001
0000
1000
0000
0001
0000
,
0100
0000
0010
1000
0100
0000
1000
0000
0001
0000
0100
0001
0010
0000
0100
0000
,
1000
0000
0000
1000
0010
0000
0000
0010
0001
0100
0010
1000
0100
0000
0010
0000
,
0200
0000
0000
0000
0000
0000
0000
0000
0310
0100
1000
0001
0100
0010
1000
0001
,
0100
0000
0000
1001
0100
0000
1010
0000
0100
0000
1001
0000
0100
0000
0011
0000
,
0110
0000
0100
1000
0010
0000
1000
0010
0001
0000
0010
0001
0100
0000
0000
0000
,
0101
0000
0000
0001
1100
0000
0010
0000
0101
0000
0001
0000
1100
0000
0010
0000
,
0101
0000
0001
0100
1000
0000
0100
1000
0010
0100
0001
0000
0101
0000
0000
0000
,
0011
0000
0100
0010
1100
0000
1000
0000
0101
0000
0001
0000
1010
0000
0100
0000
,
0110
0000
1000
0010
0100
0000
0010
0100
0001
0000
0100
0001
1000
0000
0000
0000
,
1010
0000
0000
1001
0100
0000
0011
0000
1010
0000
0100
0000
0110
0000
0001
0000
,
1100
0000
0100
0001
0010
0000
0001
0010
0100
1000
0001
0000
0100
0010
1000
0001
,
0200
0000
0300
0100
0002
0000
0003
0001
0020
0000
0030
0010
0200
0000
0300
0100
,
2000
0000
3000
1000
0020
0000
0030
0010
0200
0000
0300
0100
0002
0000
0003
0001
,
0020
0000
0030
0010
0200
0000
0300
0100
2000
0000
3000
1000
0002
0000
0003
0001
,
2000
0000
3000
1000
0002
0000
0003
0001
1000
0010
0100
0000
0001
0000
0010
0000
,
0020
0000
0030
0100
2000
0000
3000
0010
0200
0000
0300
0001
0020
0000
0030
0010
,
0200
0000
0300
1000
0020
0000
0030
0100
0002
0000
0003
0010
0200
0000
0300
0100
,
2000
0000
3000
0010
0200
0000
0300
0100
0020
0000
0030
1000
0001
1000
0001
1000
,
0100
1000
0100
1000
0001
0010
0001
0010
0100
1000
0010
0100
0001
0010
0100
1000
,
0010
0000
0100
0001
0010
0000
0000
0001
1000
0000
0000
0010
0100
0000
0100
0001
,
0010
0000
0010
0100
1000
0000
0000
0010
0100
0000
0000
0001
0010
0000
0100
0010
,
0001
0000
1000
0001
0100
0000
0000
0010
1000
0000
0000
0100
0010
0000
0001
0010
,
0000
0000
0100
1000
0010
0000
0000
0100
0001
1000
0010
0100
0001
0000
1000
0001
,
0010
0000
0010
0100
0010
0000
0000
0001
0100
0000
0000
0010
1000
0000
0100
1000
,
0001
0000
0100
0010
0100
0000
0000
0001
0010
0000
0000
0100
1000
0000
0010
1000
,
0100
0000
1000
0001
0100
0000
0000
0001
0010
0000
0000
0100
1000
0000
0010
0100
,
0000
0000
0001
1000
0100
0000
0000
0010
0001
1000
0100
1000
0001
0100
0010
1000
,
0100
0000
0010
0000
1001
0000
0100
0000
1001
0000
0010
0000
0001
0010
0100
0000
,
1000
0100
0010
0000
1000
0100
0010
0000
1000
0100
0010
0000
0001
0000
1000
0000
,
0010
0100
0001
0000
0010
0100
0001
0000
0010
0100
0001
0000
1000
0000
0100
0000
,
0001
0000
0100
0000
1000
0000
0010
0000
0100
0001
1000
0000
0110
0000
0000
0000
,
0001
0010
1001
0100
1001
0010
1001
0100
,
0001
0100
1000
0000
0001
0100
1000
0000
0001
0100
1000
0000
0010
0000
1000
0000
,
0100
0000
0010
0001
0100
0000
0001
0000
1000
0000
0100
1000
0010
0000
0000
0000
,
0011
0000
0000
0010
1000
0000
0000
1000
0001
0010
0100
1000
0001
0000
0200
0000
,
0000
0000
0000
0300
;

//---------------dance-single - ----------------
#NOTES:
     dance-single:
     :
     Hard:
     7:
     0.463799,0.464424,0.174924,0.174924,0.136441,464.000000,439.000000,25.000000,25.000000,0.000000,0.000000,0.463799,0.464424,0.174924,0.174924,0.136441,464.000000,439.000000,25.000000,25.000000,0.000000,0.000000:
0000
0000
0000
0000
,
0000
0000
0000
0000
,
0000
0000
0000
0000
,
0000
0000
0000
0000
,
0001
0000
0000
0001
1000
0000
0001
0000
0100
0000
0001
0000
1000
0000
0100
0000
,
2000
3020
0130
0110
,
1000
0000
0000
1000
0100
0000
0010
0000
0100
0000
1000
0000
0001
0000
0100
0000
,
0002
2003
3100
1001
,
0010
0000
0001
0000
0100
0000
0000
0000
0001
0000
0000
1000
0000
0000
0001
0000
,
0100
0000
0010
0000
1000
0000
0000
0000
0100
0000
0000
1000
0000
0000
0001
0000
,
1000
0000
0010
0000
0100
0000
0000
0000
0001
0000
0000
0000
1000
0100
0000
0000
,
1000
0000
0010
0000
1000
0000
0000
0000
0001
0100
0001
0000
0100
0000
0000
0000
,
0010
0000
0100
0000
0001
0000
0000
0000
1000
0000
0000
0001
0000
0000
0010
0000
,
0100
0000
1000
0000
0100
0000
0000
0000
1000
0000
0000
0010
0000
0000
1000
0000
,
0001
0000
0100
0000
0010
0000
0000
0000
0100
0000
0000
0000
0001
0010
0000
0000
,
0100
0000
1000
0000
0010
0000
0000
0000
1000
0100
1000
0000
0100
0000
0000
0000
,
1000
0000
0001
0000
0100
0000
0000
0000
0001
0000
0000
0010
0000
0000
0100
0000
,
0000
0000
1000
0000
0010
0000
1000
0000
0001
0000
0100
0001
0100
0000
0010
0000
,
0000
0000
1000
0000
0100
0000
1000
0000
0001
0000
0000
0010
0100
0000
1000
0000
,
0000
0000
0001
0000
0100
0000
0000
0000
0001
1000
0001
0000
1000
0000
0000
0000
,
0010
0000
0100
0000
1000
0000
0000
0000
0001
0000
0000
1000
0000
0000
0010
0000
,
0000
0000
0100
0000
0001
0000
0010
0000
0100
0000
1000
0010
1000
0000
0010
0000
,
0100
0000
0001
0000
1000
0000
0000
0000
0001
0000
0000
1000
0010
0000
0100
0000
,
0001
0000
0010
0000
0100
0000
1000
0000
0001
1000
0001
0000
0100
0000
0001
0000
,
2000
0000
0100
0100
0000
0000
3001
0000
,
0020
0000
0001
0001
0000
0000
0130
0000
,
0010
0000
0110
0000
0001
0100
0010
1000
,
0001
0000
1000
0000
0100
0000
1000
0001
,
0020
0000
0100
0100
0000
0000
0031
0000
,
0200
0000
0010
0010
0000
0000
1000
0000
,
0301
0000
0101
0000
1100
0000
1000
0010
,
0100
0000
0010
0000
0100
0000
0010
0000
1000
0000
0001
0000
1000
0001
1000
0000
,
0001
0100
0010
1000
0100
1000
0010
0100
,
0001
1000
0001
0010
0001
0100
0001
0010
,
1000
0001
1000
0100
1000
0010
1000
0100
,
0010
0000
0001
0000
1000
0000
0100
0000
1000
0001
1000
0000
0001
0000
0000
0000
,
0100
0010
1000
1002
0000
1003
0010
0100
,
0001
0010
0100
0210
0000
0300
1000
0100
,
0010
0001
1000
0200
0000
0300
1000
0000
,
0001
0000
0110
0000
1010
0000
1000
0001
,
2000
0000
0000
0000
0000
0000
0000
0000
3001
1000
0001
0000
1000
0000
0100
0000
,
1000
0000
0000
1000
0010
0000
0100
0000
0001
0000
0010
0000
1000
0000
0010
0000
,
0001
0000
0000
0001
1000
0000
0000
1000
0010
0000
0000
0010
0100
0000
0000
0000
,
0110
0000
0000
0100
0001
0000
1000
0000
0100
0000
1000
0000
0001
0000
0100
0000
,
0001
0000
0000
0001
0010
0000
0000
0010
0100
0000
1000
0000
0010
0000
0000
0000
,
1000
0000
0000
0001
0010
0000
0100
0000
1000
0000
0010
0000
0100
0000
0001
0000
,
1000
0000
0000
0010
0100
0000
0000
0001
0010
0000
0000
0100
1000
0000
0000
0000
,
0101
0000
0000
1000
0100
0000
1000
0000
0001
0000
1000
0000
0100
0000
0010
0000
,
0001
0000
0000
0001
0010
0000
0000
0010
0100
0000
1000
0000
0010
0000
0100
0000
,
0002
1000
0103
0101
,
1000
0010
0100
0000
1000
0100
0001
0000
,
1000
0100
0010
0001
0010
0100
1000
0000
,
0010
0000
0110
0000
1000
0100
0010
0001
,
2000
0001
3100
1100
,
1000
0010
0001
0000
0010
0100
0010
0000
,
0001
0100
0010
0000
1000
0000
1001
0000
,
0001
1000
0100
0000
1000
0001
0010
0100
,
2000
0010
3100
0012
,
0103
0012
1003
0102
,
0013
0000
0100
0000
0010
0001
0100
0000
,
0001
1000
0100
0000
0001
1000
0010
0100
,
0002
0010
0103
2100
,
3010
0102
1003
1001
,
0010
1000
0001
0000
0010
0100
1001
0000
,
0100
0000
0001
0000
1000
0000
0000
0000
0001
1000
0001
0000
1000
0000
0000
0000
,
0001
0100
1000
0100
0001
0100
1000
0100
,
0001
0010
0100
1000
0100
0010
0100
1000
,
0001
0010
0100
1000
0100
0010
0100
1000
,
0001
0000
0100
0000
0010
0000
1000
0000
0001
1000
0001
0000
0100
0000
0000
0000
,
0001
1000
0010
0210
0000
0301
1000
0100
,
0010
0001
1000
2001
0000
3001
1000
0010
,
0100
0001
1000
0200
0000
0310
0100
0000
,
0110
0000
0000
0001
0010
0000
0000
1000
0010
0000
0000
0000
0100
0000
0002
0000
,
0000
0000
0000
0003
;

//---------------dance-single - ----------------
#NOTES:
     dance-single:
     :
     Medium:
     6:
     0.359844,0.412821,0.195915,0.237897,0.000000,360.000000,332.000000,28.000000,34.000000,0.000000,0.000000,0.359844,0.412821,0.195915,0.237897,0.000000,360.000000,332.000000,28.000000,34.000000,0.000000,0.000000:
0000
0000
0000
0000
,
0000
0000
0000
0000
,
0000
0000
0000
0000
,
0000
0000
0000
0000
,
0001
0000
1000
0001
0100
0001
1000
0000
,
2100
0010
0100
3010
,
0100
0000
0001
0010
0100
1000
0010
0000
,
0120
1000
0001
1030
,
0001
0010
0001
0000
0200
0000
0310
0000
,
1000
0100
1000
0000
0002
0000
1003
0000
,
0010
0100
0001
0000
1000
0000
0001
0000
,
0100
0000
0110
0000
0001
1000
0100
0000
,
0010
1000
0010
0000
2000
0000
3001
0000
,
0010
0001
0010
0000
0200
0000
1300
0000
,
0001
0100
0010
0000
1000
0000
0001
0000
,
0010
0000
0110
0000
0100
1000
0001
0000
,
0010
0000
1001
0000
0100
0000
0001
0020
,
0000
0130
0000
0110
0000
1000
0010
0200
,
0000
0310
0000
0110
0000
0100
0001
2000
,
0000
3010
0000
1000
0100
0000
1001
0000
,
0010
0000
0110
0000
0100
0000
0001
0020
,
0000
0031
0000
0101
0000
0010
0100
0001
,
1000
0000
0001
0000
0100
0000
0010
1000
,
0100
1000
0000
0001
0000
0000
1001
0000
,
0020
0001
0030
1001
,
0020
1000
0030
1001
,
0100
0000
0010
0000
1000
0100
0010
0002
,
0000
0000
0003
0000
0000
0000
1000
0001
,
0200
0010
0300
1001
,
0020
0100
0030
0110
,
1000
0000
0001
0000
0100
0010
1000
0001
,
0100
0000
0100
0000
0100
0010
0100
0000
,
0001
1000
0001
1000
0000
0001
0100
0001
,
0100
0001
0000
1000
0000
0000
0100
1000
,
0100
1000
0000
0001
0000
0000
0010
0100
,
0010
0100
0000
0010
0000
0000
0000
0000
,
0001
1000
0001
1000
0000
0010
1000
0010
,
1000
0010
0000
0100
0000
0000
0001
0100
,
0001
0000
0010
0200
0000
0000
0300
0000
,
1000
0000
0001
0000
0100
0000
0010
2000
,
0000
3000
0000
0000
,
1001
0000
0010
1000
0010
0001
0100
0000
,
0002
0023
0130
0110
,
0001
0000
1000
0100
0001
0100
1000
0000
,
0020
0000
0230
0000
0301
1000
0100
0000
,
1001
0000
1000
0001
0100
0001
1000
0000
,
0001
1000
0001
1000
0010
0100
0010
0100
,
0001
0000
1000
0010
0100
0001
0010
0000
,
0210
0000
2300
0000
3010
1000
0100
1000
,
0002
0000
0000
1003
,
0001
0101
1000
1100
,
0001
0011
1000
1010
,
0001
0000
1000
0000
0001
0100
0010
1000
,
0100
1100
0100
0011
,
0010
0101
0100
1010
,
0010
0100
0010
0000
1000
0100
0010
0000
,
0001
0000
1000
0000
0001
0100
0010
1000
,
0200
1300
0002
0103
,
0020
0130
0002
0013
,
0100
1000
0010
0000
1000
0001
1000
0000
,
0001
0100
0001
0000
1000
0100
1000
0000
,
0002
0013
0200
0310
,
0200
1300
0020
0130
,
0001
0010
0001
0000
1000
0010
1000
0000
,
0001
0000
1000
0000
0010
0100
0001
0000
,
1000
0100
1000
0100
0000
0010
0100
0010
,
0100
0010
0000
0001
0000
0000
1000
0001
,
1000
0001
0000
0100
0000
0000
0001
0100
,
0001
1000
0000
0001
0000
0000
0000
0000
,
0010
0001
1000
0010
0000
1000
0001
1000
,
0100
1000
0000
0001
0000
0000
0100
0010
,
0100
0000
0001
2000
0000
3000
0100
0000
,
0110
0000
1000
0000
0010
0000
0100
0002
,
0000
0000
0000
0003
;

//---------------dance-single - ----------------
#NOTES:
     dance-single:
     :
     Easy:
     4:
     0.246893,0.283815,0.041982,0.265885,0.000000,247.000000,241.000000,6.000000,38.000000,0.000000,0.000000,0.246893,0.283815,0.041982,0.265885,0.000000,247.000000,241.000000,6.000000,38.000000,0.000000,0.000000:
0000
0000
0000
0000
,
0000
0000
0000
0000
,
0000
0000
0000
0000
,
0000
0000
0000
0000
,
1000
0001
0100
0010
,
2000
0100
0100
3100
,
0001
1000
0010
0100
,
0002
0010
0010
0013
,
0100
0020
0030
0100
,
1000
0200
0300
1000
,
0001
0200
0300
0001
,
0010
0100
1000
0001
,
0100
0020
0030
1000
,
0010
2000
3000
0001
,
1000
0200
0300
1000
,
0100
0010
0001
1000
,
0001
0100
0010
0100
,
0001
0001
1000
1000
,
0001
0001
0010
0010
,
0100
0100
1000
1000
,
0010
0100
0010
0010
,
1000
1000
0100
0100
,
0010
0010
0001
0001
,
1000
0001
0100
0010
,
2000
3100
0000
1001
,
0002
0103
0000
1001
,
0010
1000
0010
0100
,
0001
0000
0010
0100
,
0020
0031
0000
1001
,
0020
1030
0000
1001
,
0001
1000
0010
0100
,
0001
0000
0000
0000
,
1000
0001
0100
0010
,
1000
0100
0010
0100
,
1000
0001
0010
0100
,
0010
0001
0100
0010
,
1000
0001
0100
0010
,
1000
0100
0010
0001
,
1000
0100
1000
0100
,
0010
0100
0010
0001
,
0100
0000
0000
0000
,
0001
0001
1000
0001
,
0200
0320
0230
0320
,
1030
0100
0010
0001
,
2000
3002
2003
3002
,
1003
1100
0101
1000
,
0002
0013
2000
3100
,
0010
0001
0100
0010
,
2000
3002
2003
3002
,
0103
0010
0100
0001
,
0020
0000
0230
0000
,
2300
0000
0000
0000
,
3000
0000
0001
1000
,
0100
0010
0001
0100
,
0020
0000
0230
0000
,
0302
0000
0000
0000
,
0003
0000
1000
0010
,
0100
0001
0010
0010
,
0100
1000
0100
0100
,
2000
0000
3002
0000
,
0203
0000
0310
0100
,
0001
0010
0100
1000
,
0010
0010
0100
0100
,
0002
0000
2003
0000
,
3100
0010
0001
1000
,
0001
0100
0010
0100
,
1000
0100
0010
1000
,
0100
0001
0100
1000
,
0010
1000
0100
0010
,
0001
1000
0010
0100
,
0001
0010
1000
0010
,
0001
0100
0010
1000
,
0100
0001
0010
1000
,
0200
0000
0000
0300
;

//---------------dance-single - ----------------
#NOTES:
     dance-single:
     :
     Beginner:
     2:
     0.164929,0.332006,0.055976,0.013994,0.000000,165.000000,157.000000,8.000000,2.000000,0.000000,0.000000,0.164929,0.332006,0.055976,0.013994,0.000000,165.000000,157.000000,8.000000,2.000000,0.000000,0.000000:
0000
0000
0000
0000
,
0000
0000
0000
0000
,
0000
0000
0000
0000
,
0000
0000
0000
0000
,
1000
0000
1000
0000
,
0100
0100
0100
0100
,
0100
0000
0010
0000
,
0001
0001
0001
0001
,
0001
0000
1000
0000
,
0001
0000
0100
0000
,
0010
0000
1000
0000
,
0100
0000
0010
0010
,
0010
0000
0001
0000
,
1000
0000
0001
0000
,
0100
0000
0010
0000
,
1000
0000
0100
0100
,
0100
0000
0010
0000
,
0100
0000
1000
0000
,
0001
0000
0010
0000
,
0100
0000
1000
0000
,
0001
0000
1000
0000
,
0001
0000
0100
0000
,
0010
0000
0100
0000
,
0001
0000
0010
0000
,
0100
0000
1000
1000
,
1000
0000
0001
0001
,
0001
0000
0100
0000
,
0010
0000
1000
0000
,
0001
0000
0100
0100
,
0100
0000
0010
0010
,
0010
0000
1000
0000
,
0100
0000
0010
0000
,
0001
0001
0000
0010
,
0010
0010
0000
1000
,
1000
1000
0000
0010
,
0010
0010
0000
0000
,
0100
0100
0000
0010
,
0010
0010
0000
0100
,
0100
0100
0000
0001
,
0001
0000
1000
0000
,
0100
0000
0000
0000
,
0110
0000
0010
0000
,
0100
0100
0100
0100
,
0100
0000
0001
0000
,
1000
0000
0001
0000
,
1001
0000
0010
0000
,
1001
1001
1001
1001
,
1001
0000
0001
0000
,
1001
0000
0100
0100
,
0100
0000
0000
0001
,
0001
0000
0001
0000
,
0002
0000
0000
0003
,
0000
0000
0010
0000
,
0100
0000
0000
1000
,
1000
0000
1000
0000
,
2000
0000
0000
3000
,
0000
0000
0100
0000
,
0010
0000
0000
0001
,
0001
0000
0100
0000
,
0010
0000
0000
0000
,
0000
0000
1000
1000
,
1000
0000
0000
0100
,
0100
0000
0010
0000
,
0001
0000
0000
0000
,
0000
0000
0000
0000
,
0100
0100
0000
0010
,
0010
0010
0000
1000
,
1000
1000
0000
0001
,
0001
0001
0000
0000
,
0010
0010
0000
0100
,
0100
0100
0000
1000
,
1000
0000
0010
0000
,
0100
0100
0100
0000
,
0001
0000
0000
0000
;

//---------------dance-double - ----------------
#NOTES:
     dance-double:
     :
     Challenge:
     9:
     0.668710,0.722437,0.461800,0.265885,0.573752,669.000000,603.000000,66.000000,38.000000,0.000000,0.000000,0.668710,0.722437,0.461800,0.265885,0.573752,669.000000,603.000000,66.000000,38.000000,0.000000,0.000000:
00000000
00000000
00000000
00000000
,
00000000
00000000
00000000
00000000
,
00000000
00000000
00000000
00000000
,
00000000
00000000
00000000
00000000
,
00001100
00000000
00000000
00000010
00010000
00000000
00000010
00000000
00001000
00000000
00010000
00000000
00001000
00000000
00010000
00000000
,
00100000
00000000
00000000
00100000
10000000
00000000
00000000
10000000
01000000
00000000
00000000
01000000
00001000
00000000
00000000
00000000
,
00110000
00000000
00000000
10000000
00100000
00000000
10000000
00000000
00010000
00000000
00001000
00000000
00010000
00000000
00001000
00000000
,
00000100
00000000
00000000
00000100
00000010
00000000
00000000
00000010
00000001
00001000
00000010
00000000
00000210
00000000
00000000
00000000
,
00000301
00000000
00001000
00000100
00000000
00000000
00010000
00000000
00001000
00000000
01000000
00100000
00000000
00000000
10000000
00100000
,
01000000
00000000
00001000
00000000
00010000
00000000
00000000
00000000
00000100
00000000
00000010
00000001
00001000
00000000
00000100
00010000
,
00000000
00010000
00000100
00000000
00010000
00000000
00000000
00000000
00001000
00000000
01000000
00100000
10000000
00100000
00000000
00000000
,
01000000
00000000
00010000
00000000
00100000
00000000
00000000
00000000
00001000
01000000
00010000
00000000
02001000
00000000
00000000
00000000
,
03010000
00000000
00100000
00001000
00000000
00000000
00010000
00000000
00000100
00000000
00000010
00000001
00000000
00000000
00000100
00000010
,
00001000
00000000
00000100
00000000
00010000
00000000
00000000
00000000
01000000
00000000
00100000
00010000
10000000
00000000
01000000
00100000
,
00000000
01000000
10000000
00000000
00100000
00000000
00000000
00000000
01000000
00000000
00010000
10000000
00010000
01000000
00000000
00000000
,
01000000
00000000
00001000
00000000
00010000
00000000
00000100
00000000
00000010
00000100
00001000
00000000
00001020
00000000
00000000
00000000
,
00001030
00000000
00000001
00000000
00001001
00000000
00000000
00000000
00011000
00000000
00000000
00010000
00001000
00000000
00011000
00000000
,
00000000
00000000
10010000
00000000
01000000
00000000
10000000
00000000
00010000
00000000
00100000
00010000
10000000
00000000
10010000
00000000
,
00000000
00000000
00011000
00000000
00010000
00000000
00000010
00000000
00010000
00000000
00000000
00000001
00001000
00000000
00001001
00000000
,
00000000
00000000
00011000
00000000
00001000
00000000
00010000
00000000
01000000
00100000
01000000
00000000
12000000
00000000
00100000
00000000
,
03100000
00000000
00010000
00000000
10010000
00000000
00000000
00000000
00011000
00000000
00000000
00001000
00010000
00000000
00011000
00000000
,
00000000
00000000
00011000
00000000
00000100
00000000
00001000
00000000
00000001
00000000
00001000
00000001
00000100
00000000
00001001
00000000
,
00000000
00000000
00011000
00000000
00011000
00000000
00000000
00000000
01000000
00000000
00000000
00010000
10000000
00000000
10010000
00000000
,
00000000
00000000
10010000
00000000
00100000
00000000
10000000
00000000
00010000
10000000
01000000
00000000
01010000
00000000
00010000
00000000
,
00100000
00000000
00101000
00002000
00000000
00003000
00011000
00010000
,
00000010
00001000
00000010
00000200
00000000
00000301
00001000
00000001
,
00001000
00000000
00010100
00000000
00101000
00100000
00010000
00100000
,
02000000
00000000
00100000
00000000
13000000
00000000
00010000
01000000
,
00001000
00010000
00000100
00000020
00000000
00000031
00000100
00000010
,
00010000
00001000
01000000
00200000
00000000
01300000
10000000
01000000
,
00010000
00000000
01001000
00000000
00010010
00000010
00000100
00000010
,
00000100
00000001
00000010
00000001
00001000
00000010
00001000
00000100
00010000
00001000
01000000
00010000
10000000
00010000
10000000
00010000
,
10000000
00010000
10010000
00100000
00011000
00000010
00001001
00000100
,
00001000
00000010
00000100
00000000
00001000
00000010
00000100
00000000
00001000
00000010
00000100
00000000
00010000
00000000
00001000
00000000
,
00100000
00010000
01000000
00000000
00100000
00010000
01000000
00000000
00100000
00010000
01000000
00000000
00010000
00000000
10000000
00000000
,
00100000
00000000
00010000
00000000
00001000
00000000
00000100
00000000
00000001
00001000
00000100
00000000
00000210
00000000
00000000
00000000
,
00000310
00000100
00001001
00000100
00011000
01000000
10010000
01000000
,
00100000
10000000
01000000
00000000
00100000
10000000
01000000
00000000
00100000
10000000
01000000
00000000
00100000
00000000
00001000
00000000
,
00010000
00000000
00000010
00000100
00000001
00000000
00000010
00000000
00000100
00000000
00010000
00001000
01000000
00000000
00100000
00000000
,
10000000
00000000
00000000
10000000
00010000
00000000
00000000
00010000
00001000
00000000
00000000
00001000
00000001
00000000
00000200
00000000
,
00000000
00000000
00000000
00000000
00000000
00000000
00000000
00000000
00000301
00001000
00000100
00010000
00001000
01000000
00010000
10000000
,
01000000
00000000
00000000
10010000
01000000
00000000
01010000
00000000
00001000
00000000
00011000
00000000
00000100
00000000
00001100
00000000
,
00000110
00000000
00000010
00000001
00000100
00000000
00000001
00000100
00000010
00000000
00001000
00000010
00000100
00000000
00000000
00000000
,
00000110
00000000
00000000
00001010
00000100
00000000
00011000
00000000
00100000
00000000
00110000
00000000
01000000
00000000
01100000
00000000
,
10000000
00000000
01000000
00100000
00010000
00000000
00100000
00001000
00010000
00000000
00000100
00010000
00001000
00000000
00000000
00000000
,
00011000
00000000
00000000
00000010
00011000
00000000
01000000
00000000
00011000
00000000
00000100
00000000
00011000
00000000
00100000
00000000
,
00110000
00000000
00100000
01000000
10000000
00000000
10000000
00100000
01000000
00000000
01000000
00010000
00100000
00000000
00000000
00000000
,
00110000
00000000
00000000
00011000
00000100
00000000
00000110
00000000
00000001
00000000
00001001
00000000
00001010
00000000
00000100
00000000
,
00021000
00000000
00000000
00000000
00100000
00000000
00000000
00000000
00031000
00010000
00001000
00010000
00001000
01000000
00010000
01000000
,
00020000
00000000
00030000
00010000
00200000
00000000
00300000
00100000
20000000
00000000
30000000
10000000
02000000
00000000
03000000
01000000
,
00002000
00000000
00003000
00001000
00020000
00000000
00030000
00010000
00000200
00000000
00000300
00000100
00000020
00000000
00000030
00000010
,
00000002
00000000
00000003
00000001
00000200
00000000
00000300
00000100
00020000
00000000
00030000
00010000
00002000
00000000
00003000
00001000
,
02000000
00000000
03000000
01000000
00200000
00000000
00300000
00100000
10000000
01000000
00100000
00000000
00001000
00000000
00010000
00000000
,
00000020
00000000
00000030
00000100
00000002
00000000
00000003
00000010
00000200
00000000
00000300
00010000
00002000
00000000
00003000
00001000
,
00200000
00000000
00300000
01000000
20000000
00000000
30000000
00100000
02000000
00000000
03000000
00001000
00020000
00000000
00030000
00010000
,
00000020
00000000
00000030
00000001
00000200
00000000
00000300
00000010
00002000
00000000
00003000
00001000
00000100
00010000
00000100
00010000
,
00001000
01000000
00001000
01000000
00100000
10000000
00100000
10000000
00010000
01000000
00010000
01000000
00001000
00010000
00001000
00010000
,
00001000
00000000
01000000
00001000
00010000
00000000
00000000
00010000
00000010
00000000
00000000
00000010
00000100
00000000
00000100
00000001
,
00000010
00000000
00000010
00000100
00001000
00000000
00000000
00001000
00000010
00000000
00000000
00010000
00001000
00000000
01000000
00010000
,
00100000
00000000
01000000
10000000
00100000
00000000
00000000
10000000
00010000
00000000
00000000
00100000
00001000
00000000
00010000
00000010
,
00000000
00000000
00000100
00000001
00000010
00000000
00000000
00000100
00001000
00000001
00000100
00000010
00001000
00000000
00000100
00010000
,
00001000
00000000
00010000
00001000
01000000
00000000
00000000
01000000
00100000
00000000
00000000
10000000
01000000
00000000
00100000
00010000
,
01000000
00000000
00001000
00010000
00001000
00000000
00000000
00010000
00000100
00000000
00000000
00000010
00000001
00000000
00000100
00000010
,
00010000
00000000
00001000
01000000
00010000
00000000
00000000
00010000
00100000
00000000
00000000
01000000
10000000
00000000
00100000
01000000
,
00000000
00000000
00010000
10000000
01000000
00000000
00000000
00100000
00001000
00010000
00000010
00001000
00000100
00000010
00000001
00001000
,
00000100
00000010
00001001
00000010
00011000
00100000
10010000
01000000
,
00100000
00010000
01000000
00000000
00100000
00010000
01000000
00000000
00100000
00010000
01000000
00000000
00001000
00000000
00010000
00000000
,
00000100
00010000
00001000
00000000
00000100
00010000
00001000
00000000
00000100
00010000
00001000
00000000
01000000
00000000
00010000
00000000
,
00100000
00000000
01000000
00000000
10000000
00000000
00100000
00000000
01000000
00010000
10000000
00000000
01100000
00000000
00000000
00000000
,
00010000
00100000
10010000
00100000
00011000
00000010
00001001
00000100
,
00000010
00001000
00000100
00000000
00000010
00001000
00000100
00000000
00000010
00001000
00000100
00000000
00010000
00000000
00001000
00000000
,
01000000
00000000
00100000
01000000
00010000
00000000
10000000
00000000
01000000
00000000
00100000
00001000
00010000
00000000
00000000
00000000
,
00011000
00000000
00000000
00001000
00000010
00000000
00000000
00000010
00000001
00000000
00000000
00000100
00010000
00000000
00002000
00000000
,
00000000
00000000
00000000
00003000
;

//---------------dance-double - ----------------
#NOTES:
     dance-double:
     :
     Hard:
     7:
     0.479792,0.490225,0.265885,0.188918,0.143438,480.000000,442.000000,38.000000,27.000000,0.000000,0.000000,0.479792,0.490225,0.265885,0.188918,0.143438,480.000000,442.000000,38.000000,27.000000,0.000000,0.000000:
00000000
00000000
00000000
00000000
,
00000000
00000000
00000000
00000000
,
00000000
00000000
00000000
00000000
,
00000000
00000000
00000000
00000000
,
01000000
00000000
00000000
01000000
00010000
00000000
00100000
00000000
01000000
00000000
10000000
00000000
00010000
00000000
01000000
00000000
,
00020000
00030020
00000130
00000110
,
00000001
00000000
00000000
00000001
00000010
00000000
00000100
00000000
00010000
00000000
00001000
00000000
01000000
00000000
00010000
00000000
,
00200000
02300000
13000000
10010000
,
01000000
00000000
00001000
00000000
00010000
00000000
00000000
00000000
00000010
00000000
00000000
00010000
00000000
00000000
00001000
00000000
,
00000000
00000000
00010000
00000000
00000100
00000000
00000000
00000000
00000010
00000000
00000000
00000001
00000000
00000000
00001000
00000000
,
00000100
00000000
00010000
00000000
00001000
00000000
00000000
00000000
01000000
00000000
00000000
00000000
00100000
10000000
00000000
00000000
,
01000000
00000000
10000000
00000000
00010000
00000000
00000000
00000000
01000000
00100000
01000000
00000000
00001000
00000000
00000000
00000000
,
00010000
00000000
00000010
00000000
00000100
00000000
00000000
00000000
00000001
00000000
00000000
00000010
00000000
00000000
00000100
00000000
,
00010000
00000000
00001000
00000000
01000000
00000000
00000000
00000000
00010000
00000000
00000000
00100000
00000000
00000000
01000000
00000000
,
10000000
00000000
00010000
00000000
01000000
00000000
00000000
00000000
00001000
00000000
00000000
00000000
00010000
00000100
00000000
00000000
,
00000010
00000000
00000001
00000000
00001000
00000000
00000000
00000000
00000010
00000100
00000010
00000000
00010000
00000000
00000000
00000000
,
00011000
00000000
00000000
00000000
00110000
00000000
00000000
00000000
01100000
00000000
00000000
10000000
00000000
00000000
01000000
00000000
,
00000000
00000000
10000000
00000000
00100000
00000000
01000000
00000000
00001000
00000000
00010000
00001000
00010000
00000000
00000010
00000000
,
00000000
00000000
00000100
00000000
00000001
00000000
00001000
00000000
00000100
00000000
00000000
00000010
00000100
00000000
00010000
00000000
,
00000000
00000000
00001000
00000000
01000000
00000000
00000000
00000000
00100000
01000000
00100000
00000000
10000000
00000000
00000000
00000000
,
11000000
00000000
00000000
00000000
00110000
00000000
00000000
00000000
00011000
00000000
00000000
00000010
00000000
00000000
00000100
00000000
,
00000000
00000000
00000001
00000000
00001000
00000000
00000100
00000000
00000010
00000000
00000001
00000010
00000001
00000000
00001000
00000000
,
00000100
00000000
00010000
00000000
00011000
00000000
00000000
00000000
01000000
00000000
00000000
00100000
10000000
00000000
00010000
00000000
,
00100000
00000000
00001000
00000000
00010000
00000000
00000010
00000000
00000100
00000010
00000100
00000000
00000001
00000000
00001000
00000000
,
00000200
00000000
00010000
00010000
00000300
00000000
00010100
00000000
,
00002000
00000000
01000000
01000000
00003000
00000000
01001000
00000000
,
00100000
00000000
10000000
00000000
00010000
00100000
01000000
10000000
,
00020000
00000000
00100000
00000000
00031000
00000000
00000100
00000010
,
00000002
00000000
00000100
00000100
00000003
00000000
00000101
00000000
,
00020000
00000000
00001000
00001000
00000000
00030000
00011000
00000000
,
01000000
00000000
00010000
00000000
00100000
10000000
00100000
01000000
,
00010000
00000000
00100000
00000000
01000000
00000000
00100000
00000000
00001000
00000000
00010000
00000000
00001000
00010000
00001000
00000000
,
00011000
00010000
00000010
00000100
00000001
00000010
00000100
00010000
,
00001000
01000000
00100000
10000000
01000000
00100000
00001000
00010000
,
00000010
00001000
00000100
00010000
00001000
01000000
00001000
00010000
,
00000100
00000000
00010000
00000000
00001000
00000000
01000000
00000000
00010000
10000000
00010000
00000000
00100000
00000000
00000000
00000000
,
01000000
00100000
00001000
00021000
00000000
00030100
00000010
00000001
,
00000100
00000010
00010000
00012000
00000000
00003000
01000000
00010000
,
00100000
00010000
10000000
02000000
00000000
03000000
00100000
00000000
,
00110000
00000000
00011000
00000000
00001010
00000000
00001000
00000001
,
00002000
00000000
00000000
00000000
00000000
00000000
00000000
00000000
00003010
00000100
00000010
00000000
00010000
00000000
00001000
00000000
,
00010000
00000000
00000000
00010000
00100000
00000000
10000000
00000000
00100000
00000000
00010000
00000000
00001000
00000000
00000010
00000000
,
00000001
00000000
00000000
00000001
00001000
00000000
00000000
00001000
00010000
00000000
00000000
00010000
10000000
00000000
00000000
00000000
,
01100000
00000000
00000000
00010000
01000000
00000000
10000000
00000000
01000000
00000000
00010000
00000000
00001000
00000000
00000100
00000000
,
00000001
00000000
00000000
00000001
00000100
00000000
00000000
00000100
00000010
00000000
00000001
00000000
00000100
00000000
00000000
00000000
,
00000110
00000000
00000000
00010000
00001000
00000000
00100000
00000000
00001000
00000000
00010000
00000000
00000010
00000000
00010000
00000000
,
00011000
00000000
00000000
00100000
00001000
00000000
00000000
00010000
00000010
00000000
00000000
00001000
00100000
00000000
00000000
00000000
,
01100000
00000000
00000000
10000000
01000000
00000000
00010000
00000000
00001000
00000000
00000010
00000000
00000001
00000000
00001000
00000000
,
00000010
00000000
00000000
00000010
00010000
00000000
00000000
00010000
01000000
00000000
00100000
00000000
00010000
00000000
10000000
00000000
,
02000000
10000000
03100000
01010000
,
10000000
00100000
00010000
00000000
00001000
00000010
00000001
00000000
,
00000010
00000001
00001000
00000100
00010000
00001000
01000000
00000000
,
00100000
00000000
01100000
00000000
00010000
00100000
00001000
00010000
,
00000200
00000010
00001300
00001100
,
00000001
00000100
00001000
00000000
00010000
01000000
10000000
00000000
,
10000000
01000000
00100000
00001000
00010000
00000100
00000010
00000001
,
00000100
00000010
00010000
00001000
01000000
00100000
10000000
00010000
,
02000000
00100000
03010000
00120000
,
00031000
00010020
00001030
00000210
,
00000301
00000000
00000010
00000000
00000010
00000000
00000000
00000000
00000010
00000000
00000000
00000100
00000000
00000000
00010000
00000000
,
00001000
01000000
01000000
00000000
00010000
10000000
00100000
01000000
,
00020000
00100000
01030000
21000000
,
30100000
01002000
00013000
00021000
,
00030010
00000000
00001000
00000000
00000001
00000000
00000000
00000000
00000010
00000000
00000000
00000110
00000000
00000000
00011000
00000000
,
00000000
00000000
01000000
00000000
01000000
00000000
00000000
00000000
00010000
10000000
00010000
00000000
00100000
00000000
00000000
00000000
,
01100000
00100000
00001000
00010000
00000010
00000100
00000001
00000010
,
00000100
00010000
00001000
01000000
00100000
10000000
01000000
00100000
,
00001000
00010000
00000010
00001000
00000100
00010000
00001000
01000000
,
00001000
00000000
00010000
00000000
00000100
00000000
00010000
00000000
00001000
00010000
00001000
00000000
01000000
00000000
00010000
00000000
,
10000000
00100000
01000000
02100000
00000000
03010000
01000000
00001000
,
00010000
00000100
00001000
00000120
00000000
00000031
00001000
00000010
,
00000100
00000001
00000010
00000200
00000000
00010300
00001000
00000000
,
00011000
00000000
00000000
00001000
00100000
00000000
00000000
00100000
01000000
00000000
00000000
00000000
10000000
00000000
00200000
00000000
,
00000000
00000000
00000000
00300000
;

//---------------dance-double - ----------------
#NOTES:
     dance-double:
     :
     Medium:
     6:
     0.369840,0.412821,0.223903,0.209909,0.000000,370.000000,338.000000,32.000000,30.000000,0.000000,0.000000,0.369840,0.412821,0.223903,0.209909,0.000000,370.000000,338.000000,32.000000,30.000000,0.000000,0.000000:
00000000
00000000
00000000
00000000
,
00000000
00000000
00000000
00000000
,
00000000
00000000
00000000
00000000
,
00000000
00000000
00000000
00000000
,
00000100
00000000
00000010
00000001
00000100
00000001
00000010
00000000
,
00021000
00100000
00001000
00100000
,
00031000
00000000
01000000
00010000
10000000
01000000
00100000
00000000
,
00012000
00000100
00010000
00000100
,
00013000
00001000
00010000
00000000
00000020
00000000
00000130
00000000
,
00000001
00000100
00000001
00000000
00002000
00000000
00003100
00000000
,
00010000
00001000
01000000
00000000
00100000
00000000
10000000
00000000
,
01000000
00000000
01100000
00000000
00100000
00001000
00010000
00000000
,
00000010
00001000
00000010
00000000
00000200
00000000
00000301
00000000
,
00000010
00000001
00000010
00000000
00000200
00000000
00001300
00000000
,
00001000
01000000
00010000
00000000
10000000
00000000
00010000
00000000
,
00100000
00000000
01100000
00000000
01000000
10000000
00010000
00000000
,
00100000
00000000
00011000
00000000
00000010
00000000
00010000
00001000
,
00000000
00011000
00000000
01010000
00000000
10000000
00100000
01000000
,
00000000
01100000
00000000
00001000
00000000
00010000
00000010
00000100
,
00000000
00000110
00000000
00000001
00000010
00000000
00000110
00000000
,
00010000
00000000
00011000
00000000
01000000
00000000
00100000
10000000
,
00000000
10010000
00000000
00100000
00010000
00000000
01000000
00001000
,
00010000
00000000
00011000
00000000
00000010
00000000
00000100
00000001
,
00001000
00000100
00000000
00000010
00000000
00000000
00001001
00000000
,
00000200
00010000
00000300
00011000
,
00200000
01000000
00300000
01100000
,
10000000
00000000
00100000
00000000
01000000
00001000
00010000
00000200
,
00000000
00000000
00000000
00000300
00000000
00000000
00000010
00000001
,
00000200
00000010
00000300
00000110
,
00020000
00001000
00030000
00011000
,
01000000
00000000
00100000
00000000
10000000
00010000
01000000
00100000
,
10000000
00000000
01000000
00000000
00100000
01000000
00100000
00000000
,
00001000
00010000
00001000
00010000
00000000
00000010
00000100
00000010
,
00000100
00000001
00000000
00001000
00000000
00000000
00000100
00010000
,
00000100
00010000
00000000
00001000
00000000
00000000
01000000
00001000
,
01000000
00010000
01000000
00100000
00000000
00000000
00000000
00000000
,
10000000
01000000
00100000
00010000
00000000
00100000
00001000
00100000
,
00001000
00010000
00000000
00001000
00000000
00000000
00010000
00000010
,
00000100
00000000
00000001
00000020
00000000
00000000
00000130
00000000
,
00010000
00000000
00001000
00000000
01000000
00000000
00100000
20000000
,
00000000
30000000
00000000
00000000
,
10010000
00000000
00100000
10000000
00100000
00010000
01000000
00000000
,
00002000
00023000
00030010
00000110
,
00000001
00000000
00001000
00000100
00000010
00000100
00010000
00000000
,
00000200
00000000
00020300
00000000
00032000
00000000
01003000
00010000
,
10000000
00000000
00100000
10000000
01000000
00100000
01000000
00000000
,
00100000
00001000
00100000
00001000
00010000
00000010
00010000
00000010
,
00001000
00000000
00000100
00001000
00000010
00000100
00000001
00000000
,
00002001
00000000
00003100
00000000
00010000
00001000
01000000
00010000
,
00200000
00010000
01300000
01100000
,
00010000
01010000
10000000
11000000
,
00010000
00101000
00001000
00010010
,
00000100
00000000
00000110
00000000
00000001
00001000
00000010
00000100
,
00000001
00000011
00001000
00001010
,
00000100
00000101
00010000
00011000
,
01000000
00010000
01000000
00000000
00100000
10000000
00100000
00000000
,
00010000
00000000
10000000
00000000
00010000
01000000
00100000
10000000
,
02000000
03100000
00002000
00013000
,
00000020
00000130
00000002
00000013
,
00000100
00010000
00001000
00000000
01000000
00100000
01000000
00000000
,
00010000
10000000
01000000
00000000
00100000
00010000
01000000
00000000
,
00002000
00103000
00020000
01030000
,
00200000
01300000
00002000
00013000
,
00000010
00001000
00000010
00000000
00000100
00000001
00001000
00000000
,
00000100
00000000
00010000
00000000
00001000
01000000
00010000
00000000
,
10000000
00100000
10000000
00100000
00000000
01000000
00010000
01000000
,
00010000
00100000
00000000
00001000
00000000
00000000
00010000
00000010
,
00010000
00001000
00000000
00010000
00000000
00000010
00001000
00000010
,
00000100
00000001
00000100
00000001
00000000
00000000
00000000
00000000
,
00000010
00000001
00000010
00000001
00000000
00001000
00000100
00001000
,
00000100
00010000
00000000
00001000
00000000
00000000
01000000
00001000
,
00010000
00000000
00001000
00200000
00000000
00300000
01000000
00000000
,
01100000
00000000
10000000
00000000
00100000
00000000
01000000
00020000
,
00000000
00000000
00000000
00030000
;

//---------------dance-double - ----------------
#NOTES:
     dance-double:
     :
     Easy:
     4:
     0.245894,0.283815,0.041982,0.265885,0.000000,246.000000,240.000000,6.000000,38.000000,0.000000,0.000000,0.245894,0.283815,0.041982,0.265885,0.000000,246.000000,240.000000,6.000000,38.000000,0.000000,0.000000:
// measure 0
00000000
00000000
00000000
00000000
,  // measure 1
00000000
00000000
00000000
00000000
,  // measure 2
00000000
00000000
00000000
00000000
,  // measure 3
00000000
00000000
00000000
00000000
,  // measure 4
00000010
00001000
00000100
00010000
,  // measure 5
00002000
01000000
01000000
01003000
,  // measure 6
00100000
01000000
00001000
00010000
,  // measure 7
00000020
00000100
00000100
00000130
,  // measure 8
00000001
00002000
00003000
00000010
,  // measure 9
00001000
00000020
00000030
00010000
,  // measure 10
00001000
00020000
00030000
00001000
,  // measure 11
01000000
00100000
10000000
00010000
,  // measure 12
01000000
00200000
00300000
10000000
,  // measure 13
01000000
20000000
30000000
00010000
,  // measure 14
00100000
00002000
00003000
00010000
,  // measure 15
00000100
00000010
00000001
00000100
,  // measure 16
00000001
00001000
00000010
00000100
,  // measure 17
00000001
00000001
00000010
00000010
,  // measure 18
00000100
00000100
00010000
00010000
,  // measure 19
00001000
00001000
01000000
01000000
,  // measure 20
00100000
10000000
01000000
01000000
,  // measure 21
00100000
00100000
00001000
00001000
,  // measure 22
00010000
00010000
00000010
00000010
,  // measure 23
00000100
00000001
00001000
00000010
,  // measure 24
00000200
00000301
00000000
00001001
,  // measure 25
00000020
00010030
00000000
00011000
,  // measure 26
00000100
00010000
00001000
01000000
,  // measure 27
00010000
00000000
10000000
00100000
,  // measure 28
02000000
03010000
00000000
10010000
,  // measure 29
00200000
00301000
00000000
00011000
,  // measure 30
00000010
00001000
00000001
00000010
,  // measure 31
00000100
00000000
00000000
00000000
,  // measure 32
00001000
00000010
00000100
00000001
,  // measure 33
00001000
00000100
00010000
00001000
,  // measure 34
01000000
00001000
00010000
00000100
,  // measure 35
00001000
00000010
00000100
00000000
,  // measure 36
00000010
00010000
00001000
00100000
,  // measure 37
00010000
01000000
00010000
10000000
,  // measure 38
01000000
00100000
00010000
01000000
,  // measure 39
00001000
00010000
00000010
00010000
,  // measure 40
00001000
00000000
00000000
00000000
,  // measure 41
01000000
00100000
10000000
00010000
,  // measure 42
02000000
03002000
02003000
03002000
,  // measure 43
00013000
00000010
00000100
00000010
,  // measure 44
00020000
00030200
00020300
00030200
,  // measure 45
00001300
00001100
00011000
01000000
,  // measure 46
00020000
00130000
20000000
31000000
,  // measure 47
00100000
00001000
00010000
00000010
,  // measure 48
00000200
00000302
00000203
00000302
,  // measure 49
00000013
00000100
00010000
00001000
,  // measure 50
02000000
00000000
03200000
00000000
,  // measure 51
20300000
00000000
00000000
00000000
,  // measure 52
30000000
00000000
00010000
10000000
,  // measure 53
01000000
00100000
00001000
00010000
,  // measure 54
00000020
00000000
00000230
00000000
,  // measure 55
00000302
00000000
00000000
00000000
,  // measure 56
00000003
00000000
00000010
00000100
,  // measure 57
00010000
00010000
00001000
00001000
,  // measure 58
00100000
00010000
00100000
00100000
,  // measure 59
02000000
00000000
23000000
00000000
,  // measure 60
30020000
00000000
01030000
00001000
,  // measure 61
00100000
00001000
00010000
00000010
,  // measure 62
00000100
00000100
00000001
00000001
,  // measure 63
00000020
00000000
00000230
00000000
,  // measure 64
00010300
00001000
01000000
00010000
,  // measure 65
10000000
00100000
01000000
00001000
,  // measure 66
00010000
00000010
00000100
00000001
,  // measure 67
00000010
00000100
00010000
00001000
,  // measure 68
00100000
01000000
10000000
00010000
,  // measure 69
01000000
00001000
00010000
00000100
,  // measure 70
00010000
00001000
01000000
00010000
,  // measure 71
10000000
01000000
00100000
00001000
,  // measure 72
00010000
00000010
00000001
00000100
,  // measure 73
00000020
00000000
00000000
00000030
;
