#VERSION:0.83;
#TITLE:A Sky Full Of Stars;
#SUBTITLE:;
#ARTIST:Coldplay;
#TITLETRANSLIT:;
#SUBTITLETRANSLIT:;
#ARTISTTRANSLIT:;
#GENRE:Ghost Stories Live 2014;
#ORIGIN:;
#CREDIT:;
#BANNER:A Sky Full Of Stars-bn.png;
#BACKGROUND:A Sky Full Of Stars-bg.png;
#PREVIEWVID:;
#JACKET:A Sky Full Of Stars-jacket.png;
#CDIMAGE:;
#DISCIMAGE:;
#LYRICSPATH:;
#CDTITLE:;
#MUSIC:A Sky Full Of Stars.mp3;
#OFFSET:-0.787000;
#SAMPLESTART:100.643021;
#SAMPLELENGTH:13.439995;
#SELECTABLE:YES;
#DISPLAYBPM:125.000000;
#BPMS:0.000=125.000,
140.000=62.500,
142.000=125.000;
#STOPS:;
#DELAYS:;
#WARPS:;
#TIMESIGNATURES:0.000=4=4,
140.000=2=4,
142.000=4=4;
#TICKCOUNTS:0.000=4;
#COMBOS:0.000=1;
#SPEEDS:0.000=1.000=0.000=0;
#SCROLLS:0.000=1.000;
#FAKES:;
#LABELS:0.000=Song Start;
#LASTSECONDHINT:135.223022;
#BGCHANGES:;
#KEYSOUNDS:;
#ATTACKS:
;

//---------------dance-single - ----------------
#NOTEDATA:;
#CHARTNAME:;
#STEPSTYPE:dance-single;
#DESCRIPTION:;
#CHARTSTYLE:;
#DIFFICULTY:Hard;
#METER:8;
#RADARVALUES:0.385043,0.485864,0.212787,0.808591,0.124126,380.000000,350.000000,30.000000,114.000000,0.000000,0.000000,0.000000,0.000000,0.000000,0.385043,0.485864,0.212787,0.808591,0.124126,380.000000,350.000000,30.000000,114.000000,0.000000,0.000000,0.000000,0.000000,0.000000;
#CREDIT:;
#DISPLAYBPM:125.000000;
#NOTES:
// measure 0
0000
0000
0000
0000
,  // measure 1
0000
0000
0000
0000
,  // measure 2
0000
0000
0000
0000
,  // measure 3
0000
0000
0000
0000
,  // measure 4
0000
0000
0000
0000
0000
1000
0001
1000
,  // measure 5
0200
0000
0000
0000
0000
1300
0001
1000
,  // measure 6
0200
0000
0000
0000
0000
0310
0001
2000
,  // measure 7
0000
0000
0000
0000
,  // measure 8
3020
0000
0000
0000
0030
0100
0001
0100
,  // measure 9
0020
0000
0000
0000
0000
1030
0100
2000
,  // measure 10
0000
0000
0000
0000
,  // measure 11
3002
0000
0000
0000
,  // measure 12
0103
0000
0000
0001
0000
0000
1000
0000
0000
0000
0010
0000
1000
0000
0100
0000
,  // measure 13
0010
0000
0000
0100
0000
0000
1000
0000
0000
0000
0100
0000
0010
0000
0001
0000
,  // measure 14
0100
0000
0000
0010
0000
0000
1000
0000
0000
0000
0010
0000
0100
0000
0001
0000
,  // measure 15
1000
0000
0000
0001
0000
0000
0100
0000
0000
0000
0001
0000
0010
0000
0100
0000
,  // measure 16
1000
0000
0000
0010
0000
0000
0100
0000
0000
0000
0010
0000
1000
0000
0100
0000
,  // measure 17
0010
0000
0000
0001
0000
0000
1000
0000
0000
0000
0001
0000
1000
0000
0001
0000
,  // measure 18
0100
0000
0000
0010
0000
0000
1000
0000
0000
0000
0100
0000
1000
0000
0001
0000
,  // measure 19
0100
0000
0000
0010
0000
0000
1000
0000
0000
0000
0010
0000
1000
0000
0010
0000
,  // measure 20
2001
0000
0000
0100
0000
0000
3001
0000
0000
0000
0100
0000
0010
0000
0100
0000
,  // measure 21
0002
0000
0000
0100
0000
0000
1003
0000
0000
0000
0100
0000
0010
0000
0100
0000
,  // measure 22
2000
0000
0000
0010
0000
0000
3001
0000
0000
0000
0100
0000
0010
0000
0100
0000
,  // measure 23
0002
0000
0000
0010
0000
0000
1003
0000
0000
0000
0100
0000
0010
0000
0100
0000
,  // measure 24
1000
0000
0000
1010
0000
0000
1001
0000
0000
0000
1000
0000
0001
0000
0100
0000
,  // measure 25
0001
0000
0000
0011
0000
0000
1001
0000
0000
0000
0001
0000
1000
0000
0100
0000
,  // measure 26
1000
0000
0000
0110
0000
0000
1001
0000
0000
0000
0100
0000
0010
0000
1000
0000
,  // measure 27
0001
0000
0000
0110
0000
0000
1001
0000
0000
0000
1000
0000
0001
0000
0100
0000
,  // measure 28
0010
0000
0000
1010
0000
0000
0101
0000
0000
0000
0001
0000
0100
0000
0001
0000
,  // measure 29
0010
0000
0000
0011
0000
0000
1100
0000
0000
0000
0100
0000
1000
0000
0100
0000
,  // measure 30
1001
0000
0000
0110
0000
0000
1001
0000
0000
0000
0001
0000
1000
0000
0100
0000
,  // measure 31
1100
0000
0000
0101
0000
0000
1001
0000
0000
0000
0010
0000
0001
0000
0100
0000
,  // measure 32
0101
0000
0000
1100
0000
0000
1001
0000
0000
0000
0010
0000
1000
0000
0010
0000
,  // measure 33
0100
0000
0000
0010
0000
0000
1010
0000
0000
0000
1000
0000
0100
0000
0010
0000
,  // measure 34
0001
0000
0000
0010
0000
0000
0011
0000
0000
0000
0010
0000
0001
0000
0010
0000
,  // measure 35
0100
0000
0000
0000
0000
0000
0000
0000
1001
0000
0000
1000
0000
0000
0001
0000
,  // measure 36
0000
0000
0100
0000
0001
0000
0010
0000
0100
0000
0000
0010
0000
0000
0001
0000
,  // measure 37
0000
0000
1000
0000
0010
0000
0100
0000
0001
0000
0000
0100
0000
0000
1000
0000
,  // measure 38
0000
0000
0010
0000
1000
0000
0100
0000
0010
0000
0000
0001
0000
0000
1000
0000
,  // measure 39
0000
0000
0010
0000
1000
0000
0100
0000
0010
0000
0000
0100
0000
0000
1000
0000
,  // measure 40
0000
0000
0100
0000
0010
0000
0001
0000
1000
0000
0000
0100
0000
0000
0010
0000
,  // measure 41
0000
0000
0001
0000
0100
0000
0010
0000
1000
0000
0000
0010
0000
0000
0100
0000
,  // measure 42
0000
0000
0001
0000
1000
0000
0100
0000
1000
0000
0000
0010
0000
0000
0001
0000
,  // measure 43
0000
0010
0001
0100
0110
0000
0000
0200
,  // measure 44
0302
0023
0230
2300
3000
0000
0000
0200
,  // measure 45
2300
3020
0230
0302
0003
0000
0000
0020
,  // measure 46
0230
2300
3002
0203
0300
0000
0000
0002
,  // measure 47
0023
0000
0230
0000
2300
0000
3200
0000
0310
0000
0000
0001
0000
0000
0200
0000
,  // measure 48
0320
0000
2030
0000
3200
0000
0320
0000
0031
0000
0000
0100
0000
0000
0002
0000
,  // measure 49
2003
0000
3020
0000
0230
0000
0302
0000
0013
0000
0000
0100
0000
0000
2000
0000
,  // measure 50
3200
0000
0320
0000
0032
0000
0203
0000
0310
0000
0000
1000
0000
0000
0020
0000
,  // measure 51
0230
0302
2003
3200
0320
0032
2003
3200
,  // measure 52
0320
0230
2300
3020
0230
0302
0023
2030
,  // measure 53
3020
0032
0203
0320
2030
3200
0302
0203
,  // measure 54
2300
3020
0230
0302
0023
0230
2300
3200
,  // measure 55
0320
0032
0203
0320
2030
0000
0000
0000
,  // measure 56
0000
3010
0001
0020
0000
1000
0000
0100
,  // measure 57
0000
2030
3200
2300
0000
3200
0320
0032
,  // measure 58
2003
3020
0230
0302
0023
0032
0203
0320
,  // measure 59
2030
3200
0320
0032
0203
0000
0000
0000
,  // measure 60
0000
1300
0100
0002
0000
0010
0000
0100
,  // measure 61
0000
0023
0032
0203
0310
0000
2010
0000
,  // measure 62
3010
2010
3010
2010
,  // measure 63
3010
0100
2002
0000
3003
0000
0100
0000
,  // measure 64
0001
0000
1000
0010
0001
0000
1000
0000
,  // measure 65
0100
0000
0001
0010
1000
0000
0001
0000
,  // measure 66
0100
0000
1000
0010
0001
0000
1000
0000
,  // measure 67
0100
0000
0010
0100
2000
0000
0000
0000
,  // measure 68
0000
0000
3000
0000
;

//---------------dance-single - ----------------
#NOTEDATA:;
#CHARTNAME:;
#STEPSTYPE:dance-single;
#DESCRIPTION:;
#CHARTSTYLE:;
#DIFFICULTY:Medium;
#METER:6;
#RADARVALUES:0.230013,0.291518,0.049650,0.148951,0.046104,227.000000,220.000000,7.000000,21.000000,0.000000,0.000000,0.000000,0.000000,0.000000,0.230013,0.291518,0.049650,0.148951,0.046104,227.000000,220.000000,7.000000,21.000000,0.000000,0.000000,0.000000,0.000000,0.000000;
#CREDIT:;
#DISPLAYBPM:125.000000;
#NOTES:
0000
0000
0000
0000
,
0000
0000
0000
0000
,
0000
0000
0000
0000
,
0000
0000
0000
0000
,
0000
0000
0000
0000
0000
1000
0001
1000
,
0002
0000
0000
0000
0003
0100
0010
0100
,
0020
0000
0000
0000
0030
1000
0001
2000
,
0000
0000
0000
0000
,
3000
0000
0000
0000
0000
0100
0010
0100
,
0020
0000
0000
0000
0030
0001
1000
0002
,
0000
0000
0000
0000
,
2003
0000
0000
0000
,
3010
0000
0000
0010
0000
0000
0100
0000
,
0001
0000
0000
0001
0000
0000
1000
0000
,
0100
0000
0000
0100
0000
0000
0010
0000
,
0001
0000
0000
0100
0000
0000
0010
0000
,
1000
0000
0000
1000
0000
0000
0100
0000
,
0010
0000
0000
0010
0000
0000
0001
0000
,
0100
0000
0000
0100
0000
0000
0001
0000
,
1000
0000
0000
1000
0000
0000
0010
0000
,
0100
0000
0000
0100
0000
0000
0010
0000
,
1000
0000
0000
0100
0000
0000
0010
0000
,
0001
0000
0000
0001
0000
0000
1000
0000
,
0100
0000
0000
0010
0000
0000
0001
0000
,
1000
0000
0000
1000
0000
0000
0010
0000
,
0100
0000
0000
0001
0000
0000
0010
0000
,
0100
0000
0000
0100
0000
0000
1000
0000
,
0001
0000
0000
0100
0000
0000
0010
0000
,
1000
0000
0000
1000
0000
0000
0001
0000
,
0010
0000
0000
0010
0000
0000
0100
0000
,
1000
0000
0000
1000
0000
0000
0010
0000
,
0100
0000
0001
1000
,
0200
0000
0000
0310
,
0002
0000
0000
1003
,
0200
0000
0000
0000
,
0300
0000
0000
0000
0000
0000
0000
0000
1000
0000
0000
1000
0000
0000
1000
0000
,
0000
0000
0010
0000
0000
0000
0100
0000
0001
0000
0000
0001
0000
0000
0001
0000
,
0000
0000
0010
0000
0000
0000
0100
0000
1000
0000
0000
1000
0000
0000
1000
0000
,
0000
0000
0100
0000
0000
0000
0010
0000
0001
0000
0000
0001
0000
0000
0001
0000
,
0000
0000
0100
0000
0000
0000
0010
0000
1000
0000
0000
1000
0000
0000
0000
1000
,
0000
0000
0010
0000
0000
0000
0100
0000
0001
0000
0000
0001
0000
0000
0001
0000
,
0000
0000
0010
0000
0000
0000
0100
0000
1000
0000
0000
1000
0000
0000
1000
0000
,
0000
0000
0010
0000
0000
0000
1000
0000
0001
0000
0000
0001
0000
0000
0001
0000
,
0000
0100
0000
0010
1000
0000
0000
0100
,
0010
0000
0001
0000
0100
0000
0000
0010
,
1000
0000
0001
0000
0100
0000
0000
0001
,
0010
0000
0100
0000
1000
0000
0000
0100
,
0010
0000
0000
0000
0001
0000
0000
0000
0100
0000
0000
0001
0000
0000
1000
0000
,
0100
0000
0000
0000
0010
0000
0000
0000
0100
0000
0000
1000
0000
0000
0010
0000
,
0100
0000
0000
0000
0001
0000
0000
0000
0010
0000
0000
0100
0000
0000
1000
0000
,
0001
0000
0000
0000
0100
0000
0000
0000
0010
0000
0000
1000
0000
0000
0100
0000
,
0010
0001
0100
0001
,
0010
0100
0010
0200
0000
0000
1000
0000
,
1300
0010
0100
0020
0000
0000
0100
0000
,
0130
0001
1000
0002
0000
0000
0013
0001
,
0010
0011
2002
0000
,
3003
0010
0100
0020
0000
0000
0000
0000
,
0030
1000
0001
2000
0000
0000
0000
0000
,
3000
0000
0000
0100
,
0010
1100
2002
0000
,
3003
0010
0100
0020
0000
0000
0000
0000
,
0030
0001
1000
0002
0000
0000
0000
0000
,
0003
1001
0000
0110
,
0000
1001
0000
0001
,
0010
0000
0001
0100
0001
0000
1000
0000
,
0010
0000
1000
0100
1000
0000
0001
0000
,
0010
0000
0001
0100
0001
0000
1000
0000
,
0010
0000
1000
0100
2000
0000
0000
0000
,
0000
0000
3000
0000
;

//---------------dance-single - ----------------
#NOTEDATA:;
#CHARTNAME:;
#STEPSTYPE:dance-single;
#DESCRIPTION:;
#CHARTSTYLE:;
#DIFFICULTY:Easy;
#METER:3;
#RADARVALUES:0.169216,0.239385,0.014186,0.163137,0.000000,167.000000,165.000000,2.000000,23.000000,0.000000,0.000000,0.000000,0.000000,0.000000,0.169216,0.239385,0.014186,0.163137,0.000000,167.000000,165.000000,2.000000,23.000000,0.000000,0.000000,0.000000,0.000000,0.000000;
#CREDIT:;
#DISPLAYBPM:125.000000;
#NOTES:
0000
0000
0000
0000
,
0000
0000
0000
0000
,
0000
0000
0000
0000
,
0000
0000
0000
0000
,
0000
0000
0000
0010
,
2000
0000
3000
0100
,
0002
0000
0003
0100
,
2000
0000
3000
0000
,
0010
0000
0000
0100
,
2000
0000
3000
0100
,
0002
0000
0003
0000
,
0010
0000
0100
0000
,
1000
1000
1000
0100
,
0001
0001
0001
0100
,
1000
1000
1000
0100
,
0001
0000
1000
0000
,
0100
0100
0100
0010
,
0001
0001
0001
0010
,
0100
0100
0100
0100
,
1000
1000
1000
1000
,
1001
0000
0000
1000
,
0020
0000
0030
1000
,
0020
0000
0030
0100
,
0002
0000
0003
0000
,
0020
0000
0030
0100
,
2000
0000
3000
0001
,
0200
0000
0300
0010
,
2000
0000
3000
0000
,
0020
0000
0030
1000
,
0002
0000
0003
0100
,
0020
0000
0030
1000
,
0002
0000
0013
0100
,
0020
0000
0030
0001
,
2000
0000
3000
0010
,
0200
0000
0000
0000
,
0300
0000
1001
0000
,
0000
0010
0001
0000
,
0010
0100
1000
0000
,
0000
0010
0100
0000
,
0010
1000
0100
0000
,
0000
0010
0001
0000
,
1000
0001
0100
0000
,
0000
0010
1000
0000
,
0001
0010
0100
0000
,
1000
0001
0100
0000
,
0010
1000
0100
0000
,
0010
0001
1000
0000
,
0001
0100
0010
0000
,
1000
0100
0010
0000
,
0001
1000
0001
0000
,
0100
0010
1000
0000
,
0010
0100
0001
0000
,
1000
0001
0100
0100
,
0010
0100
0001
0001
,
0010
0100
1000
0010
,
0100
0001
2000
0000
,
0000
3010
0002
0000
,
0000
0013
0100
0010
,
0100
0000
1000
0100
,
0010
0001
2000
0000
,
0000
3100
0002
0000
,
0000
0103
1000
0100
,
0001
0100
1000
0100
,
0001
0010
0000
0000
,
0001
1000
0100
0000
,
0001
1000
0001
0000
,
0001
1000
0100
0000
,
0001
1000
0001
0000
;

//---------------dance-single - ----------------
#NOTEDATA:;
#CHARTNAME:;
#STEPSTYPE:dance-single;
#DESCRIPTION:;
#CHARTSTYLE:;
#DIFFICULTY:Beginner;
#METER:1;
#RADARVALUES:0.098287,0.167570,0.014186,0.000000,0.000000,97.000000,95.000000,2.000000,0.000000,0.000000,0.000000,0.000000,0.000000,0.000000,0.098287,0.167570,0.014186,0.000000,0.000000,97.000000,95.000000,2.000000,0.000000,0.000000,0.000000,0.000000,0.000000,0.000000;
#CREDIT:;
#DISPLAYBPM:125.000000;
#NOTES:
0000
0000
0000
0000
,
0000
0000
0000
0000
,
0000
0000
0000
0000
,
0000
0000
0000
0000
,
0000
0000
0000
0000
,
1000
0000
0000
0000
,
1000
0000
0000
0000
,
0100
0000
0000
0000
,
0010
0000
0000
0000
,
0001
0000
0000
0000
,
0100
0000
0000
0000
,
0001
0000
0000
0000
,
0010
0000
0000
0000
,
0100
0000
0000
0000
,
1000
0000
0000
0000
,
0001
0000
0000
0000
,
0100
0000
0000
0000
,
0010
0000
0000
0000
,
1000
0000
0000
0000
,
0100
0000
0000
0000
,
0010
0000
0000
0000
,
0100
0000
0000
0000
,
0001
0000
0000
0000
,
0100
0000
0000
0000
,
0010
0000
0000
0000
,
1000
0000
0000
0000
,
0100
0000
0000
0000
,
0010
0000
0000
0000
,
1000
0000
0000
0000
,
0001
0000
0000
0000
,
0010
0000
0000
0000
,
0100
0000
0000
0000
,
1000
0000
0000
0000
,
0001
0000
0000
0000
,
0100
0000
0000
0000
,
0000
0000
0010
0000
,
0000
1000
1000
0000
,
0000
0100
0100
0000
,
0000
0010
0010
0000
,
0000
0001
0001
0000
,
0000
0100
0100
0000
,
0000
0010
0010
0000
,
0000
1000
1000
0000
,
0001
0000
0001
0000
,
0100
0000
0100
0000
,
0010
0000
0010
0000
,
1000
0000
1000
0000
,
0100
0000
0100
0000
,
0010
0000
0010
0000
,
0001
0000
0001
0000
,
1000
0000
1000
0000
,
0010
0000
0100
0000
,
0001
0000
0010
0000
,
0100
0000
1000
0000
,
0100
0000
0010
0000
,
0001
0000
1001
0000
,
0000
0100
0100
0000
,
0000
0001
0001
0000
,
0000
1000
1000
0000
,
0000
0010
0010
0000
,
0000
0100
0100
0000
,
0000
0001
0001
0001
,
0000
1000
0000
0001
,
0000
1001
0000
0000
,
0100
0000
0001
0000
,
0100
0000
1000
0000
,
0100
0000
0001
0000
,
0100
0000
1000
0000
;
