#TITLE:A Little Party Never Killed Nobody;
#SUBTITLE:;
#ARTIST:Fergie ft. Q-Tip & Goonrock;
#TITLETRANSLIT:;
#SUBTITLETRANSLIT:;
#ARTISTTRANSLIT:;
#GENRE:The Great Gatsby;
#CREDIT:;
#BANNER:A Little Party Never Killed Nobody-bn.png;
#BACKGROUND:A Little Party Never Killed Nobody-bg.png;
#LYRICSPATH:;
#CDTITLE:;
#MUSIC:A Little Party Never Killed Nobody.mp3;
#OFFSET:-0.458000;
#SAMPLESTART:29.555687;
#SAMPLELENGTH:22.153847;
#LASTBEATHINT:292.000000;
#SELECTABLE:YES;
#BPMS:0.000000=130.000000
;
#STOPS:11.000000=1.385000,
152.750000=0.923081
;
#BGCHANGES:-1.000=A Little Party Never Killed Nobody-video.avi=1.000=1=0=0=StretchNoLoop==CrossFade==,
99999=-nosongbg-=1.000=0=0=0 // don't automatically add -songbackground-
;
#KEYSOUNDS:;
#ATTACKS:;

//---------------dance-single - ----------------
#NOTES:
     dance-single:
     :
     Challenge:
     9:
     0.483454,0.627854,0.170990,0.227987,0.466660,475.000000,451.000000,24.000000,32.000000,0.000000,0.000000,0.483454,0.627854,0.170990,0.227987,0.466660,475.000000,451.000000,24.000000,32.000000,0.000000,0.000000:
// measure 0
0000
0000
0000
0000
,  // measure 1
0000
0000
0000
0000
,  // measure 2
0000
0000
0000
0000
,  // measure 3
0100
0001
0100
1000
0100
0020
0030
0020
,  // measure 4
0130
0001
0100
1000
0100
0002
0003
2000
,  // measure 5
3100
0001
0100
1000
0100
0020
0030
0020
,  // measure 6
0130
0000
1000
0000
0100
0000
0001
0000
0100
0000
2000
0000
3000
0001
0100
0000
,  // measure 7
0010
1000
0010
0001
0010
0200
0300
0200
,  // measure 8
0301
0010
1000
0010
0100
2000
3000
0002
,  // measure 9
0103
0010
1000
0001
0100
0020
0030
0020
,  // measure 10
1030
0100
0001
0100
0010
0002
0003
1000
,  // measure 11
0010
1000
0000
0001
0000
1000
0000
0001
0000
0010
0000
0100
0000
0010
0000
0100
,  // measure 12
1000
0100
0000
1000
0000
0010
0000
1000
0000
0001
0000
1000
0000
0010
0000
1000
,  // measure 13
0001
1000
0000
0100
0000
0010
0000
0001
0000
0100
0000
0010
0000
1000
0000
0001
,  // measure 14
0100
0001
0000
1000
0000
0010
0000
0100
0001
0000
0010
0000
0100
1000
0001
0000
,  // measure 15
0100
0000
0000
0000
0001
0000
0000
1000
0000
0000
0010
0000
0000
0100
0000
0000
,  // measure 16
0101
0000
0000
0000
1000
0000
0000
0010
0000
0000
1000
0000
0000
0100
0000
0000
,  // measure 17
1001
0000
0000
0000
0010
1000
0000
0001
0000
0000
0100
0000
0010
0000
0100
0000
,  // measure 18
0001
0000
0000
0000
1000
0000
0000
0100
0000
0000
0010
0000
0000
0001
0000
0000
,  // measure 19
1000
0000
0000
0000
0010
0000
0000
1000
0000
0000
0010
0000
0000
0100
0000
0000
,  // measure 20
0110
0000
0000
0000
1000
0000
0000
0001
0000
0000
0100
0000
0000
0010
0000
0000
,  // measure 21
1000
0100
0001
0100
1000
0000
0001
1000
,  // measure 22
0010
0000
1000
0100
0010
0001
0100
0010
,  // measure 23
1001
0000
0000
1000
0010
1000
0000
0001
0000
1000
0000
0000
0100
0000
0010
0000
,  // measure 24
0001
0000
0000
0000
1000
0000
0000
0001
0000
0000
0100
0000
0000
0010
0000
0000
,  // measure 25
0100
0000
0000
0001
1000
0001
0000
1000
0000
0000
0010
0000
0100
0000
0001
0000
,  // measure 26
1000
0000
0000
0000
0001
0000
0000
0010
0000
0000
0110
0000
0000
1100
0000
0000
,  // measure 27
1001
0000
0000
0001
0010
0001
0000
1000
0000
0001
0000
0000
0100
0000
0010
0000
,  // measure 28
2010
0001
0100
0010
,  // measure 29
3001
1000
0001
1000
0010
0000
0100
1000
,  // measure 30
0200
0000
0000
0000
0300
0000
0100
1000
,  // measure 31
0011
0000
0001
0010
0001
0000
0001
0100
,  // measure 32
1001
0000
0001
0100
0001
0000
0001
0010
,  // measure 33
1001
0000
1000
0010
1000
0000
1000
0100
,  // measure 34
1001
0000
0000
0000
0001
0000
0010
0000
0001
1000
0000
0000
0010
0000
1000
0000
,  // measure 35
0001
0000
0000
0001
0000
0000
0001
0000
0010
0000
0000
0010
0000
0000
0010
0000
,  // measure 36
0100
0000
0000
0100
0000
0000
0100
0000
1000
0000
0000
1000
0000
0000
1000
0000
,  // measure 37
0010
0000
0000
0100
0000
0000
0001
0000
0010
0000
0000
0100
0000
0000
1000
0000
,  // measure 38
0010
0000
0000
0100
0000
0000
0000
0000
0100
0000
0001
0000
0100
0000
0001
0000
,  // measure 39
1000
0200
0300
0200
1300
0010
1000
0010
,  // measure 40
0100
0000
0100
0000
0001
0010
0001
0010
,  // measure 41
1000
0000
0000
0020
0000
0000
0030
0000
0000
0020
0000
0000
1030
0000
0000
0100
0000
0000
1000
0000
0100
0000
0001
0000
,  // measure 42
0010
0000
0000
0000
0010
0000
0000
0000
0001
0000
0100
0001
1000
0000
0010
0000
,  // measure 43
0100
0001
0000
1000
0000
0010
0100
0000
0010
0000
1000
0000
0100
0000
0010
0000
,  // measure 44
0001
1000
0000
0010
0000
0100
0001
0000
0010
0000
0100
1000
0100
0000
0010
0001
,  // measure 45
1000
0000
0001
0100
0000
0000
0010
1000
0010
0000
0100
0001
1000
0000
0010
1000
,  // measure 46
0001
0010
0000
0100
0000
0000
0000
0000
1000
0000
0010
0000
0100
0000
0001
1000
,  // measure 47
0001
0000
0010
0100
0000
0000
1000
0001
1000
0000
0010
1000
0001
0000
0100
0010
,  // measure 48
0100
0001
1000
0001
0000
0000
0010
0100
0010
0001
1000
0001
0100
0000
0001
1000
,  // measure 49
0010
0000
1000
0001
0000
0000
1000
0100
1000
0000
0010
0000
0100
0000
0001
0000
,  // measure 50
0010
0100
0000
1000
0010
0100
0001
0010
0100
0000
0000
0000
0000
0000
2002
0000
,  // measure 51
0000
3003
1000
0010
0100
0001
0010
0000
0100
0000
0000
0000
0000
0000
2002
0000
,  // measure 52
0000
3003
0000
0000
0001
0010
0020
0001
,  // measure 53
0031
0000
1000
0000
2000
0000
0010
0000
3010
1000
0001
0100
0010
0000
0100
0000
,  // measure 54
0101
0000
1010
0110
0101
0000
0000
0010
,  // measure 55
0100
0000
0000
1000
0000
0000
0000
0000
0001
0000
1000
0010
0100
0001
0010
0000
,  // measure 56
0110
0000
0000
1001
0000
0000
0000
0000
1000
0000
0010
0100
0001
0000
1000
0000
,  // measure 57
0100
0000
0000
0000
0010
0000
0001
0000
1000
0000
0000
0010
0100
0000
0100
0000
,  // measure 58
0001
0000
0000
1000
0100
0000
0000
0000
2200
0000
0000
0000
0000
0000
0000
0000
,  // measure 59
0000
3300
0022
0000
,  // measure 60
0000
0033
0000
0000
,  // measure 61
0000
0000
0000
0000
,  // measure 62
0000
0000
0000
0000
0000
0000
0000
0000
1001
0000
0000
1000
0010
0100
0000
0001
,  // measure 63
0000
1000
0000
0000
0100
0000
1000
0000
0010
0000
0000
0000
0100
0000
0000
0001
,  // measure 64
0000
0000
1000
0000
0000
0100
0000
0000
0110
0000
0000
0010
0001
1000
0000
0010
,  // measure 65
0000
0100
0001
1000
0100
0001
0100
2000
,  // measure 66
0000
0000
3010
0000
0000
0100
0000
0000
0001
0000
0000
1000
0010
0100
0000
0001
,  // measure 67
0000
1000
0000
0000
0100
0000
0010
0000
0001
0000
0000
0001
1000
0000
0000
1000
,  // measure 68
0010
0000
0000
0010
0100
0000
0000
0100
0001
0000
0000
0001
0010
0000
0000
0010
,  // measure 69
0100
0000
0000
0100
1000
0000
0001
0000
2000
0000
0000
0000
0000
0000
0000
0000
,  // measure 70
0000
0000
3000
0000
;

//---------------dance-single - ----------------
#NOTES:
     dance-single:
     :
     Hard:
     8:
     0.407119,0.452055,0.263610,0.227987,0.089057,400.000000,363.000000,37.000000,32.000000,0.000000,0.000000,0.407119,0.452055,0.263610,0.227987,0.089057,400.000000,363.000000,37.000000,32.000000,0.000000,0.000000:
// measure 0
0000
0000
0000
0000
,  // measure 1
0000
0000
0000
0000
,  // measure 2
0000
0000
0000
0000
,  // measure 3
0100
0001
0100
1000
0100
0020
0030
0020
,  // measure 4
0130
0001
0100
1000
0100
0002
0003
2000
,  // measure 5
3100
0001
0100
1000
0100
0020
0030
0020
,  // measure 6
0130
0000
1000
0000
0100
0000
0001
0000
0100
0000
2000
0000
3000
0001
0100
0000
,  // measure 7
0010
1000
0010
0001
0010
0200
0300
0200
,  // measure 8
0301
0010
1000
0010
0100
2000
3000
0002
,  // measure 9
0103
0010
1000
0001
0100
0020
0030
0020
,  // measure 10
1030
0100
0001
0100
0010
0002
0003
1000
,  // measure 11
0010
0000
0000
1000
0000
0000
0001
0000
0010
0000
0000
0001
0000
0000
1000
0000
,  // measure 12
0010
0100
0010
0100
0002
0000
1003
0000
,  // measure 13
0100
0000
0000
1000
0000
0000
0010
0000
0100
0000
0000
0000
0001
0000
1000
0000
,  // measure 14
0001
0000
0000
0010
0000
0000
0100
0000
2000
0000
0000
0000
3010
0000
0000
0000
,  // measure 15
1010
1010
1010
1010
,  // measure 16
0101
0101
0101
0101
,  // measure 17
1001
0000
0010
1000
0001
1000
0100
1000
,  // measure 18
0001
0000
0000
0000
0010
0000
0000
0100
0000
0000
0010
0000
0000
0100
0000
0000
,  // measure 19
1000
0000
0010
0000
1000
0100
0001
0100
,  // measure 20
1000
0000
0000
0000
0010
0000
0000
0100
0000
0000
0001
0000
0000
1000
0000
0000
,  // measure 21
0001
0010
0100
0010
0001
0000
1000
0100
,  // measure 22
0010
0000
0001
0100
1000
0100
0001
0100
,  // measure 23
0101
0101
0101
0101
,  // measure 24
1010
1010
1010
1010
,  // measure 25
0010
0000
1000
0100
0010
0001
0100
0010
,  // measure 26
1000
0000
0000
0000
0001
0000
0000
0010
0000
0000
0100
0000
0000
1000
0000
0000
,  // measure 27
0001
0000
1000
0000
0010
0100
0001
1000
,  // measure 28
2010
0001
0100
0010
,  // measure 29
3001
1000
0001
1000
0010
0000
0100
1000
,  // measure 30
0200
0000
0000
0000
0300
0000
0100
1000
,  // measure 31
1001
0000
0001
0010
0001
0000
0001
0100
,  // measure 32
0101
0000
0001
0100
0001
0000
0001
0010
,  // measure 33
1001
0000
1000
0010
1000
0000
1000
0100
,  // measure 34
1100
0000
0000
0000
0001
0000
0010
0000
0001
1000
0000
0000
0010
0000
1000
0000
,  // measure 35
0001
0000
0000
0001
0000
0000
0001
0000
0010
0000
0000
0010
0000
0000
0010
0000
,  // measure 36
0100
0000
0000
0100
0000
0000
0100
0000
1000
0000
0000
1000
0000
0000
1000
0000
,  // measure 37
0010
0000
0000
0100
0000
0000
0001
0000
0010
0000
0000
0100
0000
0000
1000
0000
,  // measure 38
0010
0000
0000
0100
0000
0000
0000
0000
0100
0000
0001
0000
0100
0000
0001
0000
,  // measure 39
1000
0200
0300
0200
1300
0010
1000
0010
,  // measure 40
0100
0000
0100
0000
0001
0010
0001
0010
,  // measure 41
1000
0020
0030
0020
1030
0100
1000
0100
,  // measure 42
0010
0000
0010
0000
0001
0100
0001
0100
,  // measure 43
0010
1000
0010
1000
0100
1000
0100
1000
,  // measure 44
0001
1000
0001
0000
0010
0100
0010
0100
,  // measure 45
1000
0001
1000
0000
0010
1000
0100
1000
,  // measure 46
0010
1000
0100
0000
1000
0010
0100
0000
,  // measure 47
0100
0001
1000
0000
0001
0010
0100
1000
,  // measure 48
0010
0100
0001
0000
1000
0010
1000
0010
,  // measure 49
0100
0001
0100
0000
0010
1000
0001
1000
,  // measure 50
0010
0100
0001
0000
1000
0000
0000
2002
,  // measure 51
0000
0000
3003
0000
0010
0000
0000
0220
,  // measure 52
0000
0000
0330
0000
0001
0010
0010
0100
,  // measure 53
0100
1000
1000
0001
0001
0010
0100
1000
,  // measure 54
0001
0000
1000
0001
1001
0000
0000
0010
,  // measure 55
1000
0000
0000
1000
0000
0000
0000
0000
0001
0000
0010
0000
0100
0000
1000
0000
,  // measure 56
0001
0000
0000
0001
0000
0000
0000
0000
1000
0000
0000
0000
0010
0000
0000
0000
,  // measure 57
0100
0000
0000
0000
0001
0000
0000
0000
1000
0000
0000
1000
0100
0000
0000
0000
,  // measure 58
0001
0000
0000
0001
0100
0000
0000
0000
2200
0000
0000
0000
0000
0000
0000
0000
,  // measure 59
0000
3300
0022
0000
,  // measure 60
0000
0033
0000
0000
,  // measure 61
0000
0000
0000
0000
,  // measure 62
0000
0000
0011
0011
,  // measure 63
0011
0011
1100
1100
,  // measure 64
1100
0000
1100
0000
1001
0000
0010
0001
,  // measure 65
1000
0000
0001
0000
0100
0000
0001
0000
1000
0000
0000
0000
0010
0000
0000
0100
,  // measure 66
0000
0000
0010
0000
0000
0100
0000
0000
0001
0000
0000
0000
0010
0000
0000
0000
,  // measure 67
0100
1000
0001
1000
2010
0000
0001
0000
,  // measure 68
0100
0020
0000
0000
,  // measure 69
0000
0000
0000
0000
,  // measure 70
0000
0000
3030
0000
;

//---------------dance-single - ----------------
#NOTES:
     dance-single:
     :
     Medium:
     5:
     0.288037,0.326484,0.121118,0.099744,0.000000,283.000000,266.000000,17.000000,14.000000,0.000000,0.000000,0.288037,0.326484,0.121118,0.099744,0.000000,283.000000,266.000000,17.000000,14.000000,0.000000,0.000000:
// measure 0
0000
0000
0000
0000
,  // measure 1
0000
0000
0000
0000
,  // measure 2
0000
0000
0000
0000
,  // measure 3
0001
0000
0010
0000
0001
0100
0001
0100
,  // measure 4
0001
0010
0100
1000
,  // measure 5
0010
0000
1000
0000
0100
1000
0100
1000
,  // measure 6
0100
0010
0001
1000
,  // measure 7
0010
0000
0100
0000
0010
1000
0010
1000
,  // measure 8
0010
0100
0001
1000
,  // measure 9
0100
0000
0010
0000
0001
1000
0001
1000
,  // measure 10
0001
0010
0100
1000
,  // measure 11
2002
3003
0220
0330
,  // measure 12
0010
0100
0001
1000
,  // measure 13
0010
1000
0001
0100
,  // measure 14
0010
1000
0200
0300
,  // measure 15
0011
0010
0010
0010
,  // measure 16
1100
0100
0100
0100
,  // measure 17
0010
0001
0100
0010
,  // measure 18
1000
0000
0000
0000
,  // measure 19
0101
0100
0100
0100
,  // measure 20
1010
0010
0010
0010
,  // measure 21
1000
0100
0010
0001
,  // measure 22
1000
0000
0000
0000
,  // measure 23
1001
0000
0010
0000
0100
0001
0100
0000
,  // measure 24
0010
0000
1000
0000
0001
1000
0100
0000
,  // measure 25
0010
0000
0100
0000
1000
0010
0100
0001
,  // measure 26
1000
0010
0100
0010
,  // measure 27
1000
0000
0001
0000
0010
0001
1000
0000
,  // measure 28
0010
0000
0100
0000
0010
1000
0001
0000
,  // measure 29
0010
0000
0100
0000
1000
0100
0010
0001
,  // measure 30
1000
0000
0000
0000
0000
0000
0001
0010
,  // measure 31
0001
0000
0001
0100
0001
0000
1000
0010
,  // measure 32
1000
0000
1000
0100
1000
0000
0001
0010
,  // measure 33
0001
0000
0001
0100
0001
0000
1000
0010
,  // measure 34
1000
0000
1000
0100
1000
0000
0010
0000
,  // measure 35
0100
0100
0001
0001
,  // measure 36
1000
1000
0010
0010
,  // measure 37
0100
0001
1000
0010
,  // measure 38
0100
0000
0001
0001
,  // measure 39
0001
0010
1000
1000
,  // measure 40
1100
0000
1000
1000
,  // measure 41
1000
0100
0001
0001
,  // measure 42
0101
0000
0010
0100
,  // measure 43
1000
0100
1000
0000
0010
0000
0100
0000
,  // measure 44
0001
0100
0001
0000
1000
0010
1000
0000
,  // measure 45
0100
0000
0010
0000
0001
0010
0001
0000
,  // measure 46
1000
0000
0001
0000
0010
0100
0010
0000
,  // measure 47
0100
0000
1000
0000
0001
0000
1000
0001
,  // measure 48
1000
0010
0100
0010
,  // measure 49
1000
0001
1000
0000
0010
0000
1000
0000
,  // measure 50
0001
0000
0100
0000
0001
0000
0000
2002
,  // measure 51
0000
0000
3003
0000
0010
0000
0000
0220
,  // measure 52
0000
0330
1000
0100
,  // measure 53
0001
0100
1000
0000
0010
0000
0100
0000
,  // measure 54
0010
0000
1000
1000
1000
0000
0000
0000
,  // measure 55
0001
0000
0010
0100
,  // measure 56
1000
0000
0001
0010
,  // measure 57
1000
0100
0001
0001
,  // measure 58
1000
1000
2200
0000
,  // measure 59
0000
3300
0022
0000
,  // measure 60
0000
0033
0000
0000
,  // measure 61
0000
0000
0000
0000
,  // measure 62
0000
0000
1001
1000
,  // measure 63
1000
1000
0110
0100
,  // measure 64
0100
0100
0010
1000
,  // measure 65
0100
1000
0001
0010
0100
0000
1000
0000
,  // measure 66
0001
0000
0011
0010
,  // measure 67
0010
0010
1100
0100
,  // measure 68
0100
0100
1000
0010
,  // measure 69
0100
0001
2000
0000
,  // measure 70
0000
0000
3000
0000
;

//---------------dance-single - ----------------
#NOTES:
     dance-single:
     :
     Easy:
     4:
     0.219844,0.251142,0.049872,0.049872,0.000000,216.000000,209.000000,7.000000,7.000000,0.000000,0.000000,0.219844,0.251142,0.049872,0.049872,0.000000,216.000000,209.000000,7.000000,7.000000,0.000000,0.000000:
// measure 0
0000
0000
0000
0000
,  // measure 1
0000
0000
0000
0000
,  // measure 2
0000
0000
0000
0000
,  // measure 3
1000
1000
1000
0100
,  // measure 4
0001
0001
0001
0000
,  // measure 5
0001
0001
0001
0100
,  // measure 6
1000
1000
1000
0000
,  // measure 7
0001
0010
0001
0010
,  // measure 8
0100
1000
0100
0000
,  // measure 9
1000
0010
1000
0010
,  // measure 10
0100
0001
0100
0000
,  // measure 11
2002
3003
0220
0330
,  // measure 12
1000
0100
0010
0000
,  // measure 13
0001
1000
0010
0000
,  // measure 14
0100
0001
1000
0000
,  // measure 15
0001
0001
0010
0000
,  // measure 16
1000
1000
0010
0000
,  // measure 17
0100
0010
0100
0000
,  // measure 18
1000
0001
1000
0000
,  // measure 19
0001
0010
0001
0000
,  // measure 20
1000
0010
1000
0000
,  // measure 21
0100
0010
0100
0000
,  // measure 22
0010
0001
1000
0100
,  // measure 23
1000
0010
1000
0010
,  // measure 24
0100
0001
0100
0001
,  // measure 25
1000
0001
0010
0100
,  // measure 26
0010
0000
0000
0000
,  // measure 27
0001
1000
0001
1000
,  // measure 28
0010
1000
0010
1000
,  // measure 29
0001
0100
0001
0100
,  // measure 30
0010
0000
0000
1000
,  // measure 31
1001
0000
0010
0010
,  // measure 32
0110
0000
0100
0100
,  // measure 33
1001
0000
0010
0010
,  // measure 34
1010
0000
0001
1000
,  // measure 35
1000
0100
0100
0010
,  // measure 36
0001
0001
1000
0010
,  // measure 37
1000
0100
0001
0100
,  // measure 38
1000
0000
0001
0001
,  // measure 39
0001
0010
1000
0010
,  // measure 40
0001
0000
1000
1000
,  // measure 41
1000
0100
0001
0100
,  // measure 42
1000
0000
0001
1000
,  // measure 43
0001
1000
0010
1000
,  // measure 44
0001
1000
0001
0010
,  // measure 45
0001
1000
0010
1000
,  // measure 46
0001
1000
0001
1000
,  // measure 47
0100
1000
0001
0100
,  // measure 48
0001
1000
0001
1000
,  // measure 49
0010
1000
0001
0010
,  // measure 50
0001
1000
0100
0000
,  // measure 51
0000
0010
0001
0000
,  // measure 52
0000
0000
1000
0010
,  // measure 53
0001
0010
1000
0100
,  // measure 54
0010
0001
1001
0000
,  // measure 55
0010
0000
0001
1000
,  // measure 56
0100
0000
0010
0100
,  // measure 57
0010
0100
1000
0010
,  // measure 58
0100
0001
2000
0000
,  // measure 59
0000
3000
0002
0000
,  // measure 60
0000
0003
0000
0000
,  // measure 61
0000
0000
0000
0000
,  // measure 62
0000
0000
1000
0100
,  // measure 63
0010
0001
1000
0001
,  // measure 64
1000
0000
0001
0010
,  // measure 65
0001
0010
0001
0000
,  // measure 66
0100
0000
0010
1000
,  // measure 67
0010
1000
0001
0010
,  // measure 68
0100
2000
0000
0000
,  // measure 69
0000
0000
0000
0000
,  // measure 70
0000
0000
3000
0000
;

//---------------dance-single - ----------------
#NOTES:
     dance-single:
     :
     Beginner:
     1:
     0.138421,0.194501,0.000000,0.014249,0.000000,136.000000,136.000000,0.000000,2.000000,0.000000,0.000000,0.138421,0.194501,0.000000,0.014249,0.000000,136.000000,136.000000,0.000000,2.000000,0.000000,0.000000:
// measure 0
0000
0000
0000
0000
,  // measure 1
0000
0000
0000
0000
,  // measure 2
0000
0000
0000
0000
,  // measure 3
1000
0000
0010
0000
,  // measure 4
0100
0000
0010
0000
,  // measure 5
1000
0000
0001
0000
,  // measure 6
0010
0000
0100
0000
,  // measure 7
1000
0000
0100
0000
,  // measure 8
0010
0000
0001
0000
,  // measure 9
1000
0000
0010
0000
,  // measure 10
0100
0000
0001
0000
,  // measure 11
1000
0000
0010
0000
,  // measure 12
1000
1000
1000
0000
,  // measure 13
0001
0000
0010
0000
,  // measure 14
0001
0001
0001
0000
,  // measure 15
1000
0000
0100
0000
,  // measure 16
0010
0000
0001
0000
,  // measure 17
1000
0000
0010
0000
,  // measure 18
0100
0000
0001
0000
,  // measure 19
0010
0000
0100
0000
,  // measure 20
1000
0000
0001
0000
,  // measure 21
0010
0000
0001
0000
,  // measure 22
1000
0000
0100
0000
,  // measure 23
0001
0000
0100
0000
,  // measure 24
1000
1000
1000
0000
,  // measure 25
0010
0000
0100
0100
,  // measure 26
0100
0000
0001
0000
,  // measure 27
0010
0000
0100
0000
,  // measure 28
1000
1000
1000
1000
,  // measure 29
0000
0010
0010
0010
,  // measure 30
0010
0000
0000
0100
,  // measure 31
0100
0000
0001
0000
,  // measure 32
1000
0000
0001
0000
,  // measure 33
0010
0000
0100
0000
,  // measure 34
1000
0000
0001
0000
,  // measure 35
0010
0010
0010
0000
,  // measure 36
0100
0100
0100
0000
,  // measure 37
1000
1000
1000
0000
,  // measure 38
0001
0000
1000
0000
,  // measure 39
0010
0000
1000
0000
,  // measure 40
0000
0000
0001
0000
,  // measure 41
0010
0000
0001
0000
,  // measure 42
0000
0000
0001
0000
,  // measure 43
0100
0000
1000
0000
,  // measure 44
0100
0000
0010
0000
,  // measure 45
0001
0000
1000
0000
,  // measure 46
0001
0000
0100
0000
,  // measure 47
0010
0000
1000
0000
,  // measure 48
0001
0000
0010
0000
,  // measure 49
0100
0000
1000
0000
,  // measure 50
0001
0000
0010
0000
,  // measure 51
0000
0100
0100
0000
,  // measure 52
0000
0000
1000
0000
,  // measure 53
0001
0000
1000
1000
,  // measure 54
1000
0000
0010
0000
,  // measure 55
0100
0000
0001
0000
,  // measure 56
1000
0000
0100
0000
,  // measure 57
0010
0000
0001
0000
,  // measure 58
1000
0000
0020
0000
,  // measure 59
0000
0030
0020
0000
,  // measure 60
0000
0030
0000
0000
,  // measure 61
0000
0000
0000
0000
,  // measure 62
0000
0000
1000
0000
,  // measure 63
0010
0000
0100
0100
,  // measure 64
0100
0000
0001
0000
,  // measure 65
0010
0000
0001
0000
,  // measure 66
1000
0000
0100
0000
,  // measure 67
0010
0000
0001
0001
,  // measure 68
0001
0001
0000
0000
;
