#TITLE:osaka EVOLVED;
#SUBTITLE:-MAIDO, OHKINI!-;
#ARTIST:NAOKI underground;
#TITLETRANSLIT:osaka EVOLVED;
#SUBTITLETRANSLIT:;
#ARTISTTRANSLIT:;
#GENRE:DDR HOTTEST PARTY 2;
#CREDIT:;
#BANNER:osaka EVOLVED-bn.jpg;
#BACKGROUND:osaka EVOLVED-bg.jpg;
#LYRICSPATH:;
#CDTITLE:d.png;
#MUSIC:osaka EVOLVED.ogg;
#OFFSET:0.000000;
#SAMPLESTART:4.820000;
#SAMPLELENGTH:15.000000;
#SELECTABLE:YES;
#DISPLAYBPM:50.000000:300.000000;
#BPMS:0.000000=50.000000
,12.000000=300.000000
,24.000000=75.000000
,45.000000=120.000000
,77.000000=249.999985
,109.000000=150.000000
,141.000000=200.000000
,213.000000=249.999985
,245.000000=300.000000
;
#STOPS:41.250000=0.400000,
42.750000=0.400000,
43.250000=0.400000,
43.750000=0.400000,
44.250000=0.400000,
44.750000=0.400000
;
#BGCHANGES:;
#KEYSOUNDS:;
#ATTACKS:;

//---------------dance-single - ----------------
#NOTES:
     dance-single:
     :
     Beginner:
     3:
     0.139987,0.214356,0.073956,0.018489,0.000000,106.000000,98.000000,8.000000,2.000000,0.000000,0.000000,0.139987,0.214356,0.073956,0.018489,0.000000,106.000000,98.000000,8.000000,2.000000,0.000000,0.000000:
0000
0000
0000
0000
,
0000
1000
0000
0001
,
0000
0010
0000
0100
,
0100
0000
0000
0100
,
0000
0000
0100
0000
,
0000
0100
0000
0000
,
1001
0000
0010
0000
,
1000
0000
0010
0000
,
1000
1000
1000
0000
,
0001
0001
0001
0000
,
0010
0000
0000
0100
,
0000
0000
0000
1000
,
1000
0000
0000
0001
,
0001
0000
0010
0000
,
0100
0000
0010
0000
,
0100
0000
1000
0000
,
0001
0001
0000
1000
,
0000
0100
0000
0001
,
0000
0010
0000
1000
,
0000
1001
0000
0000
,
0010
0000
0000
0000
,
0000
1000
0000
0000
,
0000
0100
0000
0000
,
0000
0010
0000
0000
,
0000
0001
0000
0000
,
0000
1000
0000
0000
,
0000
0001
0000
0000
,
0000
0100
0000
0000
,
0000
0010
0000
1000
,
0000
0100
0000
0100
,
0000
0100
0000
0100
,
0000
0110
0000
0100
,
0000
0100
0000
1000
,
0000
0001
0000
0001
,
0000
0001
0000
0001
,
0000
0010
0000
0000
,
0000
0001
0001
0001
,
0000
0000
0000
0000
,
0000
1000
0000
0000
,
0000
0010
0010
0010
,
0000
0000
0000
0000
,
0000
0100
0000
0000
,
0010
0000
0000
1000
,
0000
0000
0100
0000
,
0000
0010
0000
0000
,
0001
0000
0000
1000
,
0000
0000
0010
0000
,
0000
0100
0000
0000
,
0010
0000
0000
1000
,
0000
0000
0100
0100
,
0100
0100
0000
0000
,
0010
0000
0000
0001
,
0000
0000
1000
1000
,
1000
1000
0000
0000
,
0000
0000
0000
0000
,
0000
0001
0000
0000
,
0000
0000
0000
0000
,
0000
0100
0000
0000
,
0000
0010
0000
0000
,
0000
1000
0000
0000
,
0000
0001
0000
0000
,
0000
1001
0000
0000
,
0110
0000
0000
1001
,
0000
0000
0110
0000
,
0000
2002
0000
0000
,
0000
0000
0000
0000
,
0000
3003
0000
0000
;

//---------------dance-single - ----------------
#NOTES:
     dance-single:
     :
     Medium:
     8:
     0.381664,0.551200,0.138667,0.240356,0.027733,289.000000,274.000000,15.000000,26.000000,0.000000,0.000000,0.381664,0.551200,0.138667,0.240356,0.027733,289.000000,274.000000,15.000000,26.000000,0.000000,0.000000:
0000
0000
0000
0000
,
0000
0010
0000
0100
,
0000
1000
0000
0100
,
1000
1000
0200
0301
,
0001
0200
1300
0100
,
0002
0103
0100
1000
,
0001
1000
0010
0000
0001
0000
1000
0000
,
0100
0001
0010
0000
1000
1000
0001
0001
,
1000
0100
0010
0000
0001
0000
1000
0000
,
0001
0100
0010
0000
1000
0000
0001
0000
,
0010
0000
0000
0000
1000
1000
0000
0000
0000
0000
0001
0001
1000
1000
0010
0010
,
0100
0100
0010
0010
1000
0000
0000
0000
0100
0000
0000
0000
1000
0000
0000
0000
,
0001
0010
1000
0000
0100
0000
0001
0000
,
1000
0010
0001
0000
1100
0000
0001
0000
,
1100
0000
0100
0000
1000
0000
0001
0010
,
0100
1000
0011
1100
,
0101
0000
1000
0100
0010
0000
2000
0000
,
3000
0000
0001
0000
1000
0000
0001
0001
,
1000
1000
0010
0000
0001
0000
1000
1000
,
0100
0100
1000
0000
0100
1000
0100
0000
,
0000
0010
1000
0100
,
0010
0000
0001
0000
0100
0001
0100
0000
,
0000
0010
1000
0100
,
0010
0100
0100
0001
,
0100
0100
0010
0100
,
0100
1000
0010
0001
,
0100
1000
0010
0001
,
0100
2000
0000
0000
,
0000
0001
3002
0000
0000
0000
0103
0000
,
1010
0000
0002
0000
0003
0100
0020
0000
,
0030
0100
0020
0000
0030
0100
0020
0000
,
0130
0000
0001
0000
0000
0010
0020
0000
,
0030
0100
0200
0000
0300
1000
2000
0000
,
3001
0000
0110
0000
0000
0100
2000
0000
,
3000
0001
0200
0000
0310
0000
0001
0000
,
1000
1100
0010
0100
,
1000
0001
1000
0110
,
0001
1000
0100
1000
,
0001
1010
0100
1000
,
0001
0010
1000
0101
,
0010
1000
0100
0010
,
0001
0001
0100
2000
,
3001
0100
0002
0103
,
0010
0000
1000
0000
0100
0000
0001
0010
,
0001
0100
1000
0020
,
0130
0001
0020
0031
,
1000
0001
0010
0000
0001
0000
0100
0000
,
1010
0000
0100
0000
0010
1000
0020
0000
,
1030
0000
0001
0100
0002
0000
1003
0000
,
0010
0100
1000
0000
0100
0000
1000
0000
,
0001
1001
0010
0100
,
1001
0100
1000
0010
,
0001
0100
1000
0000
0010
0000
0001
0000
,
1000
0100
1000
0010
,
1000
0100
0001
0010
,
0001
0100
0010
0001
,
0001
0100
0010
1000
,
1000
0001
0010
1000
,
0010
0001
0100
1000
,
0100
0010
0010
0001
,
0001
0100
1000
1000
,
0001
1000
1000
0200
,
0301
0001
0200
1300
,
0100
0002
0103
0100
,
1000
2002
0000
0000
,
0000
0000
0000
0000
,
0000
3003
0000
0000
;

//---------------dance-single - ----------------
#NOTES:
     dance-single:
     :
     Hard:
     10:
     0.652394,1.010534,0.314311,0.748801,0.198756,494.000000,460.000000,34.000000,81.000000,0.000000,0.000000,0.652394,1.010534,0.314311,0.748801,0.198756,494.000000,460.000000,34.000000,81.000000,0.000000,0.000000:
0000
0000
0000
0000
,
1000
1100
0000
0100
0001
0010
0001
1100
0000
0010
0100
0001
,
1000
0110
0000
0010
0100
0001
1000
0101
0000
0010
0001
0100
,
1000
0100
1000
0100
0020
0000
0031
0100
,
0001
0100
0020
0000
1030
0100
0010
0100
,
2000
0000
3001
0100
0010
0100
0001
0000
,
0020
0000
1030
0000
1100
0000
0000
0000
0002
0000
0100
0000
2003
0100
0001
0000
,
3020
0000
0031
0000
0101
0000
0000
0000
1000
0100
0001
0000
0001
0100
1000
0000
,
2000
0000
0010
0000
3100
0001
0100
0000
0010
0100
0010
0001
0010
1000
0010
0000
,
0002
0000
0010
0000
0103
1000
0100
0000
0010
0100
0010
0001
0010
1000
0010
0000
,
0002
0000
0010
0000
0103
1100
2000
0000
0010
0000
3100
0101
0010
1100
0010
0101
,
1000
0110
0001
0110
2000
0000
0100
0000
3020
0000
0100
0000
2030
0000
0010
0000
,
3002
0100
2003
0100
3020
0100
2030
0010
,
3002
0100
2003
0010
3002
0010
2003
0100
,
3002
0100
0023
0100
0032
0100
2003
0100
,
3020
0000
0130
0000
1100
0000
0000
0001
0101
0000
0000
1000
1010
0000
0000
0001
,
0011
0100
1000
0010
0100
0001
2002
0000
,
3003
0000
0000
0000
0001
0000
0100
0000
1000
0000
0100
0000
0001
0010
0002
0000
,
1003
0010
2000
0000
3100
0000
0010
0000
0001
0000
0010
0000
1000
0000
0100
0000
,
0001
0010
1000
0100
0010
0002
0100
0003
,
0020
0001
0030
0010
1000
0100
0010
0001
,
0100
0010
1000
0100
0010
0002
0100
0003
,
0020
0001
0030
0010
1000
0100
0010
0001
,
0100
0010
0010
0001
0010
0000
1100
0000
,
0010
1000
0010
0000
0101
0000
0010
0100
,
0010
0000
1000
0100
0001
0100
1000
0010
,
0001
0010
1000
0100
0001
0100
1000
0010
,
0001
0010
2000
0000
0000
0000
0000
0000
,
0000
0000
3001
0200
0001
0000
0000
0000
0000
0000
0010
0000
0310
0000
0000
0000
,
1100
0000
0000
0000
0002
0000
0000
0000
1003
0000
0010
1000
0200
0000
0000
0000
,
1300
0000
0010
0001
0200
0000
0000
0000
0301
0000
1000
0100
0002
0000
0000
0000
,
1003
0000
0000
0000
0110
0000
0000
0000
0100
0000
0010
0001
0020
0000
0000
0000
,
0001
0000
0130
1000
0200
0000
0000
0000
0001
0000
1300
0010
1000
0000
0000
0000
,
0101
0000
0000
0000
1100
0000
0000
0000
0001
0000
0010
0100
2000
0000
0000
0000
,
0010
0000
3001
0100
0020
0000
0000
0000
0032
0000
0000
0000
0203
0000
0000
0000
,
1300
0000
1010
0000
0100
0001
0010
0100
,
1000
0010
0102
0000
1000
0000
0013
0000
,
0001
0010
1000
0010
0001
0100
1000
0100
,
0001
0010
1100
0000
0010
0100
1000
0010
,
0100
0001
2100
0000
0001
0000
3010
0000
,
0100
0001
0010
1000
0010
0001
0100
1000
,
0100
0001
0001
0100
0020
0100
0030
0001
,
1000
0100
0020
0100
0030
1000
0010
0020
,
2030
3010
1000
2000
3001
0002
0203
0302
,
0203
0301
0010
0001
2000
0010
3000
0100
,
0010
1000
0002
0010
0003
0100
0001
0010
,
1000
0001
0100
1000
0102
0000
0013
0000
,
1100
0000
0010
0001
0200
1000
0300
0100
,
0010
1000
0200
0001
0300
0100
1000
2000
,
3002
2003
0001
3002
0103
0200
0320
0230
,
0310
0100
1020
0000
0130
0001
0010
0000
,
1200
0000
0310
0100
1000
0001
0100
0010
,
0001
0010
1000
0100
0102
0000
0013
0000
,
1100
0000
0010
1000
0010
1000
0001
0100
,
0002
0000
0013
0001
0010
0001
1000
0100
,
2000
0000
3010
1000
0100
0010
0100
1000
,
0002
0000
0013
0001
0100
0010
0100
0001
,
1000
0100
0010
0000
0010
1000
0010
0000
,
0010
0001
0010
0000
0010
1000
0010
0000
,
0010
0001
0100
0001
1000
0100
0010
0100
,
1000
0010
0100
0010
1000
0001
1000
0100
,
0010
0000
1000
0100
1000
0100
0020
0000
,
0031
0100
0001
0100
0020
0000
1030
0100
,
0010
0100
2000
0000
3001
0100
0010
0100
,
0001
2002
0000
0000
,
0000
0000
0000
0000
,
0000
3003
0000
0000
;

//---------------dance-double - ----------------
#NOTES:
     dance-double:
     :
     Easy:
     6:
     0.342045,0.398089,0.092445,0.295822,0.000000,259.000000,249.000000,10.000000,32.000000,0.000000,0.000000,0.342045,0.398089,0.092445,0.295822,0.000000,259.000000,249.000000,10.000000,32.000000,0.000000,0.000000:
// measure 0
00000000
00000000
00000000
00000000
,  // measure 1
00000000
00001000
00000000
00100000
,  // measure 2
00000000
10000000
00000000
01000000
,  // measure 3
10000000
10000000
01000000
00100000
,  // measure 4
00100000
00001000
00010000
00010000
,  // measure 5
00000100
00000010
00000010
00000100
,  // measure 6
00001000
00000001
00001000
00000100
,  // measure 7
00000010
00000100
00000001
00000100
,  // measure 8
00001000
00010000
00001000
00000000
00100000
00000000
01000000
00000000
,  // measure 9
10000000
00010000
10000000
00000000
00100000
00000000
10000000
00000000
,  // measure 10
00010000
00000000
00000000
00000000
02000000
03000000
00000000
00000000
00000000
00000000
00020000
00030000
00200000
00300000
00002000
00003000
,  // measure 11
00020000
00030000
00000200
00000300
00001000
00000000
00000000
00000000
00000001
00000000
00000000
00000000
00000100
00000000
00000000
00000000
,  // measure 12
00000010
00000100
00000010
00001000
,  // measure 13
00000001
00000100
00001000
00010000
,  // measure 14
00001000
00000010
00001000
00010000
,  // measure 15
01000000
00100000
01000000
10000000
,  // measure 16
01000000
00000000
00010000
00001000
00010000
00000000
00022000
00000000
,  // measure 17
00033000
00000000
00000010
00000000
00000100
00000000
00001000
00001000
,  // measure 18
00010000
00000000
01000000
00000000
00100000
00000000
00010000
00010000
,  // measure 19
10000000
00000000
10010000
00000000
00100000
10000000
00100000
00000000
,  // measure 20
00000000
01000000
00100000
01000000
,  // measure 21
00001000
00000000
00010000
00000000
00001000
00010000
00001000
00000000
,  // measure 22
00000000
00000100
00000010
00001000
,  // measure 23
00000001
00000010
00000010
00001000
,  // measure 24
00010000
00010000
00001000
00100000
,  // measure 25
01000000
10000000
01000000
00100000
,  // measure 26
00010000
00001000
00000100
00000010
,  // measure 27
00000001
00000200
00000000
00000000
,  // measure 28
00000000
00000001
00000302
00000000
00000000
00000000
00001003
00000000
,  // measure 29
00001001
00000000
00000020
00000000
00000030
00000100
00000020
00000000
,  // measure 30
00000030
00000100
00000020
00000000
00000030
00000100
00000020
00000000
,  // measure 31
00000130
00000000
00001000
00000000
00000000
00010000
00000200
00000000
,  // measure 32
00000300
00010000
00000200
00000000
00000300
00010000
00000200
00000000
,  // measure 33
00010300
00000000
00011000
00000000
00000000
00100000
02000000
00000000
,  // measure 34
03000000
00100000
02000000
00000000
03100000
00000000
00100000
00000000
,  // measure 35
00100000
01100000
00000000
10000000
,  // measure 36
00010000
00100000
01000000
01100000
,  // measure 37
00000000
01000000
00010000
00001000
,  // measure 38
00010000
00011000
00000000
00000010
,  // measure 39
00001000
00000001
00000010
00000110
,  // measure 40
00000000
00000100
00000010
00000001
,  // measure 41
00000110
00000010
00000100
00020000
,  // measure 42
00031000
01000000
00020000
00130000
,  // measure 43
01000000
10000000
00100000
00010000
,  // measure 44
00010000
00100000
10000000
02000000
,  // measure 45
03100000
00001000
00020000
00031000
,  // measure 46
00000010
00000100
00000010
00000001
,  // measure 47
00000001
00001000
00000010
00000200
,  // measure 48
00000310
00010000
00002000
00013000
,  // measure 49
00001000
00100000
01000000
10000000
,  // measure 50
10000000
00010000
01000000
00100000
,  // measure 51
20000000
30100000
00010000
00002000
,  // measure 52
00013000
00000100
00001000
00000100
,  // measure 53
00000010
00000001
00000001
00000010
,  // measure 54
00000001
00001000
00001000
00000010
,  // measure 55
00000100
00000010
00000010
00000100
,  // measure 56
00001000
00010000
00010000
00001000
,  // measure 57
01000000
00010000
00010000
00100000
,  // measure 58
01000000
00100000
00100000
01000000
,  // measure 59
10000000
00010000
00010000
01000000
,  // measure 60
00001000
00010000
00010000
00000100
,  // measure 61
00000010
00000001
00000001
00000200
,  // measure 62
00000310
00000010
00000200
00001300
,  // measure 63
00001000
00020000
00130000
00100000
,  // measure 64
01000000
20020000
00000000
00000000
,  // measure 65
00000000
00000000
00000000
00000000
,  // measure 66
00000000
30030000
00000000
00000000
;

//---------------dance-double - ----------------
#NOTES:
     dance-double:
     :
     Medium:
     8:
     0.487315,0.704312,0.092445,0.286578,0.078578,369.000000,359.000000,10.000000,31.000000,0.000000,0.000000,0.487315,0.704312,0.092445,0.286578,0.078578,369.000000,359.000000,10.000000,31.000000,0.000000,0.000000:
// measure 0
00000000
00000000
00000000
00000000
,  // measure 1
00001000
00001000
00000000
00100000
00000000
01000000
10000000
10000000
00000000
00100000
00000000
01000000
,  // measure 2
00001000
00001000
00000000
00000010
00000000
00000100
00000001
00000001
00000000
00000010
00000000
00000100
,  // measure 3
00001000
00000000
00000001
00001000
00000002
00000000
00000103
00000000
,  // measure 4
00000010
00000100
00000020
00000000
00010030
00000000
00001000
00010000
,  // measure 5
00002000
00000000
01003000
00000000
00100000
01000000
00100000
00000000
,  // measure 6
10000000
01000000
10000000
00000000
00010000
01000000
00010000
00000000
,  // measure 7
01000000
00010000
00100000
00000000
01000000
00100000
01000000
10000000
,  // measure 8
00100000
00010000
00001000
00010000
01000000
00010000
00001000
00010000
,  // measure 9
00000010
00001000
00000001
00001000
00000100
00001000
00010000
00001000
,  // measure 10
00000010
00000000
00000100
00000000
00000001
00000001
00000010
00000000
00000100
00000000
00001000
00001000
00010000
00010000
00100000
00100000
,  // measure 11
01000000
01000000
10000000
10000000
00100000
00000000
00010000
00000000
00100000
00000000
00000000
00000000
00100000
00000000
10000000
00000000
,  // measure 12
00100000
00000000
00010000
00001000
00010000
00000000
00100000
00010000
,  // measure 13
00001000
00000000
00000010
00001000
00000010
00000000
00000010
00000001
,  // measure 14
00000010
00000000
00000010
00000100
00001000
00000100
00000010
00000000
,  // measure 15
00000001
00000000
00000000
00000000
00000010
00000000
00000000
00000001
00001000
00000000
00000000
00000100
00010000
00000000
00000000
00001000
,  // measure 16
00100000
00010000
00100000
01000000
10000000
00010000
00200000
00000000
,  // measure 17
00300000
00000000
00010000
00100000
10000000
00100000
00010000
00000000
,  // measure 18
01000000
00000000
00100000
00010000
00001000
00010000
00100000
00000000
,  // measure 19
01000000
00000000
00100000
00000000
10000000
01000000
00100000
00000000
,  // measure 20
00010000
01000000
00000000
01000000
00001000
00000000
00100000
00000000
,  // measure 21
00001000
00000000
00010000
00000000
00000100
00001000
00000010
00000000
,  // measure 22
00000100
00000001
00000000
00000001
00001000
00000000
00000010
00000000
,  // measure 23
00000100
00000000
00000001
00000010
00000001
00000000
00000100
00000000
,  // measure 24
00001000
00010000
00001000
00000000
01000000
00000000
00010000
10000000
,  // measure 25
00010000
00000000
10000000
01000000
00100000
00000000
00100000
01000000
,  // measure 26
00010000
00000000
00001000
00010000
00000100
00000000
00000100
00000010
,  // measure 27
00000001
00002000
00000000
00000000
,  // measure 28
00000000
00003001
00000002
00000000
00000000
00000010
00000013
00000000
,  // measure 29
00000100
00000000
00002000
00000000
00003100
00010000
00002000
00000000
,  // measure 30
00013000
00010000
00002000
00000000
00103000
00100000
00002000
00000000
,  // measure 31
01003000
00000000
10010000
00000000
00010000
00100000
00020000
00000000
,  // measure 32
10030000
10000000
00020000
00000000
01030000
01000000
00020000
00000000
,  // measure 33
00130000
00000000
00101000
00000000
00001000
00010000
00002000
00000000
,  // measure 34
00013000
00001000
00000200
00000000
00001300
00000100
00000020
00000000
,  // measure 35
00000130
00000000
00000010
00000000
00000100
00000010
00000100
00000000
,  // measure 36
00001000
00001010
00001001
00001100
,  // measure 37
00000100
00000010
00001000
00000000
00010000
00000010
00001000
00000010
,  // measure 38
00010000
00000000
00001000
00000000
01000000
00001000
00010000
00000000
,  // measure 39
00001000
00101000
00011000
01001000
,  // measure 40
00010000
00100000
01000000
00000000
01000000
00100000
00010000
01000000
,  // measure 41
00100000
00000000
01000000
00000000
00001000
00000000
00010000
00001000
,  // measure 42
00010000
00000000
00000100
00000000
00001000
00000000
00001000
00000001
,  // measure 43
00000010
00000000
00000100
00000000
00000010
00000001
00000010
00000001
,  // measure 44
00000010
00000000
00000100
00000000
00010000
00000000
00001000
00010000
,  // measure 45
00001000
00000000
00010000
00000000
00001000
00000000
00100000
00010000
,  // measure 46
01000000
00000000
00100000
00000000
10000000
01000000
10000000
01000000
,  // measure 47
10000000
00000000
00100000
01000000
00100000
00000000
20000000
00000000
,  // measure 48
30010000
00100000
00010000
00100000
00002000
00000000
00013000
00000000
,  // measure 49
00000010
00001000
00000100
00000000
00002000
00000000
00003002
00000000
,  // measure 50
00000023
00000000
00000130
00001000
00000100
00000000
00002000
00000000
,  // measure 51
00003010
00010000
00000010
00010000
00002000
00000000
01003000
00000000
,  // measure 52
00010000
01000000
00100000
00000000
02000000
00000000
03020000
00000000
,  // measure 53
20030000
00000000
00000000
00000000
00000000
00000000
00000000
00000000
00000000
00000000
00000000
00000000
00000000
00000000
00000000
00000000
00000000
00000000
00000000
00000000
00000000
00000000
00000000
00000000
00000000
00000000
00000000
00000000
00000000
00000000
00000000
00000000
00000000
00000000
00000000
00000000
00000000
00000000
00000000
00000000
00000000
00000000
00000000
00000000
00000000
00000000
00000000
30000000
01000000
00000000
00000000
00000000
00000000
00000000
00000000
00000000
00000000
00000000
00000000
00000000
00000000
00000000
00000000
00000000
00000000
00000000
00000000
00000000
00000000
00000000
00000000
00000000
00000000
00000000
00000000
00000000
00000000
00000000
00000000
00000000
00000000
00000000
00000000
00000000
00000000
00000000
00000000
00000000
00000000
00000000
00000000
00000000
00000000
00000000
00000000
00000000
00100000
00000000
00000000
00000000
00000000
00000000
00000000
00000000
00000000
00000000
00000000
00000000
00000000
00000000
00000000
00000000
00000000
00000000
00000000
00000000
00000000
00000000
00000000
00000000
00000000
00000000
00000000
00000000
00000000
00000000
00000000
00000000
00000000
00000000
00000000
00000000
00000000
00000000
00000000
00000000
00000000
00000000
00000000
00000000
00000000
00000000
00000000
00000000
00010000
00000000
00000000
00000000
00000000
00000000
00000000
00000000
00000000
00000000
00000000
00000000
00000000
00000000
00000000
00000000
00000000
00000000
00000000
00000000
00000000
00000000
00000000
00000000
00100000
00000000
00000000
00000000
00000000
00000000
00000000
00000000
00000000
00000000
00000000
00000000
00000000
00000000
00000000
00000000
00000000
00000000
00000000
00000000
00000000
00000000
00000000
00000000
,  // measure 54
00010000
00000000
01000000
00000000
00100000
00000000
10000000
00100000
,  // measure 55
10000000
00000000
00010000
00000000
01000000
00000000
00001000
00010000
,  // measure 56
00001000
00000000
00010000
00000000
00000010
00000000
00001000
00000010
,  // measure 57
00001000
00000000
00000001
00000000
00000100
00000000
00000010
00001000
,  // measure 58
00000010
00000000
00000100
00000000
00001000
00000000
00010000
00001000
,  // measure 59
00010000
00000000
00001000
00000000
01000000
00000000
00010000
10000000
,  // measure 60
00010000
01000000
00100000
10010000
,  // measure 61
00000000
00000000
00010000
00000000
10000000
00010000
20000000
00000000
,  // measure 62
31000000
00000000
00100000
01000000
00200000
00000000
00301000
00000000
,  // measure 63
00010000
00001000
00020000
00000000
00030100
00000000
00000010
00000100
,  // measure 64
00000010
00002002
00000000
00000000
,  // measure 65
00000000
00000000
00000000
00000000
,  // measure 66
00000000
00003003
00000000
00000000
;

//---------------dance-double - ----------------
#NOTES:
     dance-double:
     :
     Hard:
     10:
     0.651074,1.041156,0.305067,0.452978,0.240356,493.000000,460.000000,33.000000,49.000000,0.000000,0.000000,0.651074,1.041156,0.305067,0.452978,0.240356,493.000000,460.000000,33.000000,49.000000,0.000000,0.000000:
// measure 0
00000000
00000000
00000000
00000000
,  // measure 1
10000000
11000000
00000000
01000000
00100000
00001000
00010000
00010100
00000000
00001000
00000100
00000010
,  // measure 2
00000001
00001001
00000000
00000100
00000010
00000100
00001000
00101000
00000000
01000000
00010000
00010000
,  // measure 3
10000000
01000000
10000000
01000000
00200000
00000000
00310000
01000000
,  // measure 4
00010000
01000000
00200000
00000000
00310000
00001000
00010000
00001000
,  // measure 5
00000020
00000000
00000031
00000100
00000001
00000100
00000010
00000000
,  // measure 6
00000100
00000000
00000010
00000000
00000011
00000000
00000000
00000000
00000100
00000000
00010000
00000000
00001000
00010000
00100000
00000000
,  // measure 7
10000000
00000000
01000000
00000000
10100000
00000000
00000000
00000000
00010000
00100000
01000000
00000000
00100000
01000000
10000000
00000000
,  // measure 8
01000000
00000000
10000000
00100000
01000000
00100000
00010000
00100000
00001000
00100000
00010000
00100000
01000000
00100000
00010000
00000000
,  // measure 9
00001000
00000000
00010000
00000010
00001000
00000010
00000100
00000010
00000001
00000010
00000100
00000010
00001000
00000001
00000100
00000000
,  // measure 10
00000010
00000000
00001000
00000000
00000001
00000101
00000010
00000000
00000100
00000000
00001000
00001010
00000100
00010100
00100000
00101000
,  // measure 11
00010000
01010000
10000000
10100000
02000000
00000000
00100000
00000000
23000000
00000000
00100000
00000000
30020000
00000000
00100000
00000000
,  // measure 12
02030000
00100000
03002000
00010000
00003200
00010000
00000320
00010000
,  // measure 13
00002030
00010000
00003200
00000010
00002300
00000010
00003002
00000010
,  // measure 14
00000203
00000010
00000302
00001000
00000203
00001000
00000320
00001000
,  // measure 15
00010030
00000000
00001000
00000000
00011000
00000000
00000000
00100000
00101000
00000000
00000000
00010000
01010000
00000000
00000000
10000000
,  // measure 16
10100000
00100000
00010000
00001000
00010000
00000100
00002002
00000000
,  // measure 17
00003003
00000000
00000000
00000000
00000001
00000000
00000010
00000000
00001000
00000000
00000010
00000000
00000100
00010000
00001000
00000000
,  // measure 18
00010000
00001000
00100000
00000000
10000000
00000000
00100000
00000000
00010000
00000000
00100000
00000000
01000000
10000000
00010000
00000000
,  // measure 19
01000000
00100000
10000000
00000000
00010000
00000000
00100000
00000000
00010000
00000000
00010000
00000000
00100000
00000000
00000000
00000000
,  // measure 20
00100000
01000000
00000000
00100000
00010000
10000000
00100000
00010000
,  // measure 21
00001000
00010000
00000100
00000100
00000010
00000100
00001000
00000000
,  // measure 22
00001000
00000001
00000000
00001000
00000001
00000010
00000100
00001000
,  // measure 23
00001000
00000000
00000100
00000100
00000010
00000000
00000110
00000000
,  // measure 24
00010000
00001000
00010000
00000000
00011000
00000000
00100000
00100000
,  // measure 25
01000000
00000000
10000000
01000000
00100000
00010000
01000000
00100000
,  // measure 26
00010000
00001000
00100000
00001000
00010000
00000100
00001000
00000100
,  // measure 27
00000010
00000200
00000000
00000000
,  // measure 28
00000000
00000000
00001300
00000010
00002000
00000000
00000000
00000000
00000000
00000000
00003001
00000100
00000002
00000000
00000000
00000000
,  // measure 29
00000013
00000000
00000000
00000000
00002100
00000000
00000000
00000000
00003010
00000000
00010000
00000100
00002000
00000000
00000000
00000000
,  // measure 30
00003010
00000000
00010000
00000100
00002000
00000000
00000000
00000000
00003010
00000000
00010000
00000100
00002000
00000000
00000000
00000000
,  // measure 31
00013000
00000000
00000000
00000000
00011000
00000000
00000000
00000000
00100000
00000000
01000000
10000000
02000000
00000000
00000000
00000000
,  // measure 32
10000000
00000000
03100000
00010000
00200000
00000000
00000000
00000000
00010000
00000000
01300000
10000000
02000000
00000000
00000000
00000000
,  // measure 33
13000000
00000000
00000000
00000000
10010000
00000000
00000000
00000000
00100000
00000000
00001000
00010000
00002000
00000000
00000000
00000000
,  // measure 34
00103000
00000000
00010000
00001000
00020000
00000000
00000000
00000000
00030010
00000000
00001000
00010000
00001000
00000000
00010000
00001000
,  // measure 35
00010000
00011000
00001000
00000110
,  // measure 36
00002000
00010000
00100000
00013000
,  // measure 37
00001000
00000100
00000001
00000010
00000001
00000100
00001000
00010000
,  // measure 38
00001000
00011000
00010000
01100000
,  // measure 39
00020000
00001000
00000010
00031000
,  // measure 40
00010000
01000000
10000000
00100000
10000000
01000000
00010000
00001000
,  // measure 41
00010000
00000000
00011000
00000000
00000100
00001000
00000100
00000001
,  // measure 42
00000100
00000000
00010000
00001000
00002000
00010000
00013000
00001000
,  // measure 43
00100000
00010000
01000000
00010000
00100000
01000000
10000000
01000000
,  // measure 44
00100000
00000000
00011000
00000000
00000100
00001000
00000010
00000100
,  // measure 45
00000010
00000000
00000100
00000100
00000020
00000100
00000130
00000001
,  // measure 46
00000010
00001000
00000010
00000001
00000100
00000000
00001000
00000000
,  // measure 47
00011000
00000000
00100000
00010000
01000000
10000000
01000000
00100000
,  // measure 48
01000000
00000000
00001000
00001000
00020000
00001000
00031000
00100000
,  // measure 49
01000000
10000000
00100000
01000000
10000000
01000000
00010000
00100000
,  // measure 50
00001000
00000000
00011000
00000000
00010000
00001000
00000100
00000000
,  // measure 51
00000101
00000000
00000001
00000010
00000100
00000010
00000001
00000000
,  // measure 52
00001000
00000100
00010000
00001000
00100000
00010000
01000000
00000000
,  // measure 53
01100000
00000000
00100000
10000000
00100000
10000000
00010000
01000000
,  // measure 54
00020000
00000000
00130000
00001000
00100000
00001000
00010000
00000100
,  // measure 55
00020000
00000000
00030010
00001000
00000100
00000010
00000100
00001000
,  // measure 56
00000002
00000000
00000013
00000001
00001000
00000010
00000100
00000001
,  // measure 57
00000100
00001000
00010000
00000000
00010000
00000200
00010000
00000300
,  // measure 58
00010000
00002000
00010000
00003000
00010000
00000020
00010000
00000030
,  // measure 59
00010000
00001000
00100000
00010000
00100000
01000000
10000000
01000000
,  // measure 60
00100000
00001000
00010000
00000100
00010000
00000100
00001000
00000001
,  // measure 61
00000200
00000000
00000301
00000010
00000001
00000010
00000200
00000000
,  // measure 62
00001300
00000010
00001000
00000010
00000200
00000000
00001300
00010000
,  // measure 63
00001000
00010000
02000000
00000000
13000000
00100000
10000000
00100000
,  // measure 64
01000000
02200000
00000000
00000000
,  // measure 65
00000000
00000000
00000000
00000000
,  // measure 66
00000000
03300000
00000000
00000000
;

//---------------dance-single - ----------------
#NOTES:
     dance-single:
     :
     Easy:
     6:
     0.258845,0.398089,0.138667,0.203378,0.000000,196.000000,181.000000,15.000000,22.000000,0.000000,0.000000,0.258845,0.398089,0.138667,0.203378,0.000000,196.000000,181.000000,15.000000,22.000000,0.000000,0.000000:
0000
0000
0000
0000
,
0000
0010
1000
0100
,
0001
0100
1000
0001
,
2002
0000
3003
0220
,
0000
0330
0202
0000
,
0303
2200
0000
3300
,
1001
0010
1000
0100
,
0010
0001
0100
0010
,
1000
0000
0100
0000
0001
0100
1000
0000
,
0001
0000
0100
0000
1000
0100
0001
0000
,
1000
0000
0100
0010
0000
0001
1000
0001
,
0100
0001
1000
0000
0010
0000
1000
0000
,
0100
0001
0100
1000
,
0100
0010
0001
1000
,
0100
0010
0001
0100
,
0010
1000
0100
0010
,
0001
1000
0001
0100
,
0000
0010
0100
0001
,
1000
0010
1000
0100
,
0010
0001
0000
0000
,
0000
1000
0000
0100
,
0000
0010
0000
0000
,
0000
0001
0000
1000
,
0000
0010
0000
0000
,
1000
0000
0000
0100
,
0000
0010
0000
0001
,
0000
0100
0000
0010
,
0000
1001
0000
0010
,
0000
1000
0000
0100
,
0010
0002
0000
2003
,
0000
3002
0000
2003
,
0000
3010
0000
1100
,
0000
0100
0000
0101
,
0000
0010
0000
0011
,
0000
1000
0000
0101
,
0000
0001
0100
0001
,
1000
0010
1000
0100
,
0000
0010
0000
0001
,
1000
0001
0000
0010
,
0000
0100
1000
0100
,
0000
0010
0000
0001
,
1000
0001
0000
0100
,
0010
0000
1000
0100
,
0000
0000
0010
0010
,
0010
0001
0000
0000
,
1000
0010
1000
0100
,
0000
0000
0010
0001
,
0100
0010
1000
0100
,
0010
0100
0010
0001
,
0000
0000
1000
0001
,
0100
1000
0000
0000
,
0100
0000
0000
0001
,
0000
0000
1000
0010
,
0100
0001
1000
0001
,
0000
0010
0001
0100
,
0000
0010
1000
0100
,
0010
0001
0100
0010
,
0000
1000
0100
0010
,
0001
1000
0001
0100
,
0000
0010
1000
0100
,
0010
0001
1000
0010
,
0100
2002
0000
3003
,
0220
0000
0330
0202
,
0000
0303
2200
0000
,
3300
2002
0000
0000
,
0000
0000
0000
0000
,
0000
3003
0000
0000
;

//---------------dance-single - ----------------
#NOTES:
     dance-single:
     :
     Challenge:
     11:
     0.692013,1.133023,0.258845,0.693334,0.318934,524.000000,496.000000,28.000000,75.000000,0.000000,0.000000,0.692013,1.133023,0.258845,0.693334,0.318934,524.000000,496.000000,28.000000,75.000000,0.000000,0.000000:
0000
0000
0000
0000
,
1000
0100
1000
0000
0000
0000
0100
0001
0010
0001
0100
0001
0010
0001
1000
0000
0000
0000
0010
0100
0001
1000
0010
0100
,
0001
1000
0010
0000
0000
0000
0010
0100
0001
1000
0010
0100
0001
0100
0001
0000
0000
0000
1000
0001
1000
0000
0100
0000
,
1000
0100
0001
0100
0020
0000
0031
0100
,
1000
0100
0020
0000
1030
0010
0001
0010
,
2000
0000
3001
0010
1000
0010
0001
0000
,
0010
1000
0100
1000
0010
1000
0010
0000
0010
0001
0100
0001
0010
0001
0010
0000
,
0010
1000
0100
1000
0010
0001
0010
0000
0010
0001
0100
0001
0010
1000
0010
0001
,
2000
0000
0010
0000
3100
0001
0100
0000
0010
0100
0010
0001
0010
1000
0010
0000
,
0002
0000
0010
0000
0103
1000
0100
0000
0010
0100
0010
0001
0010
1000
0010
0000
,
0010
0001
0010
0100
1000
1100
0010
1000
0010
0100
0001
0101
0100
1100
0100
0101
,
0010
1100
0010
0101
2000
0000
0100
0000
3020
0000
0100
0000
2030
0000
0010
0000
,
3002
0100
2003
0100
3020
0100
2030
0010
,
3002
0100
2003
0010
3002
0010
2003
0100
,
3002
0100
0023
0100
0032
0100
2003
0100
,
3020
0000
0130
0000
1100
0000
0000
0001
0101
0000
0000
1000
1010
0000
0000
0001
,
0011
0100
1000
0010
0100
0001
2002
0000
,
3003
0000
0000
0000
0001
0000
0100
0000
1000
0000
0100
0000
0001
0010
0002
0000
,
1003
0010
2000
0000
3100
0000
0010
0000
0001
0000
0010
0000
1000
0000
0100
0000
,
0001
0010
1000
0100
0010
0002
0100
0003
,
0020
0001
0030
0010
1000
0100
0010
0001
,
0100
0010
1000
0100
0010
0002
0100
0003
,
0020
0001
0030
0010
1000
0100
0010
0001
,
0100
0010
0010
0001
0010
0000
1100
0000
,
0010
1000
0010
0000
0101
0000
0010
0100
,
0010
0000
1000
0100
0001
0100
1000
0010
,
0001
0010
1000
0100
0001
0100
1000
0010
,
0001
0010
2000
0000
0000
0000
0000
0000
,
0000
0000
3001
0200
0001
0000
0000
0000
0000
0000
0310
0100
0010
0000
0000
0000
,
1100
0000
0000
0000
0002
0000
0000
0000
1003
0000
0010
1000
0200
0000
0000
0000
,
1300
0000
0010
0001
0200
0000
0000
0000
0301
0000
1000
0100
0002
0000
0000
0000
,
1003
0000
0000
0000
0110
0000
0000
0000
0100
0000
0010
0001
0020
0000
0000
0000
,
0001
0000
0130
1000
0200
0000
0000
0000
0001
0000
1300
0010
1000
0000
0000
0000
,
0101
0000
0000
0000
1100
0000
0000
0000
0001
0000
0010
0100
2000
0000
0000
0000
,
0010
0000
3001
0100
0020
0000
0000
0000
0032
0000
0000
0000
0203
0000
0000
0000
,
1300
0000
1010
0000
0100
0001
0010
0100
,
1000
0010
0102
0000
1000
0000
0013
0000
,
0001
0010
1000
0010
0001
0100
1000
0100
,
0001
0010
1100
0000
0010
0100
1000
0010
,
0100
0001
2100
0000
0001
0000
3010
0000
,
0100
0001
0010
1000
0010
0001
0100
1000
,
0100
0001
0001
0100
0020
0100
0030
0001
,
1000
0100
0020
0100
0030
1000
0010
0020
,
2030
3010
1000
2000
3001
0002
0203
0302
,
0203
0301
0010
0001
2000
0010
3000
0100
,
0010
1000
0002
0010
0003
0100
0001
0010
,
1000
0001
0100
1000
0102
0000
0013
0000
,
1100
0000
0010
0001
0200
1000
0300
0100
,
0010
1000
0200
0001
0300
0100
1000
2000
,
3002
2003
0001
3002
0103
0200
0320
0230
,
0310
0100
1020
0000
0130
0001
0010
0000
,
1200
0000
0310
0100
1000
0001
0100
0010
,
0001
0010
1000
0100
0102
0000
0013
0000
,
1100
0000
0010
1000
0100
1000
0001
0100
,
0002
0000
0013
0001
0100
0001
1000
0100
,
2000
0000
3010
1000
0100
0010
0100
1000
,
0002
0000
0013
0001
0100
0010
0100
0001
,
1000
0100
0010
0100
0010
1000
0010
0100
,
0010
0001
0010
0100
0010
1000
0010
0100
,
0010
0001
0100
0001
1000
0100
0010
0100
,
1000
0010
0100
0010
1000
0001
1000
0100
,
0010
0001
1000
0100
0001
0100
0020
0000
,
0031
0100
1000
0100
0020
0000
1030
0010
,
0001
0010
2000
0000
3001
0010
1000
0010
,
0001
2002
0000
0000
,
0000
0000
0000
0000
,
0000
3003
0000
0000
;
