#TITLE:i feel... (T.O.Y. Remix);
#SUBTITLE:;
#ARTIST:T.O.Y.;
#TITLETRANSLIT:;
#SUBTITLETRANSLIT:;
#ARTISTTRANSLIT:;
#GENRE:DDR ULTRAMIX 2;
#CREDIT:;
#BANNER:i feel (TOY Remix)-bn.jpg;
#BACKGROUND:i feel (TOY Remix)-bg.jpg;
#LYRICSPATH:;
#CDTITLE:;
#MUSIC:i feel (TOY Remix).mp3;
#OFFSET:-1.904000;
#SAMPLESTART:67.839996;
#SAMPLELENGTH:12.000000;
#SELECTABLE:YES;
#DISPLAYBPM:141.000000;
#BPMS:0.000000=141.000000
;
#STOPS:
;
#BGCHANGES:;
#KEYSOUNDS:;
#ATTACKS:;

//---------------dance-single - ----------------
#NOTES:
     dance-single:
     :
     Beginner:
     2:
     0.141999,0.195875,0.066823,0.000000,0.000000,119.000000,111.000000,8.000000,0.000000,0.000000,0.000000,0.141999,0.195875,0.066823,0.000000,0.000000,119.000000,111.000000,8.000000,0.000000,0.000000,0.000000:
// measure 0
0000
0000
0000
0000
,  // measure 1
0000
0000
0000
0000
,  // measure 2
0000
0000
0000
0000
,  // measure 3
1000
0000
0000
0000
,  // measure 4
0001
0000
0000
0000
,  // measure 5
0100
0000
0000
0000
,  // measure 6
0000
0000
0000
0000
,  // measure 7
1001
0000
0000
0000
,  // measure 8
0000
0000
0000
0000
,  // measure 9
0100
0000
0000
0000
,  // measure 10
0010
0000
0000
0000
,  // measure 11
1001
0000
0000
0000
,  // measure 12
1000
0000
0000
0000
,  // measure 13
0001
0000
0000
0100
,  // measure 14
0000
0000
0000
0000
,  // measure 15
1001
0000
0001
0000
,  // measure 16
1000
0000
0001
0000
,  // measure 17
1000
0000
0001
0000
,  // measure 18
1000
0000
0100
0000
,  // measure 19
1000
0000
0010
0000
,  // measure 20
0001
0000
0010
0000
,  // measure 21
1000
0000
1000
0000
,  // measure 22
0001
0000
0001
0000
,  // measure 23
1000
0000
0100
0000
,  // measure 24
0001
0000
1000
0000
,  // measure 25
0010
0000
1000
0000
,  // measure 26
0100
0000
0001
0000
,  // measure 27
0001
0000
1000
0000
,  // measure 28
0001
0000
1000
0000
,  // measure 29
0001
0000
0100
0000
,  // measure 30
0110
0000
0100
0000
,  // measure 31
0001
0000
1000
0000
,  // measure 32
0001
0000
1000
0000
,  // measure 33
0001
0000
0010
0000
,  // measure 34
0100
0000
0100
0000
,  // measure 35
1000
0000
0001
0000
,  // measure 36
0010
0000
0010
0000
,  // measure 37
1000
0000
0001
0000
,  // measure 38
0010
0000
0001
0000
,  // measure 39
0001
0000
0010
0000
,  // measure 40
1000
0000
0001
0000
,  // measure 41
0100
0000
0001
0000
,  // measure 42
0010
0000
1000
0000
,  // measure 43
1000
0000
0001
0000
,  // measure 44
1000
0000
0001
0000
,  // measure 45
1000
0000
0010
0000
,  // measure 46
1001
0000
0010
0000
,  // measure 47
1000
0000
1000
0000
,  // measure 48
0001
0000
0001
0000
,  // measure 49
1000
0000
0001
0000
,  // measure 50
1000
0000
0001
0000
,  // measure 51
0010
0000
0100
0000
,  // measure 52
0001
0000
1000
0000
,  // measure 53
0010
0000
0010
0000
,  // measure 54
1000
0000
0001
0000
,  // measure 55
0100
0000
1000
0000
,  // measure 56
0110
0000
0100
0000
,  // measure 57
1001
0000
0100
0000
,  // measure 58
0000
0001
0000
0100
,  // measure 59
0000
0000
0100
0000
,  // measure 60
1001
0000
0000
0010
,  // measure 61
0000
0100
0000
1000
,  // measure 62
0000
0001
0000
0100
,  // measure 63
0000
0000
0000
0000
,  // measure 64
1000
0000
0000
0010
,  // measure 65
0000
0001
0000
1000
,  // measure 66
0000
0100
0000
0000
,  // measure 67
0100
0000
0000
0000
;

//---------------dance-single - ----------------
#NOTES:
     dance-single:
     :
     Easy:
     5:
     0.268486,0.367841,0.175411,0.359174,0.000000,225.000000,204.000000,21.000000,43.000000,0.000000,0.000000,0.268486,0.367841,0.175411,0.359174,0.000000,225.000000,204.000000,21.000000,43.000000,0.000000,0.000000:
// measure 0
0000
0000
0000
0000
,  // measure 1
0000
0000
0000
0000
,  // measure 2
0000
0000
0000
0000
,  // measure 3
2000
0000
0000
0000
,  // measure 4
3002
0000
0000
0000
,  // measure 5
0203
0000
0000
0000
,  // measure 6
0300
0000
0000
0000
,  // measure 7
2002
0000
0000
0000
,  // measure 8
0000
0000
0000
3003
,  // measure 9
0200
0000
0000
0000
,  // measure 10
0320
0000
0000
0030
,  // measure 11
2002
0000
0000
3003
,  // measure 12
2000
0000
0000
0000
,  // measure 13
3002
0000
0000
0203
,  // measure 14
0000
0000
0000
0300
,  // measure 15
1001
0100
0001
0100
,  // measure 16
1000
0100
0001
0100
,  // measure 17
1000
1000
0001
0001
,  // measure 18
1000
0001
0100
0010
,  // measure 19
1000
0100
0010
0010
,  // measure 20
0001
0100
0010
0010
,  // measure 21
1000
0100
1000
0100
,  // measure 22
0001
0100
0001
0100
,  // measure 23
2000
0001
0100
0001
,  // measure 24
3002
0100
1000
0100
,  // measure 25
0023
0001
1000
0001
,  // measure 26
0230
1000
0001
1300
,  // measure 27
0001
0101
1000
1100
,  // measure 28
0001
0101
1000
1100
,  // measure 29
0002
0010
0100
0013
,  // measure 30
2100
0010
0100
3010
,  // measure 31
0001
0100
1000
0100
,  // measure 32
0001
0100
1000
0001
,  // measure 33
0001
0010
0010
1000
,  // measure 34
0100
0001
0100
0100
,  // measure 35
1000
1000
0001
0100
,  // measure 36
0010
1100
0010
0101
,  // measure 37
1000
1000
0001
0001
,  // measure 38
0010
1000
0001
0100
,  // measure 39
0002
1000
0010
1000
,  // measure 40
2003
0010
0001
0010
,  // measure 41
3200
1000
0001
1000
,  // measure 42
0320
0001
1000
0031
,  // measure 43
1000
1010
0001
0011
,  // measure 44
1000
1010
0001
0011
,  // measure 45
2000
0100
0010
3100
,  // measure 46
0012
0100
0010
0103
,  // measure 47
1000
0100
1000
0100
,  // measure 48
0001
0100
0001
0100
,  // measure 49
1000
0100
0001
0100
,  // measure 50
1000
0100
0001
0100
,  // measure 51
0010
0010
0100
0100
,  // measure 52
0001
0101
1000
1100
,  // measure 53
0010
0100
0010
0100
,  // measure 54
1000
0100
0001
0001
,  // measure 55
0200
1000
1000
0310
,  // measure 56
0102
1000
0100
0013
,  // measure 57
2001
0100
0100
0001
,  // measure 58
0000
0001
0000
3100
,  // measure 59
2002
3003
0100
0000
,  // measure 60
2002
0000
3003
0020
,  // measure 61
2030
3200
0302
2003
,  // measure 62
0000
3002
0000
0203
,  // measure 63
0020
0300
0000
0000
,  // measure 64
2030
0000
3000
0020
,  // measure 65
0001
0001
1000
1030
,  // measure 66
0002
0100
0000
0003
,  // measure 67
0200
0000
0000
0300
;

//---------------dance-single - ----------------
#NOTES:
     dance-single:
     :
     Medium:
     6:
     0.349628,0.452727,0.050117,0.192117,0.041764,293.000000,287.000000,6.000000,23.000000,0.000000,0.000000,0.349628,0.452727,0.050117,0.192117,0.041764,293.000000,287.000000,6.000000,23.000000,0.000000,0.000000:
// measure 0
0000
0000
0000
0000
,  // measure 1
0000
0000
0000
0000
,  // measure 2
0000
0000
0000
0000
,  // measure 3
0001
0000
0000
0010
0000
0000
0100
0000
2000
0000
0000
0000
0000
0000
0000
0000
,  // measure 4
0000
0000
0000
0000
0000
0000
0000
0000
3000
0000
0010
0000
0000
0100
0000
0000
,  // measure 5
0002
0000
0000
0003
,  // measure 6
1000
0001
1000
0001
1000
0001
1000
0000
,  // measure 7
2001
0000
0100
0000
0000
0100
0000
0000
,  // measure 8
0001
0000
0000
0100
0000
0000
3000
0000
,  // measure 9
0120
0000
0001
0000
0000
0001
0000
0000
,  // measure 10
0100
0000
0000
0001
0000
0000
0030
0000
,  // measure 11
0102
0000
1000
0000
0000
1000
0000
0000
,  // measure 12
0010
0000
0000
1000
0000
0000
0003
0000
,  // measure 13
2002
0000
0000
3003
,  // measure 14
0000
0010
0100
0010
0100
0010
0100
0000
,  // measure 15
0010
0000
0000
0100
0000
0000
0001
0000
1000
0000
1000
0000
0002
0000
0000
0000
,  // measure 16
0000
0000
0000
0003
,  // measure 17
1000
0000
0000
0010
0000
0000
0200
0000
0000
0000
0000
0000
0000
0000
0000
0000
,  // measure 18
0000
0000
0000
0300
,  // measure 19
0001
0000
0000
1000
0000
0000
0100
0000
1000
0000
1000
0000
0200
0000
0000
0000
,  // measure 20
0000
0000
0000
0300
,  // measure 21
1000
0000
0000
0001
0000
0000
2000
0000
0000
0000
0000
0000
0000
0000
0000
0000
,  // measure 22
0000
0000
0000
3000
,  // measure 23
0010
1000
0001
0000
0100
0001
1000
0000
,  // measure 24
0010
1000
0010
0000
0001
0100
0001
0000
,  // measure 25
0001
1000
0100
0000
0100
1000
0001
0000
,  // measure 26
0001
0010
0001
0000
1000
0100
1000
0000
,  // measure 27
0010
0100
0001
0000
1000
0010
0100
0000
,  // measure 28
0001
1000
0100
0000
1000
0010
0100
0000
,  // measure 29
0001
0010
0100
0000
1000
0010
0100
0000
,  // measure 30
1000
0001
0100
0000
0010
0100
0001
0000
,  // measure 31
0001
0010
0100
1000
0010
0100
0100
0000
,  // measure 32
0001
0010
0100
1000
0010
0100
0100
0000
,  // measure 33
0010
0100
0001
1000
0010
0100
0100
0000
,  // measure 34
0010
1000
0001
0100
0010
0100
0001
0000
,  // measure 35
1000
0010
0100
0001
0010
0100
0100
0000
,  // measure 36
1000
0010
0100
0001
0010
0100
0100
0000
,  // measure 37
1000
0001
0100
0010
0100
0001
0001
0000
,  // measure 38
2002
0000
0000
3003
,  // measure 39
1000
0010
1000
0000
1000
0001
1000
0000
,  // measure 40
1000
0100
1000
0000
1000
0001
1000
0000
,  // measure 41
0010
0100
0010
0000
0010
1000
0010
0000
,  // measure 42
0010
0001
0010
0000
0010
0100
0010
0000
,  // measure 43
0100
0001
0100
0000
0100
0010
0100
0000
,  // measure 44
0100
1000
0100
0000
0100
0001
0100
0000
,  // measure 45
0001
0010
0001
0000
0001
1000
0001
0000
,  // measure 46
0001
0100
0001
0000
0001
0010
0001
0000
,  // measure 47
0100
0000
0000
0010
0000
0000
1000
0000
0001
0000
0001
0000
2000
0000
0000
0000
,  // measure 48
0000
0000
0000
3000
,  // measure 49
0010
0000
0000
0100
0000
0000
0002
0000
0000
0000
0000
0000
0000
0000
0000
0000
,  // measure 50
0000
0000
0000
0003
,  // measure 51
1000
0000
0000
0010
0000
0000
1000
0000
0010
0000
0010
0000
0200
0000
0000
0000
,  // measure 52
0000
0000
0000
0300
,  // measure 53
0001
0000
0000
0010
0000
0000
0200
0000
0000
0000
0000
0000
0000
0000
0000
0000
,  // measure 54
0000
0000
0000
0300
,  // measure 55
0100
1000
0100
0000
1000
0010
1000
0000
,  // measure 56
0100
0001
0100
0000
0001
0010
0001
0000
,  // measure 57
0001
0100
1000
0000
1000
0100
0001
0000
,  // measure 58
0001
0010
1000
0000
1000
0010
0001
0000
,  // measure 59
0001
0010
0100
0000
1000
0010
0100
0000
,  // measure 60
0001
0100
0001
0000
1000
0100
1000
0000
,  // measure 61
0001
1000
0001
0000
1000
0001
1000
0000
,  // measure 62
0010
0100
0010
0000
0100
0010
0100
0000
,  // measure 63
0002
0103
2000
3100
,  // measure 64
0010
0001
0010
0000
0001
1000
0001
0000
,  // measure 65
0200
0310
0200
0301
,  // measure 66
0001
0100
0001
0000
0010
1000
0010
0000
,  // measure 67
2200
0000
0000
3300
;

//---------------dance-single - ----------------
#NOTES:
     dance-single:
     :
     Hard:
     7:
     0.424804,0.481022,0.133646,0.133646,0.221352,356.000000,340.000000,16.000000,16.000000,0.000000,0.000000,0.424804,0.481022,0.133646,0.133646,0.221352,356.000000,340.000000,16.000000,16.000000,0.000000,0.000000:
// measure 0
0000
0000
0000
0000
,  // measure 1
0000
0000
0000
0000
,  // measure 2
0000
0000
0000
0000
,  // measure 3
1000
0000
0000
0001
0000
0000
1000
0000
0200
0000
0000
0000
0000
0000
0000
0000
,  // measure 4
0000
0000
0000
0000
0000
0000
0000
0000
0300
0000
1000
0000
0000
0001
0000
0000
,  // measure 5
2000
0000
0000
0000
,  // measure 6
0000
0000
3000
0000
,  // measure 7
0010
1000
0100
0000
0000
0010
0000
2002
,  // measure 8
0000
0000
0000
3003
,  // measure 9
0010
0001
0100
0000
0000
0010
0000
2002
,  // measure 10
0000
0000
0000
3003
,  // measure 11
0100
0001
1000
0000
0000
0100
0000
2002
,  // measure 12
0000
0000
0000
3003
,  // measure 13
0100
1000
0001
0000
0000
0100
0000
1001
,  // measure 14
0000
1000
0001
1000
0001
1000
0001
0000
,  // measure 15
0010
0000
0000
0010
1000
0000
0000
1000
0100
0000
0000
0100
0001
0000
0000
0001
,  // measure 16
0100
0000
0000
0100
0010
0000
0000
0010
0001
0000
0000
0001
0100
0000
0000
0100
,  // measure 17
1000
0000
0000
1000
0100
0000
0000
0100
0010
0000
0000
0010
1000
0000
0000
1000
,  // measure 18
0001
0000
0000
0001
0010
0000
0000
0010
0001
0000
1000
0000
0001
0000
0010
0000
,  // measure 19
0001
0000
0000
0001
0100
0000
0000
0100
0001
0000
0000
0001
0010
0000
0000
0010
,  // measure 20
1000
0000
0000
1000
0010
0000
0000
0010
0100
0000
0000
0100
1000
0000
0000
1000
,  // measure 21
0010
0000
0000
0010
0100
0000
0000
0100
0001
0000
0000
0001
1000
0000
0000
1000
,  // measure 22
0001
0000
0000
0001
0100
0000
0010
0000
1000
0000
0001
0000
0100
0000
0000
0000
,  // measure 23
0000
0010
1000
0010
0000
1000
0100
1000
,  // measure 24
0000
0100
0001
0100
0000
0001
0010
0001
,  // measure 25
0000
0010
0001
0010
0000
0001
0100
0001
,  // measure 26
0000
0100
1000
0100
0000
1000
0010
1000
,  // measure 27
0000
1000
0010
0100
0000
1000
0010
0100
,  // measure 28
0000
1000
0010
0100
0000
1000
0010
0100
,  // measure 29
0000
0001
0100
0010
0000
0001
0100
0010
,  // measure 30
0000
0001
0100
0010
0000
0001
0000
0000
,  // measure 31
0010
1000
0001
0010
0000
0011
0000
0000
,  // measure 32
0010
0001
1000
0010
0000
1010
0000
0000
,  // measure 33
0100
1000
0001
0100
0000
0101
0000
0000
,  // measure 34
0100
0001
1000
0100
0000
1100
0000
0000
,  // measure 35
0010
0001
0100
0101
0000
0110
0000
0000
,  // measure 36
0010
1000
0100
1100
0000
0110
0000
0000
,  // measure 37
0001
0100
1000
0100
0000
1001
0000
0000
,  // measure 38
0220
0000
0000
0330
,  // measure 39
0001
0010
0100
1000
0010
1000
1000
0000
,  // measure 40
0010
1000
0001
0100
0010
0100
0100
0000
,  // measure 41
0010
0100
0001
1000
0001
0010
0010
0000
,  // measure 42
0100
1000
0010
1000
0100
0001
0001
0000
,  // measure 43
0100
0010
1000
0001
0010
0100
0100
0000
,  // measure 44
1000
0010
0100
0001
1000
0010
0010
0000
,  // measure 45
0100
0001
1000
0010
1000
0001
0001
0000
,  // measure 46
1000
0100
0010
0001
1000
0010
0010
0000
,  // measure 47
0010
0000
0000
0100
0000
0000
0001
0000
1000
0000
0001
0000
0001
0000
0000
0000
,  // measure 48
0100
0000
0000
0010
0000
0000
1000
0000
0001
0000
1000
0000
1000
0000
0000
0000
,  // measure 49
0010
0000
0000
0001
0000
0000
2000
0000
0000
0000
0000
0000
0000
0000
0000
0000
,  // measure 50
0020
0000
0000
3030
,  // measure 51
0100
0000
0000
0010
0000
0000
1000
0000
0001
0000
1000
0000
1000
0000
0000
0000
,  // measure 52
0010
0000
0000
0100
0000
0000
0001
0000
1000
0000
0001
0000
0001
0000
0000
0000
,  // measure 53
0100
0000
0000
1000
0000
0000
0002
0000
0000
0000
0000
0000
0000
0000
0000
0000
,  // measure 54
0200
0000
0000
0303
,  // measure 55
0001
0000
0000
1000
0000
0000
0010
0000
0100
0010
0000
0000
0100
0000
0000
0000
,  // measure 56
0010
0000
0000
0100
0000
0000
0001
0000
1000
0001
0000
0000
1000
0000
0000
0000
,  // measure 57
0001
0000
0000
0010
0000
0000
0100
0000
1000
0100
0000
0000
1000
0000
0000
0000
,  // measure 58
1000
0000
0000
0100
0000
0000
0010
0000
0001
0010
0000
0000
0001
0000
0000
0000
,  // measure 59
0001
0000
0000
0100
0000
0000
1000
0000
1000
0100
0000
0000
0001
0000
0000
0000
,  // measure 60
0001
0000
0000
0010
0000
0000
1000
0000
1000
0010
0000
0000
0001
0000
0000
0000
,  // measure 61
1000
0000
0000
0001
0000
0000
0100
0000
0100
0001
0000
0000
0100
0000
0000
0000
,  // measure 62
0010
0000
0000
1000
0000
0000
0001
0000
0100
0000
0100
0000
0100
0000
0000
0000
,  // measure 63
0001
1000
0001
0000
1000
0001
1000
0000
,  // measure 64
0010
0000
0100
0000
0010
0000
0000
0000
0010
0100
0000
0000
0110
0000
0000
0000
,  // measure 65
0010
0001
0010
0000
0100
1000
0100
0000
,  // measure 66
0010
0000
1000
0000
0010
0000
0000
0000
0010
1000
0000
1000
0010
0000
0000
0000
,  // measure 67
2020
0000
0000
3030
;

//---------------dance-double - ----------------
#NOTES:
     dance-double:
     :
     Beginner:
     2:
     0.144386,0.167893,0.016706,0.000000,0.000000,121.000000,119.000000,2.000000,0.000000,0.000000,0.000000,0.144386,0.167893,0.016706,0.000000,0.000000,121.000000,119.000000,2.000000,0.000000,0.000000,0.000000:
// measure 0
00000000
00000000
00000000
00000000
,  // measure 1
00000000
00000000
00000000
00000000
,  // measure 2
00000000
00000000
00000000
00000000
,  // measure 3
00100000
00000000
00010000
00000000
,  // measure 4
00001000
00000000
00000100
00000000
,  // measure 5
00000010
00000000
00000001
00000000
,  // measure 6
00001001
00000000
00000000
00000000
,  // measure 7
00000010
00000000
00000000
00000000
,  // measure 8
00000001
00000000
00000000
00000000
,  // measure 9
00000100
00000000
00000000
00000000
,  // measure 10
00001000
00000000
00000000
00000000
,  // measure 11
00000010
00000000
00000000
00000000
,  // measure 12
00001000
00000000
00000000
00000000
,  // measure 13
00010000
00000000
00000000
00000000
,  // measure 14
01000000
00000000
00000000
00000000
,  // measure 15
00100000
00000000
01000000
00000000
,  // measure 16
00010000
00000000
00000100
00000000
,  // measure 17
00000001
00000000
00000100
00000000
,  // measure 18
00000001
00000000
00000010
00000000
,  // measure 19
00000010
00000000
00000100
00000000
,  // measure 20
00001000
00000000
01000000
00000000
,  // measure 21
10000000
00000000
01000000
00000000
,  // measure 22
10000000
00000000
00100000
00000000
,  // measure 23
10000000
00000000
00010000
00000000
,  // measure 24
00100000
00000000
01000000
00000000
,  // measure 25
00100000
00000000
01000000
00000000
,  // measure 26
10000000
00000000
00010000
00000000
,  // measure 27
00001000
00000000
00010000
00000000
,  // measure 28
00000100
00000000
00001000
00000000
,  // measure 29
00000001
00000000
00001000
00000000
,  // measure 30
00000001
00000000
00001000
00000000
,  // measure 31
00000010
00000000
00000100
00000000
,  // measure 32
00000100
00000000
00010000
00000000
,  // measure 33
00010000
00000000
10000000
00000000
,  // measure 34
10000000
00000000
00010000
00000000
,  // measure 35
00100000
00000000
01000000
00000000
,  // measure 36
01000000
00000000
00001000
00000000
,  // measure 37
00001000
00000000
00000001
00000000
,  // measure 38
00000010
00000000
00000000
00000000
,  // measure 39
00000010
00000000
00000010
00000000
,  // measure 40
00000001
00000000
00000001
00000000
,  // measure 41
00000100
00000000
00001000
00000000
,  // measure 42
00010000
00000000
01000000
00000000
,  // measure 43
10000000
00000000
10000000
00000000
,  // measure 44
01000000
00000000
01000000
00000000
,  // measure 45
00100000
00000000
00010000
00000000
,  // measure 46
00001000
00000000
00000010
00000000
,  // measure 47
00001000
00000000
00000001
00000000
,  // measure 48
00000001
00000000
00001000
00000000
,  // measure 49
00000100
00000000
00010000
00000000
,  // measure 50
00001000
00000000
01000000
00000000
,  // measure 51
00010000
00000000
10000000
00000000
,  // measure 52
10000000
00000000
00010000
00000000
,  // measure 53
01000000
00000000
00001000
00000000
,  // measure 54
00010000
00000000
00000100
00000000
,  // measure 55
00000010
00000000
00001000
00000000
,  // measure 56
00010000
00000000
00100000
00000000
,  // measure 57
10000000
00000000
00100000
00000000
,  // measure 58
00010000
00000000
01000000
00000000
,  // measure 59
01000000
00000000
00010000
00000000
,  // measure 60
00001000
00000000
00000100
00000000
,  // measure 61
00000001
00000000
00000100
00000000
,  // measure 62
00001000
00000000
00000010
00000000
,  // measure 63
00000010
00000000
00010000
00000000
,  // measure 64
00001000
00000000
01000000
00000000
,  // measure 65
00100000
00000000
00001000
00000000
,  // measure 66
00010000
00000000
00000100
00000000
,  // measure 67
00001001
00000000
00000000
00000000
;

//---------------dance-double - ----------------
#NOTES:
     dance-double:
     :
     Easy:
     3:
     0.217175,0.282954,0.016706,0.225528,0.000000,182.000000,180.000000,2.000000,27.000000,0.000000,0.000000,0.217175,0.282954,0.016706,0.225528,0.000000,182.000000,180.000000,2.000000,27.000000,0.000000,0.000000:
// measure 0
00000000
00000000
00000000
00000000
,  // measure 1
00000000
00000000
00000000
00000000
,  // measure 2
00000000
00000000
00000000
00000000
,  // measure 3
00100000
10000000
00010000
01000000
,  // measure 4
00001000
00010000
00000100
00001000
,  // measure 5
00000010
00001000
00000001
00000100
,  // measure 6
00001001
00000000
00000000
00000000
,  // measure 7
00000020
00000000
00000000
00000030
,  // measure 8
00000002
00000000
00000000
00000003
,  // measure 9
00000200
00000000
00000000
00000300
,  // measure 10
00002000
00000000
00000000
00003000
,  // measure 11
00000020
00000000
00000000
00000030
,  // measure 12
00002000
00000000
00000000
00003000
,  // measure 13
00020000
00000000
00000000
00030000
,  // measure 14
02000000
00000000
00000000
03000000
,  // measure 15
00100000
10000000
01000000
00000000
,  // measure 16
00010000
00001000
00000100
00000000
,  // measure 17
00000001
00001000
00000100
00000000
,  // measure 18
00000001
00001000
00000010
00000000
,  // measure 19
00000010
00000001
00000100
00000000
,  // measure 20
00001000
00010000
01000000
00000000
,  // measure 21
10000000
00010000
01000000
00000000
,  // measure 22
10000000
00010000
00100000
00000000
,  // measure 23
20000000
31000000
00020000
01030000
,  // measure 24
00200000
10300000
02000000
13000000
,  // measure 25
00200000
00310000
02000000
03010000
,  // measure 26
20000000
30100000
00020000
00130000
,  // measure 27
00002000
00013000
00020000
00031000
,  // measure 28
00000200
00001300
00002000
00003100
,  // measure 29
00000002
00000103
00002000
00003100
,  // measure 30
00000002
00000013
00002000
00003010
,  // measure 31
00000010
00000001
00000100
00000000
,  // measure 32
00000100
00001000
00010000
00000000
,  // measure 33
00010000
01000000
10000000
00000000
,  // measure 34
10000000
00100000
00010000
00000000
,  // measure 35
00100000
10000000
01000000
00000000
,  // measure 36
01000000
00010000
00001000
00000000
,  // measure 37
00001000
00000100
00000001
00000000
,  // measure 38
00000020
00000000
00000000
00000030
,  // measure 39
00000010
00000100
00000010
00000000
,  // measure 40
00000001
00001000
00000001
00000000
,  // measure 41
00000100
00000000
00001000
00000000
,  // measure 42
00010000
00000000
01000000
00000000
,  // measure 43
10000000
00010000
10000000
00000000
,  // measure 44
01000000
00100000
01000000
00000000
,  // measure 45
00100000
00000000
00010000
00000000
,  // measure 46
00001000
00000000
00000010
00000000
,  // measure 47
00001000
00000010
00000001
00000000
,  // measure 48
00000001
00000100
00001000
00000000
,  // measure 49
00000100
00001000
00010000
00000000
,  // measure 50
00001000
00010000
01000000
00000000
,  // measure 51
00010000
00100000
10000000
00000000
,  // measure 52
10000000
00100000
00010000
00000000
,  // measure 53
01000000
00010000
00001000
00000000
,  // measure 54
00010000
00001000
00000100
00000000
,  // measure 55
00000010
00000100
00001000
00000000
,  // measure 56
00010000
01000000
00100000
00000000
,  // measure 57
10000000
00010000
00100000
00000000
,  // measure 58
00010000
10000000
01000000
00000000
,  // measure 59
01000000
00100000
00010000
00000000
,  // measure 60
00001000
00000010
00000100
00000000
,  // measure 61
00000001
00001000
00000100
00000000
,  // measure 62
00001000
00000001
00000010
00000000
,  // measure 63
00000010
00001000
00010000
00000000
,  // measure 64
00001000
00010000
01000000
00000000
,  // measure 65
00100000
00010000
00001000
00000000
,  // measure 66
00010000
00001000
00000100
00000000
,  // measure 67
00002002
00000000
00000000
00003003
;

//---------------dance-double - ----------------
#NOTES:
     dance-double:
     :
     Medium:
     6:
     0.320990,0.396136,0.200469,0.141999,0.041764,269.000000,245.000000,24.000000,17.000000,0.000000,0.000000,0.320990,0.396136,0.200469,0.141999,0.041764,269.000000,245.000000,24.000000,17.000000,0.000000,0.000000:
// measure 0
00000000
00000000
00000000
00000000
,  // measure 1
00000000
00000000
00000000
00000000
,  // measure 2
00000000
00000000
00000000
00000000
,  // measure 3
00000010
00000000
00000000
00000001
00000000
00000000
00001000
00000000
00000200
00000000
00000000
00000000
00000000
00000000
00000000
00000000
,  // measure 4
00000000
00000000
00000000
00000000
00000000
00000000
00000300
00000000
00000000
00000000
00000000
00000010
00000000
00000000
00000001
00000000
,  // measure 5
00002000
00000000
00000000
00000000
,  // measure 6
00003000
00000000
00000000
00000001
,  // measure 7
00002000
00000000
00000000
00000000
,  // measure 8
00003010
00000000
00000000
00000010
,  // measure 9
00000200
00000000
00000000
00000000
,  // measure 10
00000310
00000000
00000000
00010000
,  // measure 11
00002000
00000000
00000000
00000000
,  // measure 12
00013000
00000000
00000000
00100000
,  // measure 13
02000000
00000000
00000000
00000000
00000000
00000000
00000000
10000000
,  // measure 14
03000000
10000000
10000000
10000000
10000000
00000000
00100000
00000000
,  // measure 15
00100000
00000000
00110000
00000000
00010000
01000000
00010000
00000000
,  // measure 16
01000000
00000000
01001000
00000000
00010000
00001000
00010000
00000000
,  // measure 17
00000100
00000000
00001100
00000000
00000100
00000010
00000100
00000000
,  // measure 18
00000010
00000000
00000011
00000000
00000001
00000100
00000001
00000000
,  // measure 19
00000010
00000000
00010010
00000000
00001000
00010000
01000000
00000000
,  // measure 20
10000000
00000000
10100000
00000000
00100000
01000000
00010000
00000000
,  // measure 21
10000000
00000000
11000000
00000000
01000000
00010000
00001000
00000000
,  // measure 22
00001000
00000000
00000110
00000000
00000001
00001000
00000100
00000000
,  // measure 23
00000000
00000001
00000010
00001000
00000000
00011000
00000000
00000000
,  // measure 24
00000000
00010000
01000000
10000000
00000000
10010000
00000000
00000000
,  // measure 25
00000000
10000000
00100000
00010000
00000000
10010000
00000000
00000000
,  // measure 26
00000000
00001000
00000100
00000001
00000000
00001001
00000000
00000000
,  // measure 27
00000000
00000010
00000100
00000010
00000000
00000110
00000000
00000000
,  // measure 28
00000000
00001000
00010000
00001000
00000000
00011000
00000000
00000000
,  // measure 29
00000000
01000000
00100000
01000000
00000000
01100000
00000000
00000000
,  // measure 30
00000000
10000000
00010000
10000000
00000000
10010000
00000000
00000000
,  // measure 31
10000000
01000000
00100000
01000000
00000000
01100000
00000000
00000000
,  // measure 32
01000000
00100000
00001000
00010000
00000000
00011000
00000000
00000000
,  // measure 33
00001000
00000010
00000100
00000010
00000000
00000110
00000000
00000000
,  // measure 34
00000001
00000100
00001000
00000100
00000000
00000101
00000000
00000000
,  // measure 35
00000100
00001000
00010000
00001000
00000000
00011000
00000000
00000000
,  // measure 36
00010000
01000000
10000000
00010000
00000000
10010000
00000000
00000000
,  // measure 37
00100000
10000000
00010000
01000000
00000000
01100000
00000000
00000000
,  // measure 38
02000000
00000000
00000000
03000000
,  // measure 39
10000000
00010000
00100000
00000000
01000000
10000000
00010000
00000000
,  // measure 40
00100000
00100000
00010000
10000000
,  // measure 41
01000000
10000000
00010000
00000000
00100000
00001000
00010000
00000000
,  // measure 42
00000100
00000100
00000010
00000010
,  // measure 43
00000001
00000010
00001000
00000000
00000001
00000100
00001000
00000000
,  // measure 44
00001000
00001000
00010000
00010000
,  // measure 45
00100000
01000000
00100000
00000000
10000000
00010000
10000000
00000000
,  // measure 46
00010000
00010000
00001000
00001000
,  // measure 47
00000010
00000000
00000000
00000001
00000000
00000000
00000100
00000000
00001000
00000000
00000000
00000000
00000000
00000000
00000000
00000000
,  // measure 48
00000100
00001000
00010000
00100000
,  // measure 49
01000000
00000000
00000000
00010000
00000000
00000000
00200000
00000000
00000000
00000000
00000000
00000000
00000000
00000000
00300000
00000000
,  // measure 50
02000000
00000000
00000000
03000000
,  // measure 51
00100000
00000000
00000000
10000000
00000000
00000000
01000000
00000000
00010000
00000000
00000000
00000000
00000000
00000000
00000000
00000000
,  // measure 52
01000000
00010000
00001000
00000010
,  // measure 53
00000001
00000000
00000000
00000100
00000000
00000000
00000020
00000000
00000000
00000000
00000000
00000000
00000000
00000000
00000030
00000000
,  // measure 54
00002000
00000000
00000000
00003000
,  // measure 55
00000001
00000000
00000000
00000100
00000000
00000000
00000010
00000000
00001000
00000000
00000000
00000000
00000000
00000000
00000000
00000000
,  // measure 56
00000010
00010000
00001000
00100000
,  // measure 57
00010000
00000000
00000000
10000000
00000000
00000000
02000000
00000000
00000000
00000000
00000000
00000000
00000000
00000000
03000000
00000000
,  // measure 58
00200000
00000000
00000000
00300000
,  // measure 59
00100000
00000000
00000000
00001000
00000000
00000000
00010000
00000000
00000010
00000000
00000000
00000000
00000000
00000000
00000000
00000000
,  // measure 60
00000001
00000001
00001000
00001000
,  // measure 61
00001000
00000000
00000000
00010000
00000000
00000000
02000000
00000000
00000000
00000000
00000000
00000000
00000000
00000000
03000000
00000000
,  // measure 62
00200000
00000000
00000000
00300000
,  // measure 63
10000000
00100000
10000000
00000000
00010000
01000000
00010000
00000000
,  // measure 64
01000000
00001000
01000000
00000000
00001000
00010000
00001000
00000000
,  // measure 65
00010000
00000010
00010000
00000000
00000100
00001000
00000100
00000000
,  // measure 66
00000010
00000001
00000010
00000000
00000100
00001000
00000100
00000000
,  // measure 67
00022000
00000000
00000000
00033000
;

//---------------dance-double - ----------------
#NOTES:
     dance-double:
     :
     Hard:
     8:
     0.486854,0.452727,0.033412,0.033412,0.012529,408.000000,404.000000,4.000000,4.000000,0.000000,0.000000,0.486854,0.452727,0.033412,0.033412,0.012529,408.000000,404.000000,4.000000,4.000000,0.000000,0.000000:
// measure 0
00000000
00000000
00000000
00000000
,  // measure 1
00000000
00000000
00000000
00000000
,  // measure 2
00000000
00000000
00000000
00000000
,  // measure 3
00100000
00000000
00000000
10000000
00000000
00000000
01000000
00000000
00010000
00000000
00001000
00000000
00000100
00000000
00000000
00000000
,  // measure 4
00001000
00000000
00000000
00010000
00000000
00000000
00100000
00000000
00010000
00000000
00000000
00001000
00000000
00000000
00000100
00000000
,  // measure 5
00000001
00000100
00000000
00001000
00000000
00010000
00000000
00001000
,  // measure 6
00020000
00000000
00000000
00030000
,  // measure 7
00110000
00000000
01000000
00000000
00000000
10000000
00000000
00000000
,  // measure 8
00100000
00000000
00000000
00010000
00000000
00000000
00100000
00000000
,  // measure 9
10100000
00000000
00010000
00000000
00000000
01000000
00000000
00000000
,  // measure 10
10000000
00000000
00000000
00100000
00000000
00000000
10000000
00000000
,  // measure 11
11000000
00000000
00100000
00000000
00000000
00010000
00000000
00000000
,  // measure 12
01000000
00000000
00000000
10000000
00000000
00000000
01000000
00000000
,  // measure 13
01010000
00000000
10000000
00000000
00000000
00100000
00000000
00000000
,  // measure 14
00010000
01000000
00010000
10000000
00010000
01000000
00010000
00000000
,  // measure 15
01000000
00100000
10000000
01000000
00010000
00001000
00010000
00000000
,  // measure 16
00010000
00001000
00000010
00000001
00001000
00000100
00000010
00000000
,  // measure 17
00000010
00000001
00000100
00001000
00010000
00001000
00010000
00000000
,  // measure 18
00001000
00010000
00100000
10000000
00010000
01000000
00100000
00000000
,  // measure 19
00100000
10000000
01000000
00010000
00001000
00000100
00001000
00000000
,  // measure 20
00001000
00010000
00100000
00010000
00001000
00000100
00000001
00000000
,  // measure 21
00000001
00000100
00001000
00010000
00001000
00010000
00100000
00000000
,  // measure 22
00010000
00100000
10000000
01000000
10000000
00100000
01000000
00000000
,  // measure 23
01000000
00100000
10000000
01000000
00010000
00001000
00010000
00000000
,  // measure 24
00010000
00001000
00000100
00000001
00001000
00000100
00000010
00000000
,  // measure 25
00000010
00000001
00000010
00001000
00010000
00001000
00010000
00000000
,  // measure 26
00001000
00010000
01000000
10000000
00010000
01000000
00100000
00000000
,  // measure 27
00100000
10000000
00100000
00010000
00001000
00000100
00001000
00000000
,  // measure 28
00001000
00010000
01000000
00010000
00001000
00000010
00000001
00000000
,  // measure 29
00000001
00000100
00001000
00010000
00001000
00010000
00001000
00000000
,  // measure 30
00010000
00001000
00010000
00100000
10000000
01000000
10000000
00000000
,  // measure 31
01000000
00010000
01000000
00010000
00001000
00000010
00000001
00000000
,  // measure 32
00000001
00000100
00001000
00000100
00001000
00010000
00100000
00000000
,  // measure 33
10000000
00100000
10000000
01000000
10000000
01000000
00010000
00000000
,  // measure 34
00001000
00010000
00001000
00000010
00000001
00000001
00000100
00000000
,  // measure 35
00000100
00001000
00000100
00001000
00010000
00100000
10000000
00000000
,  // measure 36
10000000
01000000
00010000
01000000
00010000
00001000
00000010
00000000
,  // measure 37
00000001
00000010
00000001
00000100
00000001
00000100
00001000
00000000
,  // measure 38
00020000
00000000
00000000
00030000
,  // measure 39
01000000
10000000
00010000
10000000
01000000
00010000
01000000
00000000
,  // measure 40
00010000
00001000
00001000
00000010
00000010
00000001
00000100
00000000
,  // measure 41
00000100
00000001
00001000
00000001
00000100
00001000
00000100
00000000
,  // measure 42
00001000
00010000
00010000
00100000
00100000
10000000
01000000
00000000
,  // measure 43
10000000
01000000
00010000
01000000
00100000
01000000
00010000
00000000
,  // measure 44
00001000
00010000
00010000
00000100
00000010
00000001
00000100
00000000
,  // measure 45
00000001
00000100
00000100
00000001
00000100
00000100
00001000
00000000
,  // measure 46
00001000
00010000
01000000
01000000
10000000
00100000
10000000
00000000
,  // measure 47
10000000
01000000
00010000
00001000
00001000
00000010
00000001
00000000
,  // measure 48
00001000
00000001
00000001
00000100
00000100
00001000
00010000
00000000
,  // measure 49
00010000
00001000
00010000
00100000
10000000
10000000
01000000
00010000
,  // measure 50
00000000
00001000
00000000
00010000
00000000
00001000
00000000
00010000
,  // measure 51
00001000
00000010
00000001
00000010
00000001
00000100
00000001
00000000
,  // measure 52
00000100
00000100
00001000
00000100
00001000
00010000
00100000
00000000
,  // measure 53
00010000
00100000
10000000
10000000
01000000
00010000
00001000
00000000
,  // measure 54
00001000
00000100
00000001
00000100
00001000
00010000
00010000
00000000
,  // measure 55
00010000
00100000
10000000
00100000
10000000
01000000
10000000
00000000
,  // measure 56
01000000
01000000
00010000
01000000
00010000
00001000
00000010
00000000
,  // measure 57
00001000
00000010
00000001
00000001
00000100
00001000
00010000
00000000
,  // measure 58
00010000
01000000
10000000
01000000
00010000
00001000
00001000
00000000
,  // measure 59
00001000
00000100
00000001
00000100
00000001
00000010
00000001
00000000
,  // measure 60
00000010
00000010
00001000
00000010
00001000
00010000
01000000
00000000
,  // measure 61
00010000
01000000
10000000
10000000
00100000
00010000
00001000
00000000
,  // measure 62
00001000
00000010
00000001
00000010
00001000
00010000
00010000
00000000
,  // measure 63
00010000
01000000
10000000
01000000
10000000
00100000
10000000
00000000
,  // measure 64
00100000
00100000
00010000
00100000
00010000
00001000
00000100
00000000
,  // measure 65
00001000
00000100
00000001
00000001
00000010
00001000
00010000
00000000
,  // measure 66
00001000
00010000
00100000
00010000
00100000
10000000
01000000
00020000
,  // measure 67
00002000
00000000
00000000
00033000
;
