#TITLE:bury a friend;
#SUBTITLE:;
#ARTIST:Billie Eilish;
#TITLETRANSLIT:;
#SUBTITLETRANSLIT:;
#ARTISTTRANSLIT:;
#GENRE:When We All Fall Asleep, Where Do We Go?;
#CREDIT:;
#BANNER:bury a friend-bn.jpg;
#BACKGROUND:bury a friend-bg.jpg;
#LYRICSPATH:;
#CDTITLE:;
#MUSIC:bury a friend.mp3;
#OFFSET:1.000000;
#SAMPLESTART:120.040527;
#SAMPLELENGTH:15.500027;
#LASTBEATHINT:264.000000;
#SELECTABLE:YES;
#DISPLAYBPM:120.000000;
#BPMS:0.000000=120.000000
,106.000000=360.000000
,130.000000=120.000000
,233.000000=60.000000
,234.000000=120.000000
;
#STOPS:47.666668=2.000000,
86.000000=0.500000,
93.000000=0.500000,
100.000000=0.500000,
105.000000=1.500000,
118.000000=2.000000,
130.000000=0.500000,
176.666672=2.000000,
214.333328=1.000000,
228.333328=1.000000,
234.000000=0.500000
;
#BGCHANGES:;
#KEYSOUNDS:;
#ATTACKS:;

//---------------dance-single - ----------------
#NOTES:
     dance-single:
     :
     Hard:
     9:
     0.211736,0.253228,0.050299,0.023473,0.377244,442.000000,427.000000,15.000000,7.000000,0.000000,0.000000,0.211736,0.253228,0.050299,0.023473,0.377244,442.000000,427.000000,15.000000,7.000000,0.000000,0.000000:
0000
0000
0000
0000
,
0000
0000
0000
0000
,
0000
0000
0000
0000
,
0000
0000
0000
0000
,
0000
0000
0000
0000
0000
0000
0001
0000
0001
1000
0000
0010
,
0000
0000
0100
0001
0000
0000
1000
0000
0010
0100
0000
0001
,
0000
0000
0010
0100
0000
0000
1000
0000
0010
1000
0000
0001
,
0000
0000
1000
0100
0000
0000
0010
0000
0001
0100
0000
0001
,
0000
0000
0000
0000
0000
0000
0100
0000
1000
0010
0000
0100
,
0000
0000
0001
1000
0000
0000
0010
0000
1000
0001
0000
0100
,
0000
0000
0010
1000
0000
0000
0100
0000
0010
0100
0000
1000
,
0000
0000
0001
0010
0000
0000
0100
0000
1000
0001
0000
1000
,
1001
0000
0000
0100
0000
0010
0000
1000
0001
1000
0000
0000
,
0100
0000
0100
0010
0000
0010
0001
0100
0010
1000
0000
1000
,
0100
0000
0010
0001
0000
0001
0010
0100
1000
0010
0000
1000
,
0010
0100
0001
1000
0000
0001
0010
0100
1000
0010
0000
0100
,
0001
0000
1000
0010
0000
0100
0010
1000
0100
0010
0000
0001
,
1000
0000
0001
0010
0000
0001
0100
0010
1000
0100
0000
0100
,
0010
0000
0001
1000
0000
0001
0010
0100
1000
0010
0000
1000
,
0010
0100
0001
0010
0000
0100
1000
0001
0100
0010
0000
1000
,
0100
0000
0000
0001
0100
0001
1000
0000
0000
0101
0000
0000
,
0001
0000
0000
0000
0000
0000
0000
0000
0000
0000
0000
0000
0000
0000
0000
0000
0010
0000
0000
0000
0000
0000
0000
0000
0000
0000
0000
0000
0000
0000
0000
0000
0001
0000
0000
0000
0000
0000
0000
0000
0000
0000
0000
0000
0000
0000
0000
0000
1000
0000
0000
0000
0000
0000
0000
0000
0000
0000
0000
0000
0000
0000
0000
0000
0000
0000
0000
0000
0000
0000
0000
0000
0000
0000
0000
0000
0000
0000
0000
0000
0000
0000
0000
0000
0000
0000
0000
0000
0000
0000
0000
0000
0000
0000
0000
0000
2020
0000
0000
3030
0000
0000
0000
0000
0000
0000
0000
0000
0000
0000
0000
0000
0000
0000
0000
0000
0000
0000
0000
0000
0000
0000
0000
0000
0000
0000
0000
0000
0000
0000
0000
0000
0000
0000
0000
0000
0000
0000
0000
0000
0000
0000
0000
0000
1000
0000
0000
0000
0000
0000
0000
0000
0000
0000
0000
0000
0000
0000
0000
0000
0000
0000
0000
0000
0000
0000
0000
0000
0000
0000
0000
0000
0000
0000
0000
0000
0000
0000
0000
0000
0000
0000
0000
0000
0000
0000
0000
0000
0000
0000
0000
0000
,
1000
0100
0010
0001
0000
0000
0110
0000
0000
0001
0100
0010
,
1000
0000
0000
0000
0000
0000
0000
0000
0000
0000
0000
0000
0000
0000
0000
0000
0000
0000
0000
0000
0000
0000
0000
0000
0000
0000
0000
0000
0000
0000
0000
0000
0000
0000
0000
0000
0000
0000
0000
0000
0000
0000
0000
0000
0000
0000
0000
0000
0202
0000
0000
0303
0000
0000
0000
0000
0000
0000
0000
0000
0000
0000
0000
0000
0000
0000
0000
0000
0000
0000
0000
0000
0000
0000
0000
0000
0000
0000
0000
0000
0000
0000
0000
0000
0000
0000
0000
0000
0000
0000
0000
0000
0000
0000
0000
0000
0010
0000
0000
0000
0000
0000
0000
0000
0000
0000
0000
0000
0000
0000
0000
0000
0000
0000
0000
0000
0000
0000
0000
0000
0000
0000
0000
0000
0000
0000
0000
0000
0000
0000
0000
0000
0000
0000
0000
0000
0000
0000
0000
0000
0000
0000
0000
0000
0100
0000
0000
0000
0000
0000
0000
0000
0000
0000
0000
0000
0000
0000
0000
0000
1000
0000
0000
0000
0000
0000
0000
0000
0000
0000
0000
0000
0000
0000
0000
0000
0001
0000
0000
0000
0000
0000
0000
0000
0000
0000
0000
0000
0000
0000
0000
0000
,
0100
0000
0010
1000
0000
1000
0001
0010
0100
1000
0000
1000
,
0020
0000
0000
0030
0000
0000
0000
0000
0000
0000
0000
0000
0000
0000
0000
0000
0000
0000
0000
0000
0000
0000
0000
0000
0000
0000
0000
0000
0000
0000
0000
0000
0000
0000
0000
0000
0000
0000
0000
0000
0000
0000
0000
0000
0000
0000
0000
0000
0100
0000
0000
0000
0000
0000
0000
0000
0000
0000
0000
0000
0000
0000
0000
0000
0000
0000
0000
0000
0000
0000
0000
0000
0000
0000
0000
0000
0000
0000
0000
0000
0100
0000
0000
0000
0000
0000
0000
0000
0000
0000
0000
0000
0000
0000
0000
0000
0001
0000
0000
0000
0000
0000
0000
0000
0000
0000
0000
0000
0000
0000
0000
0000
1000
0000
0000
0000
0000
0000
0000
0000
0000
0000
0000
0000
0000
0000
0000
0000
0100
0000
0000
0000
0000
0000
0000
0000
0000
0000
0000
0000
0000
0000
0000
0000
0010
0000
0000
0000
0000
0000
0000
0000
0000
0000
0000
0000
0000
0000
0000
0000
0000
0000
0000
0000
0000
0000
0000
0000
0000
0000
0000
0000
0000
0000
0000
0000
0001
0000
0000
0000
0000
0000
0000
0000
0000
0000
0000
0000
0000
0000
0000
0000
,
1000
0010
0100
0001
0000
0000
2002
0000
0000
0000
0000
0000
,
0000
0000
0000
0000
,
0000
0000
0000
0000
,
0000
0000
3003
0000
,
0000
0000
0000
0000
,
0000
0000
0000
0000
,
0000
0000
0000
0000
0000
0000
1001
0000
0000
0010
1000
0001
,
0010
0000
0010
0100
0000
0000
1000
0010
0100
1000
0010
0100
,
1000
0010
0100
1000
0010
0100
1000
0010
0100
0001
1000
0001
,
0010
0000
0010
0100
0000
0000
0001
0010
0100
0001
0010
0100
,
0001
0010
0100
0001
0010
0100
0001
0010
0100
1000
0000
1000
,
0010
0000
0100
0000
0000
0100
0001
0000
0000
1000
0000
0010
,
1000
0000
0001
0000
0000
1000
0100
0000
0000
0010
0000
0001
,
0100
0000
0010
0000
0000
1000
0001
0000
0000
1000
0000
0010
,
1000
0000
0001
0000
0000
0000
0000
0000
0000
0100
0000
0010
,
1000
0000
0001
0010
0000
0010
0100
0000
0000
1000
0000
0010
,
0100
0000
0001
1000
0000
1000
0010
0000
0000
0100
0000
0001
,
1000
0000
0010
0100
0000
0100
0001
0000
0000
0010
0000
0100
,
1000
0000
0001
1001
0000
0000
0001
0000
1000
0000
0010
0100
,
0001
0000
0000
1000
0000
0000
0010
0000
0100
0001
0010
0100
,
1000
0000
1000
0010
0000
0000
1000
0000
0001
0010
0100
1000
,
0010
0000
0100
0001
1000
0100
0010
0000
0100
1000
0010
0100
,
0001
0000
0010
0100
0000
1000
0010
0000
0100
0001
0010
1000
,
0010
0000
0000
0001
0000
0000
0100
0010
1000
0001
0010
0100
,
1000
0000
0010
0100
0000
1000
0100
0000
0010
0100
0001
0100
,
0010
0000
1000
0010
0100
0010
0001
0000
0010
0100
0010
1000
,
0001
0000
0010
0100
0000
1000
0010
0001
1000
0100
0001
1000
,
0010
0001
1000
0100
0000
0101
0000
1001
0000
0100
0000
0000
,
0001
0010
1000
0001
0100
1000
0001
0010
1000
0001
0000
0101
,
0000
0110
0000
0000
0010
0100
0010
0100
0010
0001
0000
0000
,
1000
0100
0001
0010
0100
1000
0010
0001
0100
1000
0000
0101
,
0000
0110
0000
1001
0000
0000
1000
0100
0010
0001
0100
0010
,
1000
0100
0001
0010
1000
0100
0001
0000
0000
1000
0000
0001
,
0100
0000
0000
0010
0000
1000
0001
0000
0100
0010
0000
1000
,
0100
0000
0000
0010
0000
0001
1000
0000
0001
0010
0000
0100
,
1000
0000
0000
0010
0000
0100
0001
0000
0010
0100
0000
0000
,
0100
0000
0000
1000
0000
0010
1000
0000
0001
0100
0000
0100
,
0010
0000
0000
1000
0000
0100
0010
0000
0001
1000
0000
0001
,
0100
0000
0000
0010
0000
1000
0100
0000
0010
0000
0000
0001
,
1000
0000
0000
0010
0000
0100
0010
0000
0100
0000
0000
0000
;

//---------------dance-single - ----------------
#NOTES:
     dance-single:
     :
     Medium:
     6:
     0.143712,0.198179,0.070419,0.053652,0.137484,300.000000,279.000000,21.000000,16.000000,0.000000,0.000000,0.143712,0.198179,0.070419,0.053652,0.137484,300.000000,279.000000,21.000000,16.000000,0.000000,0.000000:
// measure 0
0000
0000
0000
0000
,  // measure 1
0000
0000
0000
0000
,  // measure 2
0000
0000
0000
0000
,  // measure 3
0000
0000
0000
0000
,  // measure 4
0000
0000
0000
0000
0000
0000
1000
0000
0001
1000
0000
0000
,  // measure 5
0001
0000
0000
0010
0000
0000
0100
0000
1000
0010
0000
0000
,  // measure 6
1000
0000
0000
0010
0000
0000
1000
0000
0010
0100
0000
0000
,  // measure 7
0001
0000
0000
0010
0000
0000
0001
0000
1000
0100
0000
0000
,  // measure 8
0010
0000
0000
0100
0000
0000
0010
0000
0001
1000
0000
0000
,  // measure 9
0010
0000
0000
0100
0000
0000
0001
0000
1000
0001
0000
0000
,  // measure 10
0010
0000
0000
0100
0000
0000
1000
0000
0001
0100
0000
0000
,  // measure 11
0010
0000
1000
0010
0000
0000
0200
0000
0000
0000
0000
0300
,  // measure 12
0002
0010
0013
1100
,  // measure 13
0100
0100
2000
3000
,  // measure 14
0010
0000
0000
1010
0000
0000
0010
0000
1000
0010
0000
0000
,  // measure 15
0101
0100
1001
0100
,  // measure 16
0002
0013
2000
3100
,  // measure 17
0020
0000
0000
0130
0000
0000
0001
0100
0001
0100
0000
0000
,  // measure 18
2000
0000
0000
3001
0000
0000
0100
1000
0100
1000
0000
0000
,  // measure 19
0001
0100
0001
0100
0000
0000
0010
0100
0010
0100
0000
0000
,  // measure 20
1001
0010
1000
1100
,  // measure 21
1000
0010
0011
0001
,  // measure 22
1000
0001
0101
0100
,  // measure 23
1000
1100
1000
0010
,  // measure 24
0001
0000
1000
0001
0000
0000
0100
0000
0000
1000
0000
0001
,  // measure 25
1000
0010
0100
0001
,  // measure 26
1000
0100
0000
0000
,  // measure 27
0000
0000
0000
0000
,  // measure 28
0000
0000
0000
0000
,  // measure 29
0000
0000
0000
0000
,  // measure 30
0000
0000
0000
0000
,  // measure 31
0000
0000
0000
0000
,  // measure 32
0000
0000
0000
0000
,  // measure 33
0000
0000
0000
0001
0000
0000
1000
0100
1000
0000
0000
0000
,  // measure 34
0010
0100
0010
0000
0000
0000
0001
1000
0001
0000
0000
0000
,  // measure 35
0110
0000
0110
0000
0000
0000
1000
0100
1000
0000
0000
0000
,  // measure 36
0010
0100
0010
0000
0000
0000
0001
1000
0001
1000
0000
0000
,  // measure 37
0000
0000
0000
0002
0000
0000
0013
0000
0000
1000
0000
0100
,  // measure 38
1000
0000
0000
0200
0000
0000
0310
0000
0000
0001
0000
1000
,  // measure 39
0001
0000
0000
2000
0000
0000
3010
0000
0000
0001
0000
0100
,  // measure 40
0001
0000
0000
0100
0000
0000
0000
0000
0000
0010
0000
1000
,  // measure 41
0010
0000
0000
0110
0000
0000
0110
0000
0000
1000
0000
0100
,  // measure 42
1000
0000
0000
1100
0000
0000
1100
0000
0000
0001
0000
1000
,  // measure 43
0001
0101
0101
0020
,  // measure 44
0000
0000
0030
1001
0000
0000
0010
0000
0010
0000
0001
0000
,  // measure 45
0100
1000
0100
0000
,  // measure 46
0000
0000
0000
0001
0000
0000
0010
0000
0000
0100
0000
1000
,  // measure 47
0100
0000
0000
1000
0000
0001
1000
0000
0000
0010
0000
0100
,  // measure 48
0010
0000
0100
0001
0000
1000
0001
0000
0000
0010
0000
0001
,  // measure 49
0010
0000
0000
0100
0000
0000
1000
0000
0000
0001
0000
0010
,  // measure 50
0001
0000
0000
1000
0000
0000
0010
0000
0100
0001
0000
0000
,  // measure 51
0010
0000
0100
1000
0000
0000
0010
0000
0100
0001
0000
0000
,  // measure 52
1000
0000
0001
1000
0000
0010
0100
0010
0100
0010
0000
1000
,  // measure 53
0001
1000
0001
1000
0000
0001
0000
1001
0000
0001
0000
0000
,  // measure 54
0010
0000
0100
1000
0000
0000
0010
0000
0100
0001
0000
1000
,  // measure 55
0000
1001
0000
0000
0000
0000
0000
0000
0000
0100
0000
0000
,  // measure 56
0010
1000
0010
1000
0000
0001
0010
0001
0010
0001
0000
1000
,  // measure 57
0000
1001
0000
0100
0000
0000
0001
0000
1000
0100
0000
0000
,  // measure 58
1000
0000
0001
0010
0000
0000
0000
0000
0000
0100
0000
1000
,  // measure 59
0100
0000
0000
2000
0000
0000
3010
0000
0000
0100
0000
0001
,  // measure 60
0100
0000
0000
0020
0000
0000
1030
0000
0000
0100
0000
0001
,  // measure 61
1000
0020
1030
0100
,  // measure 62
0100
0000
0000
0020
0000
0000
0031
0000
0000
1000
0000
0001
,  // measure 63
0100
0000
0000
0020
0000
0000
1030
0000
0000
0100
0000
1000
,  // measure 64
0001
0000
0000
0010
0000
1000
0100
0000
0010
0000
0000
0001
,  // measure 65
1000
0000
0000
0010
0000
0100
0010
0000
0100
0000
0000
0000
;

//---------------dance-single - ----------------
#NOTES:
     dance-single:
     :
     Easy:
     4:
     0.106347,0.172359,0.080479,0.050299,0.000000,222.000000,198.000000,24.000000,15.000000,0.000000,0.000000,0.106347,0.172359,0.080479,0.050299,0.000000,222.000000,198.000000,24.000000,15.000000,0.000000,0.000000:
0000
0000
0000
0000
,
0000
0000
0000
0000
,
0000
0000
0000
0000
,
0000
0000
0000
0000
,
0000
0000
0000
0000
,
1000
0100
0001
0100
,
1000
0100
0001
0100
,
1000
0100
0001
0100
,
2000
3000
0001
0010
,
1000
0010
0001
0010
,
1000
0010
0001
0010
,
1000
0010
0002
0003
,
1000
0001
0100
0010
,
1000
0002
0003
0000
,
0010
0100
1000
0010
,
0100
0001
0010
0100
,
1000
0100
0010
0001
,
1000
0001
0100
0010
,
1000
0100
0010
0001
,
1000
0001
0100
0010
,
1000
0100
0010
1001
,
0010
0100
1001
0001
,
0010
0100
1001
0100
,
0010
1001
0001
1000
,
0001
0110
1000
0001
,
0110
1000
0100
0010
,
0001
1000
0000
0000
,
0000
0000
0000
0000
,
0000
0000
0000
0000
,
0000
0000
0000
0000
,
0000
0000
0000
0000
,
0000
0000
0000
0000
,
0000
0000
0000
0010
,
1000
0100
0001
0010
,
0100
1000
0010
0001
,
0200
0300
1000
0010
,
0100
0001
0010
2000
,
3000
0100
0001
0100
,
1000
0010
1000
0100
,
1000
0010
0001
0010
,
0001
0200
0300
0001
,
0010
0001
0100
1000
,
0100
1000
0010
0001
,
0010
0001
0010
0001
,
0100
1000
0100
0001
,
0100
1000
0200
0000
,
0300
0010
1000
0100
,
0001
1000
0010
0100
,
0001
1000
0100
0001
,
0010
0100
1000
0001
,
0010
0010
0001
0100
,
1001
0100
1001
0100
,
1001
0100
0010
0110
,
1001
0000
0000
0220
0000
0000
0000
0330
0000
1000
0000
0000
,
0010
1010
0101
2020
,
0000
3030
0000
0000
0000
0000
0000
0000
0000
1000
0000
0000
,
1100
0011
0101
2020
,
0000
3030
0000
0110
0000
0000
1001
0000
0000
0110
0000
0000
,
1001
0220
0330
0001
,
0010
1000
1000
0100
,
0001
0100
1000
0001
,
0010
0100
1000
0010
,
0010
0100
1000
0100
,
0001
0100
0010
0100
,
1000
0100
0000
0000
;

//---------------dance-single - ----------------
#NOTES:
     dance-single:
     :
     Beginner:
     1:
     0.055090,0.075407,0.016766,0.000000,0.000000,115.000000,110.000000,5.000000,0.000000,0.000000,0.000000,0.055090,0.075407,0.016766,0.000000,0.000000,115.000000,110.000000,5.000000,0.000000,0.000000,0.000000:
0000
0000
0000
0000
,
0000
0000
0000
0000
,
0000
0000
0000
0000
,
0000
0000
0000
0000
,
0000
0000
0000
0000
,
0001
0000
0010
0000
,
0100
0000
1000
0000
,
0010
0000
0100
0000
,
0001
0000
1000
0000
,
0010
0000
1000
0000
,
0100
0000
0001
0000
,
0100
0000
1000
0000
,
0000
0010
0000
0100
,
0000
0000
0001
0000
,
0000
0010
0000
0100
,
0000
1000
1000
0000
,
0000
0001
0000
1000
,
0000
0000
0010
0010
,
0000
0100
0000
0001
,
0000
0010
0000
0100
,
0100
0000
0000
1001
,
0000
0000
0010
0000
,
1000
0000
0000
0001
,
0000
0100
0000
1001
,
0000
0010
0000
0100
,
0100
0000
0001
0000
,
1000
1000
0000
0000
,
0000
0000
0000
0000
,
0000
0000
0000
0000
,
0000
0000
0000
0000
,
0000
0000
0000
0000
,
0000
0000
0000
0000
,
0000
0000
0000
0000
,
0000
0000
1000
0000
,
0010
0000
0100
0000
,
1001
0000
0001
0000
,
0010
0000
0100
0000
,
0000
1000
0000
0001
,
0000
0100
0000
0010
,
0000
1000
0000
0100
,
0000
0010
0000
0001
,
0000
1000
1000
1000
,
0000
0001
0001
0001
,
0000
0100
0100
0100
,
0000
0000
0010
0000
,
1000
0000
0001
0000
,
0000
0000
1000
0000
,
0100
0000
0010
0000
,
0001
0000
1000
0000
,
0001
0000
0000
0100
,
0100
0000
0010
0000
,
1000
0000
0100
0000
,
0010
0010
0000
0001
,
0000
1001
0000
0000
,
0001
0000
1000
1000
,
0000
0000
0000
0010
,
0000
0100
0000
0110
,
0000
0000
1000
0000
,
0001
0001
0000
0001
,
0000
0100
0100
0100
,
0000
1000
1000
1000
,
0000
0010
0010
0010
,
0000
0100
0100
0100
,
0000
0001
0001
0001
,
0000
1000
0000
0000
;
