#TITLE:astrum*;
#SUBTITLE:;
#ARTIST:MMM;
#TITLETRANSLIT:;
#SUBTITLETRANSLIT:;
#ARTISTTRANSLIT:;
#GENRE:MMM;
#CREDIT:;
#BANNER:astrum-bn.jpg;
#BACKGROUND:astrum-bg.jpg;
#LYRICSPATH:;
#CDTITLE:m.png;
#MUSIC:astrum.mp3;
#OFFSET:-0.049198;
#SAMPLESTART:46.008938;
#SAMPLELENGTH:11.497005;
#LASTBEATHINT:341.995544;
#SELECTABLE:YES;
#BPMS:0.000000=167.000000
,160.000000=83.500000
,175.000000=167.000000
;
#STOPS:241.000000=1.078000
;
#BGCHANGES:;
#KEYSOUNDS:;
#ATTACKS:;

//---------------dance-single - ----------------
#NOTES:
     dance-single:
     :
     Challenge:
     8:
     0.520472,0.609674,0.243394,0.182546,0.057046,479.000000,447.000000,32.000000,24.000000,0.000000,0.000000,0.520472,0.609674,0.243394,0.182546,0.057046,479.000000,447.000000,32.000000,24.000000,0.000000,0.000000:
0000
0000
0000
0000
,
0000
0000
0000
0000
,
0000
0000
0000
0000
,
0000
0000
0000
0000
,
0000
0000
0000
0000
,
0000
0000
0000
0000
,
0000
0000
0000
0000
,
0000
0000
0000
0000
,
1000
0000
1000
0010
0000
0010
0100
0000
,
0100
0001
0000
0001
1000
0000
1000
0100
,
0010
0000
0010
0001
0000
0001
0100
0000
,
0100
0010
0000
0000
1000
0000
0000
0000
,
0001
0000
0001
0010
0000
0010
1000
0000
,
1000
0010
0000
0010
0001
0000
0001
1000
,
0100
0000
0100
0001
0000
0001
0100
0000
,
0100
1000
0000
0000
0001
0000
0000
0000
,
1000
0010
0100
0002
0000
0000
0103
0000
,
0100
0001
1000
0200
0000
0000
0310
0000
,
0001
0000
1000
0010
2000
0000
3001
0010
,
0002
0000
1003
0100
2000
0000
3001
0000
,
0100
1000
0001
0020
0100
0000
0031
1000
,
0010
0100
0001
0020
0100
0000
0031
0000
,
0100
0000
1000
0010
2000
0000
3010
0001
,
0020
0000
0000
0000
0031
0000
0100
0000
0001
0000
0100
0000
1000
0000
0100
1000
,
0100
0000
0010
0001
0000
1000
0100
0000
,
1100
0000
1000
0001
0000
0010
0100
0000
,
1001
0000
0001
0010
0000
1000
0100
0000
,
0101
0000
0100
0001
0010
0001
1000
0100
,
1000
0000
0010
0100
0000
0001
0010
0000
,
0110
0000
0010
0001
0000
1000
0100
0000
,
1100
0000
0001
1000
0000
0010
0100
0000
,
1010
0000
0010
1000
0002
0000
0003
0000
,
0101
0000
1000
0100
0000
0001
0100
0000
,
0011
0000
0001
1000
0000
0010
0100
0000
,
1010
0000
0100
0001
0000
1000
0100
0000
,
1100
0000
0100
1000
0010
0100
0001
1000
,
0001
0000
0010
0100
0000
1000
0010
0000
,
0110
0000
0001
1000
0000
0010
1000
0000
,
0110
0000
0010
0001
0000
1000
0100
0000
,
1001
0000
0010
0001
2000
0000
3000
0000
,
0100
0000
0000
0010
0000
0000
0100
0000
0000
0010
0000
0000
0100
0000
0100
0010
,
0001
0000
0000
1000
0000
0000
0010
0000
0000
0100
0000
0000
0001
0000
1000
0001
,
0100
0000
0000
0010
0000
0000
0100
0000
0000
0010
0000
0000
0100
0000
0100
0010
,
1000
0000
0000
0001
0000
0000
0010
0000
0000
0100
0000
0000
1000
0000
0001
0000
,
0100
0000
0001
1000
0001
0000
0010
0000
0100
0000
1000
0000
0010
0000
0100
0000
,
0001
0010
0100
1000
0010
0100
0001
0010
,
0100
0000
0100
1000
0010
0100
0001
0010
,
0010
0001
0100
0010
1000
0100
0010
0001
,
0100
0010
1000
0100
0010
0001
1000
1000
,
1000
0010
0100
0001
1000
0010
1000
0000
,
0001
0010
0001
0100
0010
1000
0001
1000
,
0100
0010
0100
1000
0001
1000
0010
1000
,
0001
0100
1001
0000
0001
1000
0000
0001
,
0100
0000
1001
0000
0001
1000
0000
0001
,
0100
0000
0101
0000
0100
0010
0000
1000
,
0100
0000
1100
0000
0100
1000
0010
1000
,
0001
0100
0001
0010
0001
0010
0100
1000
,
0100
1000
0001
0100
0001
0100
0010
1000
,
0010
1000
0001
0100
0001
1000
0010
1000
,
0001
0100
0001
1000
0010
1000
0200
0000
,
0000
0300
0000
0000
1001
0000
1000
0010
,
0000
0001
0010
0000
1001
0000
0001
0010
,
0000
1000
0010
0000
0110
0000
1000
0100
,
0000
0010
0001
0000
0100
0000
0100
0001
,
0010
0100
0010
0001
0100
0000
0010
1000
,
0000
0010
0100
0000
0001
0000
0010
0100
,
0000
0010
0001
0000
1000
0000
0100
0010
,
0000
0100
1000
0000
0010
0000
0010
1000
,
0200
0000
0300
0000
1000
0000
1100
1000
,
0001
0010
0100
0000
0010
0000
0011
0001
,
1000
0010
0100
0000
0110
0000
1000
0001
,
0100
0001
1000
0000
1001
0000
0100
0001
,
1000
0100
0010
0001
1000
0000
1010
1000
,
0001
1000
1100
0000
0001
0000
0011
0001
,
1000
0001
0101
0000
0010
0000
1001
0100
,
0010
0001
0101
0000
0010
0000
1010
1000
,
0001
0100
0000
0001
0100
0000
0010
0000
0110
0000
0000
0000
0100
0000
0002
0000
,
1000
0000
0100
0000
0103
0020
1000
0000
,
0100
0030
0100
0002
1000
0000
1003
0200
,
0010
0000
1000
0000
1300
0020
0100
0000
,
1000
0000
1030
0002
0010
0003
0100
0002
,
0010
0000
1003
0000
0100
2000
0010
0000
,
3001
0000
0010
0002
0100
0000
1003
0020
,
0001
0000
0130
0000
0001
0020
1000
0000
,
0100
0000
0130
0010
0000
0000
0000
0000
;

//---------------dance-single - ----------------
#NOTES:
     dance-single:
     :
     Hard:
     7:
     0.411814,0.480608,0.144515,0.022818,0.015212,379.000000,360.000000,19.000000,3.000000,0.000000,0.000000,0.411814,0.480608,0.144515,0.022818,0.015212,379.000000,360.000000,19.000000,3.000000,0.000000,0.000000:
0000
0000
0000
0000
,
0000
0000
0000
0000
,
0000
0000
0000
0000
,
0000
0000
0000
0000
,
0000
0000
0000
0000
,
0000
0000
0000
0000
,
0000
0000
0000
0000
,
0000
0000
0000
0000
,
1000
0000
0000
0010
0100
0000
0000
0001
,
0000
0001
0010
0000
1100
0000
0000
0000
,
0001
0000
0000
0010
0100
0000
0000
1000
,
0000
1000
0010
0000
0101
0000
0000
0000
,
1000
0000
0000
0001
0100
0000
0000
0010
,
0000
1000
0100
0000
1100
0000
0000
0000
,
0010
0000
0000
0100
0001
0000
0000
1000
,
0000
0010
0100
0000
0110
0000
0000
0000
,
0010
0000
1000
0001
0100
0000
0000
0010
,
0000
1000
0100
0000
1100
0000
0000
0000
,
0010
0000
0100
0001
1000
0000
0000
0100
,
0000
0100
0010
0000
1100
0000
0000
0000
,
0010
0000
1000
0010
0100
0000
0100
0001
,
0010
0000
0010
1000
0010
0000
0010
0001
,
0100
0000
1000
0001
0010
0000
1000
0010
,
0100
0000
0001
0010
0100
1000
0001
1000
,
0100
0000
0010
0001
0000
0010
0001
0000
,
0100
0000
0010
1000
0000
0010
1000
0000
,
0100
0000
1000
0010
0000
1000
0100
0000
,
0100
0000
0010
0000
0001
1000
0001
0000
,
0100
0000
0010
1000
0000
0010
0100
0000
,
0100
0000
0001
1000
0000
0001
0100
0000
,
0010
0000
0010
1000
0000
0001
0010
0000
,
0100
0000
1000
0100
1000
0000
0000
0000
,
0001
0000
0010
0100
0000
0010
0100
0000
,
1000
0000
0010
1000
0000
0010
1000
0000
,
0001
0000
0100
0010
0000
0100
0010
0000
,
1000
0000
0100
1000
0001
0000
1000
0000
,
0010
0000
0100
0001
0000
1000
0100
0000
,
0010
0000
0001
0100
0000
0010
1000
0000
,
0100
0000
0010
0001
0000
1000
0010
0000
,
0100
0000
0100
0001
1000
0000
0000
0000
,
0100
0000
0000
0010
0000
0000
0010
0001
,
0100
0000
0000
0010
0000
0000
0100
0001
,
1000
0000
0000
0100
0000
0000
0010
0000
0000
0001
0000
0000
1000
0000
0010
0000
,
0100
0000
0000
0001
0000
0000
1000
0000
0000
0010
0000
0000
1000
0000
0100
0000
,
0010
0000
0001
0100
0000
0001
0100
0000
,
0010
1000
0000
0010
1000
0000
0100
0010
,
0100
0000
0010
0001
0000
0010
0001
0000
,
1000
0100
0000
1000
0100
0000
0010
0100
,
0010
0000
0001
0000
1000
0000
0010
1000
,
0010
0000
0100
0001
0010
0100
0010
0000
,
0001
0000
1000
0010
0100
0000
0010
0000
,
1000
0000
0001
0000
1000
0100
0010
0001
,
0010
0100
2000
0000
0001
0000
0000
0001
,
3000
0000
0200
0000
0010
0000
0000
0010
,
0300
0000
0002
0000
0100
0000
0000
0100
,
0003
0010
1000
0100
,
0010
0000
0001
0000
1000
0000
0001
0100
,
0001
0000
1000
0010
1000
0000
0001
0100
,
0001
0000
1000
0100
1000
0000
0001
0010
,
0001
0000
0010
0100
0010
0000
0001
1000
,
0001
0000
0000
0000
1001
0000
1000
0001
,
0000
1000
0001
0000
0100
0000
0010
0100
,
0000
0010
0100
0000
0010
0000
1000
0010
,
0000
1000
0100
0000
0010
0000
0010
0001
,
1000
0000
0100
0000
0010
0000
0010
0001
,
0000
1000
0010
0000
0100
0000
0001
0100
,
0000
0001
0100
0000
0010
0000
1000
0100
,
0000
1000
0100
0000
0010
0000
0010
0001
,
0100
0000
0001
0101
,
1000
1100
0001
0101
,
1000
1100
0010
0110
,
1000
0000
1001
0000
0100
0000
0010
1000
,
0100
0010
0100
0010
0001
0000
1001
0000
,
0100
0110
1000
1001
,
0010
0110
0010
1100
,
0100
0000
0101
0000
1000
0000
0010
1000
,
0001
0000
0100
0010
0100
0000
0010
0000
,
1000
0100
0001
0010
,
0100
0000
0010
0001
0100
0000
0010
0000
,
1000
0001
0010
0100
,
0010
0000
0001
1000
0010
0000
0100
0000
,
0010
1000
0100
0010
,
0100
0000
1000
0010
0100
0000
0010
0000
,
1000
0100
0010
0001
,
0100
0010
0000
0000
;

//---------------dance-single - ----------------
#NOTES:
     dance-single:
     :
     Medium:
     5:
     0.305329,0.384487,0.106485,0.000000,0.000000,281.000000,267.000000,14.000000,0.000000,0.000000,0.000000,0.305329,0.384487,0.106485,0.000000,0.000000,281.000000,267.000000,14.000000,0.000000,0.000000,0.000000:
// measure 0
0000
0000
0000
0000
,  // measure 1
0000
0000
0000
0000
,  // measure 2
0000
0000
0000
0000
,  // measure 3
0000
0000
0000
0000
,  // measure 4
0000
0000
0000
0000
,  // measure 5
0000
0000
0000
0000
,  // measure 6
0000
0000
0000
0000
,  // measure 7
0000
0000
0000
0000
,  // measure 8
1000
0000
0000
0100
0000
0000
1000
0000
,  // measure 9
0000
0100
0000
0000
1000
0000
0100
0000
,  // measure 10
0010
0000
0000
0001
0000
0000
0010
0000
,  // measure 11
0000
0100
0000
0000
0010
0000
0001
0000
,  // measure 12
0100
0000
0000
0010
0000
0000
0100
0000
,  // measure 13
0000
0010
0000
0000
1000
0000
0001
0000
,  // measure 14
0100
0000
0000
0010
0000
0000
0100
0000
,  // measure 15
0000
0010
0000
0000
1000
0000
0000
0000
,  // measure 16
0100
0000
0000
0010
0000
0000
0001
0000
,  // measure 17
0000
1000
0000
0000
0010
0000
0100
0000
,  // measure 18
0001
0000
0000
0010
0000
0000
0100
0000
,  // measure 19
0000
1000
0000
0000
0100
0000
0000
0000
,  // measure 20
1000
0000
0000
0010
0000
0000
0100
0000
,  // measure 21
0000
0001
0000
0000
0010
0000
0100
0000
,  // measure 22
0010
0000
0000
0100
0000
0000
1000
0000
,  // measure 23
0000
0001
0000
0000
0100
0000
0000
0000
,  // measure 24
0010
1000
0100
0100
,  // measure 25
0010
0001
1000
1000
,  // measure 26
0010
0100
0001
1000
,  // measure 27
0100
0000
0010
0100
0010
0000
0001
0000
,  // measure 28
0100
0010
1000
0100
,  // measure 29
0010
0001
1000
0010
,  // measure 30
0100
0001
0010
0100
,  // measure 31
0010
0000
0001
1000
0001
0000
0000
0000
,  // measure 32
0100
0010
1000
0100
,  // measure 33
0010
0001
1000
0010
,  // measure 34
0100
0001
1000
0100
,  // measure 35
0010
0000
0001
1000
0001
0000
0100
0000
,  // measure 36
0010
1000
0100
0010
,  // measure 37
0100
1000
0010
0100
,  // measure 38
0010
1000
0100
0010
,  // measure 39
0100
0000
1000
0001
1000
0000
0000
0000
,  // measure 40
0100
0000
0000
0010
,  // measure 41
0001
0000
0000
1000
0000
0000
0100
0000
,  // measure 42
0100
0000
0000
0010
0000
0000
0001
0000
,  // measure 43
1000
0000
0000
0010
0000
0000
0100
0000
,  // measure 44
0000
0010
1000
1100
,  // measure 45
0000
0001
0000
0001
1000
0000
1001
0000
,  // measure 46
0000
0010
0100
0110
,  // measure 47
0000
1000
0000
1000
0001
0000
1001
0000
,  // measure 48
0000
0010
0001
0101
,  // measure 49
0000
0010
0000
0010
1000
0000
1100
0000
,  // measure 50
0000
0010
0001
0011
,  // measure 51
0000
1000
0000
1000
0001
0000
1001
0000
,  // measure 52
0000
0000
0000
0000
1000
0000
0000
1000
,  // measure 53
0000
0000
0000
0000
0001
0000
0000
0001
,  // measure 54
0000
0000
0000
0000
0010
0000
0000
0010
,  // measure 55
0000
0000
0000
0000
0100
0000
0000
0100
,  // measure 56
0000
0000
0000
0000
1000
0000
0000
1000
,  // measure 57
0000
0000
0000
0000
0100
0000
0000
0100
,  // measure 58
0000
0000
0000
0000
0010
0000
0000
0010
,  // measure 59
0000
0000
0000
0000
0001
0000
0000
0001
,  // measure 60
0000
0000
1000
0010
,  // measure 61
0100
0001
0010
0100
,  // measure 62
0010
0001
0100
0010
,  // measure 63
1000
0000
0100
0000
0010
0000
0001
1000
,  // measure 64
0001
0100
0010
1000
,  // measure 65
0100
0010
0100
1000
,  // measure 66
0010
0100
0010
1000
,  // measure 67
0001
0000
0100
0000
0010
0000
1000
0001
,  // measure 68
1000
0000
1000
0010
,  // measure 69
0100
1001
0001
0010
,  // measure 70
0100
1001
0010
0001
,  // measure 71
0100
0000
1001
0000
0100
0000
0010
0100
,  // measure 72
0010
1000
0100
1000
,  // measure 73
0010
0110
1000
0001
,  // measure 74
0010
0110
0001
1000
,  // measure 75
0100
0000
0110
0000
0010
0000
0001
1000
,  // measure 76
0001
0000
0100
0100
,  // measure 77
0010
0010
1000
1000
,  // measure 78
0100
0000
0100
1000
0100
0000
0010
0000
,  // measure 79
0010
0001
0001
1000
,  // measure 80
1000
0000
1000
0001
0100
0000
0100
0000
,  // measure 81
0010
0010
1000
1000
,  // measure 82
0100
0000
0100
0010
0100
0000
0010
0000
,  // measure 83
0010
0001
0001
1000
,  // measure 84
1000
0010
0000
0000
;

//---------------dance-single - ----------------
#NOTES:
     dance-single:
     :
     Easy:
     3:
     0.251000,0.288365,0.007606,0.000000,0.000000,231.000000,230.000000,1.000000,0.000000,0.000000,0.000000,0.251000,0.288365,0.007606,0.000000,0.000000,231.000000,230.000000,1.000000,0.000000,0.000000,0.000000:
0000
0000
0000
0000
,
0000
0000
0000
0000
,
0000
0000
0000
0000
,
0000
0000
0000
0000
,
0000
0000
0000
0000
,
0000
0000
0000
0000
,
0000
0000
0000
0000
,
0000
0000
0000
0000
,
1000
0000
0010
0000
,
1000
0100
0010
0000
,
0001
0000
0100
0000
,
0001
0010
0100
0000
,
0010
0000
0001
0000
,
1000
0001
0100
0000
,
0010
0000
1000
0000
,
0100
0010
0100
0000
,
1000
0010
0100
0000
,
0010
1000
0100
0000
,
0010
0000
0001
0000
,
0100
0000
1000
0000
,
0100
0010
0001
0000
,
1000
0010
0100
0000
,
0010
0000
1000
0000
,
0100
0000
0010
0000
,
0001
1000
0010
0000
,
1000
0001
0010
0000
,
0001
0100
0010
0000
,
1000
0100
0010
0000
,
0100
1000
0100
0000
,
0010
0001
0010
0000
,
0001
0100
0010
0000
,
1000
0000
0001
0000
,
0010
0100
0010
0000
,
0001
1000
0001
0000
,
0100
0010
0100
0000
,
0010
1000
0001
0000
,
0100
0010
0100
0000
,
0010
0001
0100
0000
,
0001
1000
0001
0000
,
0010
0000
0100
0000
,
1000
0000
0000
0000
,
0010
0000
0000
0000
,
0100
0000
0000
0000
,
0001
0000
0000
1001
,
0000
0010
1000
0100
,
0010
0100
0010
0001
,
0000
0100
0010
1000
,
0100
0010
0100
0010
,
0000
0001
1000
0010
,
1000
0001
1000
0100
,
0000
0001
0100
0010
,
1000
0001
1000
0001
,
0000
1000
0010
0000
,
0100
0001
0010
0000
,
0100
1000
0100
0000
,
0010
0001
0100
0000
,
0100
0010
1000
0000
,
1000
0010
0100
0000
,
0100
0001
0010
0000
,
0010
0100
1000
0100
,
0000
0000
1000
1000
,
0100
0100
0001
0001
,
0100
0000
0001
0001
,
0100
0100
0010
0010
,
1000
0000
0010
1000
,
0100
0000
0010
0001
,
0100
0000
0010
1000
,
0001
0001
0010
0001
,
1000
0000
0100
0100
,
0010
0010
0100
0100
,
0010
0010
0001
0001
,
1000
1000
0010
0010
,
0100
0100
0001
0000
,
1000
0000
0010
0000
,
0100
0000
0001
1000
,
0010
0100
0001
0010
,
0100
1000
0100
0100
,
0010
0010
0100
0100
,
0010
0010
0001
0100
,
0010
1000
0001
0100
,
0010
1000
0001
0001
,
1000
1000
0001
0001
,
1000
1000
0010
1000
,
0001
0100
0010
1000
,
0001
0100
0000
0000
;

//---------------dance-single - ----------------
#NOTES:
     dance-single:
     :
     Beginner:
     1:
     0.156468,0.223618,0.000000,0.000000,0.000000,144.000000,144.000000,0.000000,0.000000,0.000000,0.000000,0.156468,0.223618,0.000000,0.000000,0.000000,144.000000,144.000000,0.000000,0.000000,0.000000,0.000000:
0000
0000
0000
0000
,
0000
0000
0000
0000
,
0000
0000
0000
0000
,
0000
0000
0000
0000
,
0000
0000
0000
0000
,
0000
0000
0000
0000
,
0000
0000
0000
0000
,
0000
0000
0000
0000
,
0010
0000
0001
0000
,
0000
0000
1000
0000
,
0100
0000
1000
0000
,
0000
0000
0010
0000
,
0100
0000
0010
0000
,
0000
0000
0001
0000
,
1000
0000
0001
0000
,
0000
0000
0100
0000
,
0010
0000
1000
0000
,
0010
0000
1000
0000
,
0100
0000
0010
0000
,
0100
0000
0010
0000
,
0001
0000
0100
0000
,
0010
0000
1000
0000
,
0001
0000
0100
0000
,
0001
0000
0100
0000
,
0010
0000
0000
0000
,
1000
0000
0000
0000
,
0100
0000
0000
0000
,
0010
0000
0001
0000
,
0100
0000
0000
0000
,
0010
0000
0000
0000
,
1000
0000
0000
0000
,
0001
0000
0010
0000
,
0100
0100
0000
0000
,
0100
0100
0000
0000
,
1000
1000
0000
0000
,
0010
0010
0000
0000
,
0100
0100
0000
0000
,
0001
0001
0000
0000
,
0010
0010
0000
0000
,
0100
0000
1000
0000
,
0001
0000
0000
0000
,
0000
0000
0000
0000
,
0100
0000
0000
0000
,
0000
0000
0000
0010
,
0000
1000
0000
0100
,
0000
0010
0000
0001
,
0000
1000
0000
0001
,
0000
0100
0000
0010
,
0000
1000
0000
0100
,
0000
0010
0000
0001
,
0000
1000
0000
0010
,
0000
0100
0000
0001
,
0000
1000
1000
0000
,
0000
0100
0100
0000
,
0000
0001
0001
0000
,
0000
0010
0010
0000
,
0000
0100
0000
0100
,
0000
0010
0000
0010
,
0000
1000
0000
0001
,
0000
0100
0000
0010
,
0000
0000
0000
0000
,
1000
0000
0001
0000
,
0010
0000
0100
0000
,
1000
0000
0001
0000
,
0100
0000
0010
0000
,
1000
0000
0100
0000
,
0010
0000
0001
0000
,
1000
0000
0010
0000
,
1000
0000
0100
0100
,
0100
0100
0100
0000
,
0010
0000
0001
0001
,
0001
0001
0001
0000
,
1000
0000
0010
0010
,
0010
0010
0010
0000
,
0100
0000
0001
0001
,
0001
0001
0001
0000
,
1000
0000
0100
0000
,
0010
0000
0001
0000
,
1000
0000
0010
0000
,
1000
0000
0100
0000
,
0010
0000
0001
0000
,
0100
0000
0010
0000
,
1000
0000
0100
0000
,
0010
0000
0001
0000
,
1000
0000
0000
0000
;
