#TITLE:Work Bitch;
#SUBTITLE:;
#ARTIST:Britney Spears;
#TITLETRANSLIT:;
#SUBTITLETRANSLIT:;
#ARTISTTRANSLIT:;
#GENRE:Work Bitch;
#CREDIT:;
#BANNER:Work Bitch-bn.jpg;
#BACKGROUND:Work Bitch-bg.jpg;
#LYRICSPATH:;
#CDTITLE:;
#MUSIC:Work Bitch.mp3;
#OFFSET:-0.024000;
#SAMPLESTART:36.663609;
#SAMPLELENGTH:15.820309;
#LASTBEATHINT:258.999451;
#SELECTABLE:YES;
#BPMS:0.000000=128.000000
,175.000000=32.000000
,177.000000=64.000000
,193.000000=128.000000
;
#STOPS:78.000000=0.469000
;
#BGCHANGES:;
#KEYSOUNDS:;
#ATTACKS:;

//---------------dance-single - ----------------
#NOTES:
     dance-single:
     :
     Challenge:
     10:
     0.600713,0.698188,0.232776,0.180214,0.690820,505.000000,31.000000,24.000000,0.000000,0.000000,0.000000,0.600713,0.698188,0.232776,0.180214,0.690820,505.000000,31.000000,24.000000,0.000000,0.000000,0.000000:
0000
0000
0000
0000
,
0000
0000
0000
0000
,
0000
0000
0000
0000
,
0000
0000
0000
0000
,
0000
0000
0000
0000
0000
0000
0000
0000
0000
1000
0001
1000
0001
0000
0100
0010
,
0100
0000
0000
0000
0000
0000
0000
0000
0000
0001
0100
0001
0100
0000
0010
1000
,
0100
0000
0000
0000
0000
0000
0000
0000
0000
1000
0010
1000
0010
0100
0001
0010
,
0100
0000
0000
0000
0000
0000
0000
0000
0000
1000
0100
1000
0010
0000
0110
0000
,
0000
0000
0000
0000
0000
0000
0000
0000
0000
0001
0010
0001
0100
0001
0010
0001
,
0100
0000
0000
0000
0000
0000
0000
0000
0000
0000
0010
1000
0100
0000
1000
0001
,
1000
0000
0000
0000
0000
0000
0001
0000
0010
0000
0001
0100
0001
0000
1000
0001
,
1000
0000
0000
0000
0000
0000
0000
0000
0000
0010
0001
0100
0010
0000
0110
0000
,
1000
0000
0000
0000
0000
0000
0000
0000
0000
0001
1000
0010
1000
0000
0001
0000
,
0100
0000
0010
0000
0100
0000
0000
0000
0000
0001
0010
0001
0100
0000
0010
0000
,
1000
0000
0100
0000
1000
0000
0000
0000
0000
0000
1000
0010
0100
0000
0001
0000
,
0010
0000
0001
0000
0100
0000
0000
0000
0000
0001
0100
0001
0010
0000
0001
0000
,
0101
0000
0100
0000
0100
0000
0100
0000
0100
0010
1000
0010
0100
0000
0100
0000
,
1010
0000
0010
0000
0010
0000
0010
0000
0010
0100
0001
0100
0010
0000
0010
0000
,
1000
0100
1000
0100
0010
0001
0010
0001
0100
0001
0100
0001
1000
0010
1000
0010
,
1000
0001
1000
0001
0100
0010
0100
0010
0100
0000
0000
0000
1001
0000
1000
0010
,
0000
1000
0000
0100
0000
1000
0010
1000
0100
0000
0010
0000
0001
0000
0001
0010
,
0000
0001
0000
0100
0000
0001
0010
0001
0100
0000
0010
0000
1000
0000
1000
0010
,
0000
1000
0000
0100
0000
1000
0010
1000
0100
0000
0010
0000
0001
0000
0001
0010
,
0000
0001
0000
0100
0000
0001
0010
0001
0100
0000
0010
0000
1000
0000
1000
0001
,
0000
0100
0000
0001
0000
1000
0001
1000
0100
0000
0010
0000
0001
0000
0001
1000
,
0000
0100
0000
1000
0000
0001
1000
0001
0100
0000
0010
0000
1000
0000
1000
0001
,
0000
0100
0000
0001
0000
1000
0001
1000
0100
0000
0010
0000
0001
0000
0001
1000
,
0000
0100
0000
1000
0000
0001
1000
0001
0100
0000
0010
0000
1000
0000
1000
0010
,
0000
0010
0200
0000
0000
0000
0001
0000
0010
0000
0001
0000
0310
0000
0010
1000
,
0000
1000
0002
0000
0000
0000
0010
0000
1000
0000
0010
0000
1003
0000
1000
0100
,
0000
0100
0020
0000
0000
0000
0001
0000
0100
0000
0001
0000
0130
0000
0100
0010
,
0000
0010
0200
0000
0000
0000
0000
0000
1300
0000
0000
0000
1100
0000
1000
0010
,
0000
0010
0002
0000
0000
0000
0010
0000
1000
0000
0013
0000
0001
0000
0001
0100
,
0000
0100
2000
0000
0000
0000
0100
0000
0001
0000
0100
0000
3001
0000
0001
0100
,
0000
0100
2000
0000
0000
0000
0010
0000
0001
0000
3010
0000
1000
0000
1000
0001
,
0000
0001
0200
0000
0000
0000
0000
0000
0000
0000
0000
0000
0310
0000
0000
0000
,
0010
0000
0000
1000
0010
1000
0000
1000
0010
0000
1000
0000
0100
0000
0000
0000
,
0100
0000
0000
0010
0100
0010
0000
0010
0100
0010
0100
0000
0001
0000
0000
0000
,
0001
0000
0000
0100
0001
0100
0000
0100
0001
0000
0100
0000
1000
0000
0000
0000
,
1000
0000
0000
0001
1000
0001
0000
0001
1000
0000
0001
0000
0010
0000
0000
0000
,
0010
0000
0000
1000
0010
1000
0000
1000
0010
1000
0001
0000
0001
0000
0000
0000
,
0001
0000
0000
0010
0001
0010
0000
0010
0001
1000
0100
0000
0100
0000
0000
0000
,
0100
0000
0000
1000
0100
1000
0000
1000
0100
1000
0010
0000
0010
0000
0010
1000
,
0000
0001
0000
0010
0000
0001
0000
0100
0000
0000
0101
0000
1000
0000
0000
0000
,
0000
0000
0000
0000
1020
0000
0000
0000
1030
0100
0010
0100
0020
0000
0000
0000
,
0031
1000
0100
1000
0002
0000
1000
0000
1003
0001
0100
0001
2000
0000
0001
0000
,
3001
1000
0010
0100
0020
0000
1000
0000
0130
0010
0200
0000
0001
0000
0310
0000
,
0001
0100
0010
1000
0200
0000
0010
0000
1300
0100
0020
0000
0001
0000
0130
0000
,
0001
0100
0010
0000
2001
0000
0000
0000
0010
0000
0000
0000
3001
0000
0010
0000
,
1000
0010
0002
0000
1000
0000
0103
0010
,
0100
0010
2010
0000
0100
0000
3010
0100
,
0010
0100
0012
0000
0100
0000
0013
0100
,
0010
0100
2010
0000
0001
0000
3100
1000
,
0100
0000
0012
0000
1000
0000
0103
0001
,
0100
0001
2100
0000
0010
0000
3100
0010
,
0001
0100
0102
0000
0013
0001
0100
0010
,
1000
0000
0001
0000
0100
0000
0010
1000
0000
1100
0000
1001
0000
1000
0001
0100
,
0001
0000
0010
0000
0001
0000
0010
0100
0000
0110
0000
1100
0000
0100
1000
0010
,
0100
0000
0001
0000
0010
0000
0001
1000
0000
1010
0000
1001
0000
1000
0010
1000
,
0100
0000
0010
0000
0001
0000
0100
0001
0000
0011
0000
0101
0000
0100
0010
1000
,
0001
0000
1000
0000
0100
0000
0010
0001
0000
1001
0000
0101
0000
0001
0100
0010
,
1000
0000
0100
0000
0010
0000
0100
1000
0000
1001
0000
1100
0000
1000
0010
1000
,
0100
0000
0010
0000
0001
0000
0100
0001
0000
0110
0000
0101
0000
1000
0010
0100
,
0001
0000
1000
0000
1100
0000
0100
0010
0000
0001
0000
0010
0000
1000
0000
0001
,
0000
0101
0000
0000
0000
0000
0000
0000
;

//---------------dance-single - ----------------
#NOTES:
     dance-single:
     :
     Hard:
     8:
     0.451608,0.433358,0.255303,0.195232,0.270321,361.000000,34.000000,26.000000,0.000000,0.000000,0.000000,0.451608,0.433358,0.255303,0.195232,0.270321,361.000000,34.000000,26.000000,0.000000,0.000000,0.000000:
0000
0000
0000
0000
,
0000
0000
0000
0000
,
0000
0000
0000
0000
,
0000
0000
0000
0000
,
2100
0000
0100
0000
3100
1000
0010
0100
,
0002
0000
0100
0000
0103
0001
0010
0100
,
2000
0000
0010
0000
3010
1000
0001
0100
,
0020
0000
0100
0000
0130
0001
1000
0000
,
2001
0000
0100
0000
3100
0010
0001
0100
,
0020
0000
0100
0000
0130
0001
0010
0100
,
2000
0000
0010
0000
3001
1000
0100
0010
,
0002
0000
1000
0000
0103
0010
1000
0001
,
0200
0000
1000
0000
0310
1000
0010
0001
,
0200
0000
0001
0000
0310
0001
0010
1000
,
0200
0000
1300
0000
0010
1000
0010
0001
,
0200
0000
0001
0000
0310
0001
0010
1000
,
0100
1000
0010
0000
1000
0001
0100
0000
,
0010
0100
0001
0000
0010
0100
1000
0000
,
0010
1000
0010
0001
0100
0010
0100
0001
,
1000
0000
0100
0000
0010
0000
0001
0000
1000
0000
0000
0000
1001
0000
0000
1000
,
0000
0100
0000
1000
0000
0000
0010
0000
0100
0000
0010
0000
0100
0000
0000
0001
,
0000
0010
0000
0001
0000
0000
0100
0000
0010
0000
0100
0000
0010
0000
0000
1000
,
0000
0100
0000
1000
0000
0000
0010
0000
0100
0000
0010
0000
0100
0000
0000
0001
,
0000
0010
0000
0001
0000
0000
0100
0000
0010
0000
0100
0000
0010
0000
0000
1000
,
0000
0001
0000
0100
0000
0000
0001
0000
1000
0000
0001
0000
1000
0000
0000
0001
,
0000
1000
0000
0100
0000
0000
1000
0000
0001
0000
1000
0000
0001
0000
0000
1000
,
0000
0001
0000
0100
0000
0000
0001
0000
1000
0000
0001
0000
1000
0000
0000
0001
,
0000
1000
0000
0100
0000
0000
1000
0000
0001
0000
1000
0000
0001
0000
0000
0010
,
0000
0000
0200
0000
0000
0000
1000
0000
1300
0000
0000
0000
1000
0000
0000
0010
,
0000
0000
0200
0000
0000
0000
0001
0000
0301
0000
0000
0000
1000
0000
0000
0001
,
0000
0000
0020
0000
0000
0000
0001
0000
0000
0000
0031
0000
0001
0000
0000
1000
,
0000
0000
0020
0000
0000
0000
0000
0000
0030
0000
0000
0000
1000
0000
0000
0100
,
0000
0000
0020
0000
0000
0000
0001
0000
0000
0000
0031
0000
0100
0000
0000
0001
,
0000
0000
2000
0000
0000
0000
0000
0000
3010
0000
0000
0000
0010
0000
0000
1000
,
0000
0000
0200
0000
0000
0000
0000
0000
1300
0000
0000
0000
1000
0000
0000
0100
,
0000
0020
0000
0000
0031
0000
0011
0000
,
0011
0000
0011
0000
0001
1000
1100
0000
,
1100
0000
1100
0000
1000
0001
0101
0000
,
0101
0000
0101
0000
0001
1000
1010
0000
,
1010
0000
1010
0000
1000
0010
0100
0000
,
0110
0000
0110
0000
0001
1000
0100
0000
,
0110
0000
0110
0000
1000
0010
0001
0000
,
1001
0000
0110
0000
0010
0100
0001
0000
,
0110
0000
1001
0000
0001
1000
0001
0000
,
0000
0000
0020
0000
0001
0100
0031
0000
,
1000
0010
0200
0000
1000
0010
1300
0000
,
0010
1000
2001
0000
3100
0000
1001
0000
,
1000
0001
1002
0000
0103
0000
1001
0000
,
0001
1000
1001
0000
0010
0000
1000
0010
,
1000
0100
1000
0000
1000
0000
0001
0010
,
0100
1000
0010
0000
0100
0000
0010
1000
,
0001
0100
0010
0000
0100
0000
0001
0100
,
0001
0010
0021
0000
0100
0000
0100
0100
,
0130
0000
1020
0000
0100
0000
0100
0100
,
0130
0000
1001
0000
0100
0000
0100
0010
,
0100
0000
1001
0000
0100
0010
0100
0000
,
1001
0000
0000
0000
0101
0000
0000
1000
0000
0100
0000
1000
0000
0100
0000
1000
,
0100
0000
0010
0000
0001
0000
0000
0100
0000
0001
0000
0100
0000
0001
0000
0100
,
0010
0000
1000
0000
0100
0000
0000
1000
0000
0100
0000
1000
0000
0100
0000
1000
,
0100
0000
0010
0000
0001
0000
0000
0100
0000
0001
0000
0100
0000
0001
0000
0100
,
0010
0000
1000
0000
0100
0000
1000
0001
0000
1000
0000
0100
0000
1000
0000
0001
,
1000
0000
0010
0000
1000
0000
0001
1000
0000
0010
0000
1000
0000
0001
0000
1000
,
0010
0000
1000
0000
0001
0000
0010
0001
0000
0010
0000
0100
0000
0010
0000
0001
,
0100
0000
0001
0000
1000
0000
0010
0100
0000
0001
0000
1000
0000
0010
0000
1000
,
0000
0100
0000
0000
0000
0000
0000
0000
;

//---------------dance-single - ----------------
#NOTES:
     dance-single:
     :
     Medium:
     6:
     0.335756,0.288906,0.120143,0.000000,0.007509,297.000000,16.000000,0.000000,0.000000,0.000000,0.000000,0.335756,0.288906,0.120143,0.000000,0.007509,297.000000,16.000000,0.000000,0.000000,0.000000,0.000000:
0000
0000
0000
0000
,
0000
0000
0000
0000
,
0000
0000
0000
0000
,
0000
0000
0000
0000
,
1000
0000
0010
0000
1000
0000
0100
1000
,
0100
0000
0010
0000
0001
0000
0010
0001
,
0010
0000
0001
0000
0100
0000
0001
0100
,
0001
0000
1000
0000
0010
1000
0010
0000
,
1000
0000
0100
0000
0010
0000
0100
1000
,
0100
0000
0010
0000
0001
0000
0100
0001
,
0100
0000
0010
0000
1000
0000
0100
1000
,
0100
0000
0010
0000
0001
1000
0001
0000
,
0101
0000
0100
0000
0100
0000
0001
0100
,
0001
0000
0010
0000
0100
0000
1000
0100
,
1000
0000
0010
0000
0100
0000
0001
0010
,
0001
0000
0100
0000
0010
1000
0001
0000
,
1001
0000
0100
0000
0100
0000
1000
0001
,
0100
0000
0100
0000
0100
0000
1000
0001
,
0100
0100
0100
0100
,
0100
0010
1001
1001
,
0010
0000
1000
0100
1000
0000
0010
0000
,
0100
0000
0001
0100
0001
0000
0010
0000
,
0100
0000
1000
0100
1000
0000
0010
0000
,
0100
0000
0001
0100
0001
0000
1000
0100
,
0001
0000
0001
0000
0001
0000
0001
0100
,
1000
0000
1000
0000
1000
0000
1000
0100
,
0001
0000
0001
0000
0001
0000
0001
0100
,
1000
1000
1000
1001
,
0010
0000
1000
0000
0010
1000
0010
0000
,
0100
0000
0001
0000
0010
0001
0010
0000
,
0100
0000
1000
0000
0010
1000
0100
0000
,
0010
0001
0100
1001
,
0100
0000
0001
0000
0010
0001
0100
0000
,
0010
0000
1000
0000
0100
1000
0010
0000
,
1000
0000
0001
0000
0010
0001
0100
0000
,
0010
1000
0000
1001
,
0010
0000
1000
0100
1000
0100
0010
0000
,
0010
0000
0001
0100
0001
0100
0010
0000
,
1000
0000
0001
1000
0001
1000
0100
0000
,
0010
0000
0100
0010
0100
0010
0001
0000
,
1000
0000
0001
1000
0001
0100
0001
0000
,
0100
0000
0010
1000
0010
0100
0010
0000
,
1000
0000
0100
1000
0001
1000
0100
0000
,
0010
0000
0001
1000
0001
0000
0101
0000
,
0000
1001
0010
1000
,
0100
0010
0100
0000
0100
0000
0100
0000
,
1000
0100
0010
0010
0000
0010
0010
0000
,
0100
0000
0010
0010
0000
0010
0010
0000
,
0100
0000
1001
0000
0100
0000
0100
0001
,
0100
0000
0100
0000
0100
0000
0100
1000
,
0100
0000
0010
0000
0010
0000
0010
1000
,
0010
0000
0010
0000
0010
0000
0010
0001
,
0010
1001
0010
0000
,
1001
0000
0010
0000
0000
0000
1000
0001
,
0100
1001
0010
0000
,
1001
0010
0000
1001
,
0010
0000
0100
0000
0010
0000
1000
0100
,
0010
0000
0001
0000
1000
0000
0010
0100
,
0001
0000
0010
0000
0100
0000
1000
0001
,
0100
0000
0010
0000
1000
0000
0001
1000
,
0010
0000
1000
0000
0100
0000
0010
0001
,
0010
0001
0100
0000
0100
0000
0010
1000
,
0010
1000
0100
0000
0100
0000
1000
0001
,
0100
0000
0001
0000
1000
0000
0000
0010
0000
0000
0000
0100
0000
0000
0000
0000
,
0000
0110
0000
0000
0000
0000
0000
0000
;

//---------------dance-single - ----------------
#NOTES:
     dance-single:
     :
     Easy:
     4:
     0.220977,0.191477,0.015018,0.075089,0.000000,194.000000,2.000000,10.000000,0.000000,0.000000,0.000000,0.220977,0.191477,0.015018,0.075089,0.000000,194.000000,2.000000,10.000000,0.000000,0.000000,0.000000:
// measure 0
0000
0000
0000
0000
,  // measure 1
0000
0000
0000
0000
,  // measure 2
0000
0000
0000
0000
,  // measure 3
0000
0000
0000
0000
,  // measure 4
1000
0000
0001
0100
,  // measure 5
0001
0000
1000
0100
,  // measure 6
1000
0000
0010
1000
,  // measure 7
0100
0000
0010
0100
,  // measure 8
0010
0000
0001
1000
,  // measure 9
0001
0000
0100
0010
,  // measure 10
1000
0000
0100
0010
,  // measure 11
0001
0000
1000
0001
,  // measure 12
0100
0000
0001
0100
,  // measure 13
0010
0000
1000
0010
,  // measure 14
0100
0000
0001
0010
,  // measure 15
0100
0000
1000
0100
,  // measure 16
1000
0000
0010
0000
,  // measure 17
0001
0000
0010
0000
,  // measure 18
1000
0010
0001
0010
,  // measure 19
1000
0010
0000
1001
,  // measure 20
0010
0010
1000
0100
,  // measure 21
0100
0100
0010
0001
,  // measure 22
0001
0001
1000
0100
,  // measure 23
0010
0100
0000
0010
,  // measure 24
0010
0010
0001
0100
,  // measure 25
0100
0100
0010
1000
,  // measure 26
1000
1000
0001
0100
,  // measure 27
0010
0100
0000
0001
,  // measure 28
0010
0200
0300
1000
,  // measure 29
0010
0200
0300
0010
,  // measure 30
1000
0200
0300
0010
,  // measure 31
0001
0200
0300
0001
,  // measure 32
1000
0200
0300
1000
,  // measure 33
0001
0200
0300
0001
,  // measure 34
1000
0020
0030
1000
,  // measure 35
0001
2000
3000
1000
,  // measure 36
1000
1000
1000
0001
,  // measure 37
0001
0001
0001
0100
,  // measure 38
0100
0100
0100
0010
,  // measure 39
0010
0010
0010
1000
,  // measure 40
1000
1000
1000
0100
,  // measure 41
0100
0100
0100
0010
,  // measure 42
0010
0010
0010
0001
,  // measure 43
0001
0001
0001
0001
,  // measure 44
0000
2000
0000
3100
,  // measure 45
0010
0002
0000
0103
,  // measure 46
0010
1000
0000
1000
,  // measure 47
0010
0001
0000
0001
,  // measure 48
0010
1000
0000
0010
,  // measure 49
1000
0010
0000
0001
,  // measure 50
0100
0001
0000
0100
,  // measure 51
1000
0100
0000
0010
,  // measure 52
0001
0010
0000
0000
,  // measure 53
0010
0000
0000
1000
,  // measure 54
0001
0010
0000
0000
,  // measure 55
0010
0000
0000
0010
,  // measure 56
0000
1001
0010
0010
,  // measure 57
1000
0100
0100
0100
,  // measure 58
0010
0001
0001
0001
,  // measure 59
1000
0010
0100
0010
,  // measure 60
0000
1000
1000
1000
,  // measure 61
0100
0010
0010
0010
,  // measure 62
0001
1000
1000
1000
,  // measure 63
0001
0010
0100
0010
;

//---------------dance-single - ----------------
#NOTES:
     dance-single:
     :
     Beginner:
     1:
     0.110488,0.119673,0.015018,0.000000,0.000000,101.000000,2.000000,0.000000,0.000000,0.000000,0.000000,0.110488,0.119673,0.015018,0.000000,0.000000,101.000000,2.000000,0.000000,0.000000,0.000000,0.000000:
// measure 0
0000
0000
0000
0000
,  // measure 1
0000
0000
0000
0000
,  // measure 2
0000
0000
0000
0000
,  // measure 3
0000
0000
0000
0000
,  // measure 4
0010
0000
0000
0000
,  // measure 5
1000
0000
0000
0000
,  // measure 6
0100
0000
0000
0000
,  // measure 7
0010
0000
0000
0000
,  // measure 8
0001
0000
0000
0000
,  // measure 9
1000
0000
0000
0000
,  // measure 10
0010
0000
0000
0000
,  // measure 11
0100
0000
0000
0000
,  // measure 12
0001
0000
0000
0000
,  // measure 13
0010
0000
0000
0000
,  // measure 14
0001
0000
0000
0000
,  // measure 15
0010
0000
0000
0000
,  // measure 16
1000
0000
0000
0000
,  // measure 17
0010
0000
0000
0000
,  // measure 18
1000
0000
0000
0000
,  // measure 19
0010
0000
0000
1001
,  // measure 20
0000
0010
0000
1000
,  // measure 21
0000
0010
0000
0001
,  // measure 22
0000
0010
0000
1000
,  // measure 23
0000
0010
0000
0100
,  // measure 24
0000
0001
0000
0100
,  // measure 25
0000
1000
0000
0100
,  // measure 26
0000
0001
0000
0100
,  // measure 27
0000
1000
0000
0001
,  // measure 28
0000
0100
0000
0001
,  // measure 29
0000
0100
0000
0010
,  // measure 30
0000
1000
0000
0010
,  // measure 31
0000
1000
0000
0100
,  // measure 32
0000
1000
0000
0100
,  // measure 33
0000
1000
0000
0001
,  // measure 34
0000
0010
0000
0001
,  // measure 35
0000
0010
0000
0100
,  // measure 36
0000
0100
0000
0010
,  // measure 37
0000
0010
0000
0001
,  // measure 38
0000
0001
0000
1000
,  // measure 39
0000
1000
0000
0010
,  // measure 40
0000
0010
0000
0100
,  // measure 41
0000
0100
0000
0001
,  // measure 42
0000
0001
0000
1000
,  // measure 43
0000
1000
0000
1001
,  // measure 44
0000
0010
0000
0010
,  // measure 45
0000
1000
1000
1000
,  // measure 46
0000
0100
0000
0100
,  // measure 47
0000
0001
0000
0001
,  // measure 48
0000
0010
0000
0010
,  // measure 49
0000
0010
0000
0000
,  // measure 50
0000
1000
0000
0001
,  // measure 51
0000
1000
0000
0000
,  // measure 52
0000
0100
0000
0000
,  // measure 53
0100
0000
0000
0000
,  // measure 54
0000
0100
0000
0000
,  // measure 55
0100
0000
0000
0100
,  // measure 56
0000
0010
0000
0001
,  // measure 57
0000
0100
0000
0010
,  // measure 58
0000
1000
0000
0001
,  // measure 59
0000
1000
0000
0100
,  // measure 60
0000
0001
0000
0100
,  // measure 61
0000
1000
0000
0100
,  // measure 62
0000
0010
0000
0001
,  // measure 63
0000
0100
0000
0010
;
