#TITLE:Will I?;
#SUBTITLE:;
#ARTIST:Ian Van Dahl;
#TITLETRANSLIT:;
#SUBTITLETRANSLIT:;
#ARTISTTRANSLIT:;
#GENRE:DDRMAX2 / Ace;
#CREDIT:;
#BANNER:Will I-bn.jpg;
#BACKGROUND:Will I-bg.jpg;
#LYRICSPATH:;
#CDTITLE:;
#MUSIC:Will I.mp3;
#OFFSET:-0.091000;
#SAMPLESTART:58.310001;
#SAMPLELENGTH:12.000000;
#SELECTABLE:YES;
#DISPLAYBPM:140.000000;
#BPMS:0.000000=140.070007
;
#STOPS:
;
#BGCHANGES:;
#KEYSOUNDS:;
#ATTACKS:;

//---------------dance-single - ----------------
#NOTES:
     dance-single:
     :
     Beginner:
     1:
     0.160841,0.197030,0.009706,0.000000,0.000000,115.000000,1.000000,0.000000,0.000000,0.000000,0.000000,0.160841,0.197030,0.009706,0.000000,0.000000,115.000000,1.000000,0.000000,0.000000,0.000000,0.000000:
0000
0000
0000
0000
,
0000
0000
0000
0000
,
0001
0000
0100
0000
,
0001
0000
0001
0000
,
1000
0000
0100
0000
,
0010
0000
0001
0000
,
1000
0000
0100
0000
,
1000
0000
1000
0000
,
0001
0000
0100
0000
,
0010
0000
1000
0000
,
0001
0000
0100
0000
,
1000
0000
0010
0000
,
0001
0000
0001
0000
,
1000
0000
1000
0000
,
0100
0100
0100
0000
,
0010
0010
0010
0000
,
1000
0000
0001
0000
,
0000
0000
0000
0000
,
0010
0000
0010
0000
,
1000
1000
1000
0000
,
0100
0100
0100
0100
,
0100
0100
0100
0000
,
0100
0000
0100
0000
,
1000
0000
0001
0001
,
0001
0000
0000
0000
,
0000
0000
0000
0000
,
0001
0001
0001
0001
,
0001
0000
1000
0000
,
1000
0000
0100
0000
,
0001
0000
0100
0000
,
1000
0000
0001
0000
,
0100
0000
0100
0000
,
0010
0000
0000
0000
,
0000
0000
0000
0000
,
0000
0000
0000
0000
,
0001
0000
0001
0000
,
0001
0000
0000
0000
,
0100
0000
0100
0000
,
0000
0000
0000
0000
,
1000
0000
1000
0000
,
1000
0000
0000
0000
,
0010
0000
0010
0000
,
0001
0000
0100
0000
,
0001
0000
0001
0000
,
1000
1000
1000
1000
,
1000
1000
1000
0000
,
1000
0000
0100
0000
,
1000
0000
1000
0000
,
0001
0001
0001
0001
,
0001
0001
0001
0000
,
0001
0000
0100
0000
,
1000
0000
0010
0000
,
0001
0000
0001
0000
,
1000
0000
1000
0000
,
0100
0000
0100
0000
,
0010
0000
0010
0000
,
1001
0000
0000
0000
,
0100
0100
0100
0100
,
0100
0000
0000
0000
;

//---------------dance-single - ----------------
#NOTES:
     dance-single:
     :
     Easy:
     3:
     0.205211,0.253324,0.019412,0.213530,0.000000,124.000000,2.000000,22.000000,0.000000,0.000000,0.000000,0.205211,0.253324,0.019412,0.213530,0.000000,124.000000,2.000000,22.000000,0.000000,0.000000,0.000000:
0000
0000
0000
0000
,
0000
0000
0000
0000
,
0002
0003
0100
0000
,
0001
1000
0001
0000
,
1000
1000
0100
0000
,
0010
0010
0001
0000
,
2000
3000
0100
0000
,
1000
0001
1000
0000
,
0001
0001
0100
0000
,
0010
0010
1000
0000
,
0002
0003
0100
0000
,
1000
0100
0010
0000
,
0001
0000
0001
0000
,
1000
0000
1000
0000
,
0200
0300
0100
0000
,
0020
0030
0010
0000
,
1000
0000
0001
0000
,
1001
0000
0000
0000
,
0020
0030
0010
0000
,
1000
1000
0001
0001
,
0200
0000
0000
0300
,
0000
0000
0000
0000
,
0200
0300
0100
0000
,
1000
1000
0001
0100
,
0020
0000
0000
0030
,
0000
0000
0000
0000
,
0200
0301
0100
0100
,
1000
0100
0001
0100
,
2000
3000
0100
0000
,
0002
0003
0100
0010
,
2000
3000
0002
0003
,
0100
0000
0100
0000
,
0020
0000
0000
0030
,
0000
0000
0000
0000
,
0000
0000
0000
0000
,
0001
0000
0001
0000
,
0001
0000
0000
0000
,
0200
0300
0100
0000
,
0000
0000
0000
0000
,
1000
0000
1000
0000
,
1000
0000
0000
0000
,
0020
0030
0010
0000
,
0002
0003
0100
0000
,
0001
1000
0001
0000
,
1000
1000
0100
0100
,
0010
0010
0001
0000
,
2000
3000
0100
0000
,
1000
0001
1000
0000
,
0001
0001
0100
0100
,
0010
0010
1000
0000
,
0002
0003
0100
0000
,
1000
0100
0010
0000
,
0001
0000
0001
0000
,
1000
0000
1000
0000
,
0200
0300
0100
0000
,
0020
0030
0010
0000
,
1000
0000
0001
0000
,
0001
0100
0010
0100
,
0110
0000
0000
0000
;

//---------------dance-single - ----------------
#NOTES:
     dance-single:
     :
     Medium:
     6:
     0.360505,0.422207,0.048530,0.436766,0.000000,210.000000,5.000000,45.000000,0.000000,0.000000,0.000000,0.360505,0.422207,0.048530,0.436766,0.000000,210.000000,5.000000,45.000000,0.000000,0.000000,0.000000:
0000
0000
0000
0000
,
0000
0000
0000
0000
,
2000
0000
3100
0000
0001
0010
0100
0000
,
0001
0001
1000
1000
,
0002
0103
0200
0310
,
0020
1030
2000
3100
,
0002
0000
0103
0000
1000
0010
0100
0000
,
1000
1000
0001
0001
,
2000
3100
0200
0310
,
0020
0031
0002
0103
,
2000
0000
3100
0010
,
0001
0010
0100
1000
,
0020
0031
0200
1300
,
1000
0100
0010
0000
0001
0000
0100
0000
,
1000
0100
0001
0010
,
1000
0100
0001
0010
,
1000
0001
1000
0000
0100
0001
1000
0000
,
0010
1000
0001
0100
,
0010
0000
0000
0010
0000
0000
0000
0000
,
2000
0000
3002
0000
,
0203
0000
0000
0000
,
0000
0000
0000
0300
,
0100
0000
0001
0100
0000
0000
0001
0000
,
2000
3100
0002
0103
,
0200
0000
0000
0000
,
0000
0001
0000
1300
,
0010
0001
0020
0031
,
0100
1000
0100
0000
0010
0001
0010
0000
,
2000
3100
0002
0103
,
0020
2030
3200
0000
,
0320
0000
0000
0000
,
0032
0000
2003
0000
,
3200
0000
0000
0000
,
0000
0000
0000
0300
,
0002
0103
1000
0010
,
0001
0100
0000
0001
0100
0000
0001
0100
,
0000
0020
1000
0130
,
0001
0100
1000
0100
,
2000
3100
0001
0010
,
1000
0100
0000
1000
0100
0000
1000
0100
,
0000
0020
0001
0130
,
1000
0100
0001
0100
,
2000
0000
3100
0000
0001
0010
0100
0000
,
0001
0001
1000
1000
,
0002
0103
0200
0310
,
0020
1030
2000
3100
,
0002
0000
0103
0000
1000
0010
0100
0000
,
1000
1000
0001
0001
,
2000
3100
0200
0310
,
0020
0031
0002
0103
,
2000
0000
3100
0010
,
0001
0010
0100
1000
,
0020
0000
0031
0000
0001
0100
1000
0000
,
1000
0100
0010
0000
0010
0000
0100
0000
,
1000
0100
0001
0010
,
1000
0100
0001
0010
,
0001
0100
0001
0100
0001
0100
0001
0000
,
0110
1001
0110
0011
,
1100
0000
0000
0000
;

//---------------dance-single - ----------------
#NOTES:
     dance-single:
     :
     Hard:
     7:
     0.432606,0.427667,0.038824,0.446472,0.000000,262.000000,4.000000,46.000000,0.000000,0.000000,0.000000,0.432606,0.427667,0.038824,0.446472,0.000000,262.000000,4.000000,46.000000,0.000000,0.000000,0.000000:
// measure 0
0000
0000
0000
0000
,  // measure 1
0000
0000
0000
0000
,  // measure 2
0002
0000
1003
0000
0010
0100
0010
0000
,  // measure 3
0001
0010
1000
0100
,  // measure 4
0001
0100
0010
0000
0100
0010
1000
0000
,  // measure 5
1000
0010
0100
0000
0010
0100
0001
0000
,  // measure 6
2000
0000
3001
0000
0010
0100
0010
0000
,  // measure 7
1000
0010
0001
0100
,  // measure 8
1000
0100
0010
0000
0100
0010
0001
0000
,  // measure 9
0001
0010
0100
0000
0010
0100
1000
0000
,  // measure 10
0002
0100
0003
0110
,  // measure 11
0020
1030
0200
0301
,  // measure 12
2000
3002
0203
0300
,  // measure 13
0020
0000
1000
0130
,  // measure 14
0001
0010
1000
0100
,  // measure 15
0001
0100
0001
0000
1000
0100
1000
0000
,  // measure 16
0020
0000
0200
0330
,  // measure 17
0001
0001
1000
0010
,  // measure 18
0020
0000
1030
0100
0000
0000
0100
0000
,  // measure 19
0020
0001
0230
1000
,  // measure 20
0320
0000
1000
0031
,  // measure 21
2000
0000
3100
0000
0002
0000
0013
0001
,  // measure 22
0200
0000
0301
0010
0000
0000
0100
0000
,  // measure 23
2000
3100
0002
0103
,  // measure 24
0020
0100
0000
0100
,  // measure 25
0200
0000
0000
0330
,  // measure 26
0010
0000
0001
1000
0001
0000
0100
0000
,  // measure 27
0010
0001
0100
0000
0100
0001
1000
0100
,  // measure 28
2000
0100
3000
0100
0020
0001
0030
0001
,  // measure 29
0200
0001
0300
0001
0000
1000
0000
1000
,  // measure 30
0020
0100
0030
0100
0002
0010
0003
0010
,  // measure 31
0000
0001
0000
0002
0000
1003
0000
2000
,  // measure 32
0000
3001
0000
0001
0000
0100
0000
0020
,  // measure 33
0100
0100
0130
0110
,  // measure 34
2000
3002
0103
1000
,  // measure 35
0001
1000
0000
1000
0100
0000
0100
0010
,  // measure 36
0000
0000
0010
0000
1000
0001
0100
0000
,  // measure 37
0001
0010
0100
0000
0001
0010
0100
0000
,  // measure 38
0002
2003
3100
0001
,  // measure 39
1000
0001
0000
0001
0100
0000
0100
0010
,  // measure 40
0000
0000
0010
0000
0001
1000
0100
0000
,  // measure 41
1000
0010
0100
0000
0020
0000
0130
0000
,  // measure 42
0002
0000
1003
0000
0010
0100
0010
0000
,  // measure 43
0001
0100
0010
0000
0100
0010
1000
0000
,  // measure 44
1000
0010
0100
0000
0010
0100
0001
0000
,  // measure 45
1000
0010
0100
0000
0010
0100
0001
0000
,  // measure 46
2000
0000
3001
0000
0010
0100
0010
0000
,  // measure 47
1000
0010
0001
0100
,  // measure 48
1000
0100
0010
0000
0100
0010
0001
0000
,  // measure 49
0001
0010
0100
0000
0010
0100
1000
0000
,  // measure 50
0002
0100
0003
0110
,  // measure 51
0020
1030
0200
0301
,  // measure 52
2000
3002
0203
0300
,  // measure 53
0020
0000
1000
0130
,  // measure 54
0001
0010
1000
0100
,  // measure 55
0001
0100
0001
0000
1000
0100
1000
0000
,  // measure 56
1000
0010
0100
0001
0100
0001
0010
0100
,  // measure 57
1000
0001
1000
0010
0100
0001
0100
0000
,  // measure 58
0220
0000
0000
0330
;

//---------------dance-double - ----------------
#NOTES:
     dance-double:
     :
     Easy:
     3:
     0.180253,0.225177,0.087353,0.106765,0.000000,110.000000,9.000000,11.000000,0.000000,0.000000,0.000000,0.180253,0.225177,0.087353,0.106765,0.000000,110.000000,9.000000,11.000000,0.000000,0.000000,0.000000:
00000000
00000000
00000000
00000000
,
00000000
00000000
00000000
00000000
,
00010000
00000000
00000000
00000000
,
10000000
00000000
00000000
00000000
,
00010000
00000000
00010000
00000000
,
10000000
00000000
10000000
00000000
,
10000000
00000000
00000000
00000000
,
01000000
00000000
00000000
00000000
,
00010000
00000000
00010000
00000000
,
00001000
00000000
00001000
00000000
,
00011000
00000000
00000000
00000000
,
00001000
00000000
00000100
00000000
,
00000001
00000001
00000001
00000000
,
00000000
00000000
00001000
00000000
,
00002000
00000000
00000000
00000000
,
00000000
00003000
00000001
00000000
,
00000002
00000000
00000000
00000000
,
00000000
00000000
00000000
00000003
,
00001001
00000000
00000100
00000000
,
00000100
00000000
00001000
00000000
,
00020000
00000000
00000000
00030000
,
00000000
00000000
00000000
00000000
,
10010000
10000000
00000000
01000000
,
00000000
01000000
00000000
00010000
,
00002000
00000000
00000000
00010000
,
00000000
00010000
00000000
00013000
,
00011000
00000000
00001000
00000000
,
00000100
00000000
00000001
00000000
,
00001000
00000001
00001000
00000000
,
00000001
00001000
00000001
00000000
,
00002002
00000000
00000000
00003003
,
00000200
00000300
00002000
00003000
,
00020000
00000000
00000000
00030000
,
00010000
00000000
00010000
00100000
,
10010000
00000000
00000000
00000000
,
01000000
00000000
01000000
01000000
,
01000000
00000000
01000000
00000000
,
00010000
00000000
00001000
00000000
,
00011000
00000000
00000000
00000000
,
00001000
00000000
00001000
00001000
,
00001000
00000000
00010000
00000000
,
00001000
00000000
00000100
00000001
,
00001000
00000000
00001000
00001000
,
00000001
00000000
00000000
00000010
,
00000100
00000010
00000100
00000000
,
00000001
00000000
00000100
00000000
,
00001000
00000000
00010000
00010000
,
00001000
00000000
00000000
00001000
,
00010000
00001000
00010000
00000000
,
00010000
00000000
00100000
00000000
,
10010000
00000000
00000000
01000000
,
00100000
00000000
10000000
00000000
,
01000000
00010000
00001000
00000000
,
00010000
00001000
00000010
00000010
,
00000200
00000000
00000000
00000300
,
00000000
00000000
00001000
00001000
,
00000002
00000000
00000000
00000003
,
00001000
00000010
00000100
00000001
,
00001001
00000000
00000000
00000000
;

//---------------dance-double - ----------------
#NOTES:
     dance-double:
     :
     Medium:
     5:
     0.270379,0.281471,0.106765,0.165000,0.000000,167.000000,11.000000,17.000000,0.000000,0.000000,0.000000,0.270379,0.281471,0.106765,0.165000,0.000000,167.000000,11.000000,17.000000,0.000000,0.000000,0.000000:
00000000
00000000
00000000
00000000
,
00000000
00000000
00000000
00000000
,
00010000
00000000
00010000
00000000
,
10000000
00000000
00000000
00000000
,
10000000
01000000
00010000
00001000
,
00000010
00000000
00000001
00000000
,
00001000
00000000
00001000
00000000
,
00000001
00000000
00000000
00000000
,
00000001
00000100
00001000
00010000
,
00100000
00000000
10000000
00000000
,
10010000
00000000
00000000
01000000
,
00100000
10000000
10000000
01000000
,
00010000
00001000
00000100
00000001
,
00000010
00000000
00000100
00000100
,
00002000
00000000
00000000
00000000
,
00000002
00000000
00003003
00000000
00000010
00000000
00000010
00000001
,
00002000
00000000
00000000
00000000
,
00000002
00000000
00000000
00003003
,
00001001
00000000
00000001
00000000
,
00000100
00001000
00010000
00010000
,
00200000
00000000
00000000
00000000
,
01000000
00000000
01000000
00300000
,
10010000
01000000
00000000
01000000
,
00100000
10000000
01000000
00010000
,
00002000
00010000
00000000
00013000
,
00010000
00001000
00000100
00000001
,
00001001
00000001
00000010
00000100
,
00001000
00000001
00000100
00001000
,
00010000
00010000
00100000
00100000
,
01000000
00010000
00100000
01000000
,
10010000
10000000
00100000
01000000
,
00010000
10000000
01000000
00010000
,
00001000
00001000
00000010
00000010
,
00000100
00001000
00000010
00000100
,
00001001
00000000
00000000
00000000
,
00000001
00000100
00000000
00000100
00001000
00000000
00001000
00010000
,
00000000
00000000
00000000
00000000
,
00200000
00000000
01000000
01300000
,
10010000
00000000
00000000
00000000
,
10000000
01000000
00000000
01000000
00010000
00000000
00010000
00001000
,
00000000
00000000
00000000
00000000
,
00000020
00000000
00000100
00000130
,
00002002
00003003
00000001
00000100
,
00001000
00001000
00010000
00010000
,
01000000
10000000
00010000
00010000
,
00100000
00000000
01000000
00000000
10000000
00010000
10000000
00000000
,
20020000
30030000
10000000
01000000
,
00010000
00010000
00001000
00001000
,
00000100
00000001
00001000
00001000
,
00000010
00000000
00000100
00000000
00000001
00001000
00000001
00000000
,
00000220
00000000
00000000
00000000
00000330
00000000
00000001
00001000
,
00000000
00001000
00000000
00000010
00000000
00000100
00000000
00000001
,
00000000
00000020
00000000
00000000
00000000
00000000
00000000
00000000
,
00000000
00000000
00000030
00000000
00000001
00000100
00001000
00000000
,
00020000
00000000
00000000
00000000
,
00000000
00000000
00030000
00000000
00010000
01000000
10000000
00000000
,
00200000
00000000
00000000
00300000
,
10000000
00010000
01000000
00000000
00100000
00000000
01000000
00000000
,
10010000
00000000
00000000
00000000
;

//---------------dance-double - ----------------
#NOTES:
     dance-double:
     :
     Hard:
     7:
     0.350799,0.394060,0.184412,0.232942,0.000000,210.000000,19.000000,24.000000,0.000000,0.000000,0.000000,0.350799,0.394060,0.184412,0.232942,0.000000,210.000000,19.000000,24.000000,0.000000,0.000000,0.000000:
00000000
00000000
00000000
00000000
,
00000000
00000000
00000000
00000000
,
00001001
00000000
00000001
00000000
00000001
00001000
00000001
00000000
,
00000010
00000000
00000100
00000000
00001000
00000000
00000001
00000100
,
00001000
00010000
01000000
10000000
,
00010000
01000000
00100000
10000000
,
10010000
00000000
10000000
00000000
10000000
00010000
10000000
00000000
,
00100000
00000000
01000000
00000000
00010000
00000000
10000000
01000000
,
00010000
00001000
00000100
00000001
,
00001000
00000100
00000010
00000001
,
00002002
00000000
00003003
00000100
,
00001000
00000000
00000001
00000000
00000100
00000000
00001000
00010000
,
01000000
10000000
10000000
00100000
,
01000000
00000000
01000000
00000000
00010000
10000000
00010000
20000000
,
02000000
00000000
00000000
00000000
,
00000000
00000000
33000000
00000000
00100000
00010000
10000000
00200000
,
02000000
00000000
00000000
00000000
,
00000000
00000000
00000000
03300000
,
20010000
31000000
00010000
00001000
,
00021000
00030100
00000010
00000001
,
00000200
00000000
00000000
00000000
,
00000000
00000000
00000000
00000300
,
00001002
00000103
00001000
00010000
,
00012000
01003000
00100000
10000000
,
02000000
00100000
00000000
00100000
,
00000000
00100000
00000000
03100000
,
10010000
00000000
00010000
10000000
00010000
00000000
00010000
00000000
,
10000000
00000000
01000000
00000000
00010000
00000000
00001000
00000100
,
00000002
00000100
00000000
00000100
,
00000000
00000100
00000100
00000103
,
00001001
00000000
00001000
00000001
00001000
00000000
00001000
00000000
,
00000001
00000000
00000100
00000000
00001000
00000000
00010000
01000000
,
10000000
10000000
10000000
10000000
,
00020000
00000000
00000000
00030000
,
02200000
00000000
00000000
03300000
,
10000000
00010000
00000000
00100000
01000000
00000000
10000000
00100000
,
00010000
00001000
00000010
00000001
,
00001000
00000000
00001000
00000000
00000010
00000100
00000010
00000000
,
00002002
00000000
00000000
00003003
,
00000010
00000100
00000000
00001000
00000001
00000000
00000100
00001000
,
00010000
01000000
10000000
10000000
,
00010000
00000000
00010000
00000000
00100000
01000000
00100000
00000000
,
10010000
00000000
01000000
00000000
00100000
10000000
01000000
00000000
,
01000000
00000000
00010000
00000000
00001000
00000000
00001000
00000100
,
00000001
00000001
00001000
00000010
,
00000100
00000000
00000001
00000000
00000010
00000100
00001000
00000000
,
00001001
00000000
00000100
00000000
00000010
00000001
00000100
00000000
,
00000100
00000000
00001000
00000000
00010000
00000000
00010000
01000000
,
10000000
10000000
00010000
00100000
,
01000000
00000000
10000000
00000000
00100000
01000000
00010000
00000000
,
22000000
00000000
00000000
00000000
33000000
00000000
00010000
10000000
,
00000000
01100000
00000000
00110000
00000000
00011000
00000000
00001010
,
00000000
00000010
00000002
00000000
00000000
00000000
00000000
00000000
,
00002000
00000000
00003003
00000000
00000001
00000010
00000100
00001000
,
00000002
00000000
00000000
00000000
,
00000000
00000000
00000003
00000000
00000001
00000100
00001000
00010000
,
00000200
00000000
00000000
00000300
,
00000010
00000001
00000100
00000010
00001000
00000001
00000100
00000000
,
00001100
00000000
00000000
00000000
;
