#TITLE:Wildest Dreams (R3hab Remix);
#SUBTITLE:;
#ARTIST:Taylor Swift;
#TITLETRANSLIT:;
#SUBTITLETRANSLIT:;
#ARTISTTRANSLIT:;
#GENRE:1989;
#CREDIT:;
#BANNER:Wildest Dreams (R3hab Remix)-bn.jpg;
#BACKGROUND:Wildest Dreams (R3hab Remix)-bg.jpg;
#LYRICSPATH:;
#CDTITLE:;
#MUSIC:Wildest Dreams (R3hab Remix).mp3;
#OFFSET:0.813097;
#SAMPLESTART:74.808609;
#SAMPLELENGTH:14.755608;
#LASTBEATHINT:200.960709;
#SELECTABLE:YES;
#BPMS:0.000000=130.059982
;
#STOPS:
;
#BGCHANGES:;
#KEYSOUNDS:;
#ATTACKS:;

//---------------dance-single - ----------------
#NOTES:
     dance-single:
     :
     Hard:
     7:
     0.441315,0.400263,0.112895,0.277105,0.010263,263.000000,11.000000,27.000000,0.000000,0.000000,0.000000,0.441315,0.400263,0.112895,0.277105,0.010263,263.000000,11.000000,27.000000,0.000000,0.000000,0.000000:
// measure 0
0000
0000
0000
0000
,  // measure 1
0000
0000
0000
0000
,  // measure 2
0000
0000
0000
0000
,  // measure 3
0000
0000
0000
0000
,  // measure 4
0000
0000
0000
0000
0000
0001
1000
0000
,  // measure 5
0010
1000
0001
0000
0100
0000
0001
1000
,  // measure 6
0020
0000
0030
0000
1000
0001
0100
0000
,  // measure 7
0020
0000
0000
0000
0030
0000
0000
1000
,  // measure 8
0010
1000
0100
1000
0010
0000
1000
0002
,  // measure 9
0000
0100
0103
0000
0020
0000
0000
1030
,  // measure 10
0001
1000
0100
0000
0020
0000
0000
0000
,  // measure 11
0030
0001
1000
0000
0100
0000
1000
0100
,  // measure 12
0010
0001
0100
1000
0100
0001
0020
0000
,  // measure 13
0031
0100
0010
1000
0200
0000
0000
0000
,  // measure 14
1300
0010
0100
0000
0020
0000
0000
1030
,  // measure 15
0002
0000
0003
0001
1000
2000
0000
3000
,  // measure 16
0200
0000
0000
0300
,  // measure 17
2000
0001
3000
0002
0100
0003
0200
0010
,  // measure 18
0300
0000
1001
0000
0100
0010
1000
0001
,  // measure 19
0010
0000
0011
0000
0001
1000
0100
0010
,  // measure 20
0100
1100
2001
3100
,  // measure 21
2000
0010
3000
0020
0100
0030
0200
0001
,  // measure 22
0300
0000
0101
0000
0001
1000
0010
0100
,  // measure 23
0001
0000
0101
0000
0001
1000
0010
0100
,  // measure 24
0001
1001
2100
3010
,  // measure 25
0200
0000
0000
1000
0000
0000
0001
0000
0000
0000
0310
0000
0100
0000
0020
0000
,  // measure 26
1000
0000
1030
0000
0100
0001
2000
0000
,  // measure 27
3100
1000
0002
0000
0013
0000
0110
0000
,  // measure 28
0010
0001
0200
0000
0310
1000
0010
0000
,  // measure 29
0120
0000
0000
0001
0000
0000
1000
0000
0000
0000
0130
0000
0010
0000
0100
0000
,  // measure 30
0002
0000
0013
0000
0001
1000
0020
0000
,  // measure 31
1030
0001
0100
0001
1000
0010
1000
0001
,  // measure 32
0000
0000
0000
0000
,  // measure 33
1000
0010
1000
0001
1000
0010
1000
0001
,  // measure 34
0100
0010
0100
0001
0100
0010
0100
0001
,  // measure 35
1000
0010
0100
0010
1000
0010
0100
0010
,  // measure 36
1000
0100
0010
0100
1000
0100
0001
0100
,  // measure 37
1000
0010
0001
0010
1000
0010
0001
0010
,  // measure 38
0100
0001
0100
0010
0100
0001
0100
0010
,  // measure 39
1000
0100
0010
0100
1000
0100
0010
0100
,  // measure 40
1000
0010
0100
0001
0010
0000
0110
0000
,  // measure 41
0001
0010
0001
1000
0001
0100
0001
1000
,  // measure 42
0010
1000
0001
0100
0001
1000
0010
1000
,  // measure 43
0001
0010
0001
0100
0010
1000
0100
1000
,  // measure 44
0001
0100
0010
1000
0100
0010
0100
0000
,  // measure 45
0010
0001
1000
0010
0100
0010
1000
0001
,  // measure 46
0010
0100
0010
0001
1000
0010
0100
0010
,  // measure 47
1000
0100
0010
0001
0100
0001
1000
0010
,  // measure 48
1000
0100
0010
0100
1000
0001
0100
0000
;

//---------------dance-single - ----------------
#NOTES:
     dance-single:
     :
     Medium:
     5:
     0.303496,0.300197,0.174474,0.143684,0.000000,176.000000,17.000000,14.000000,0.000000,0.000000,0.000000,0.303496,0.300197,0.174474,0.143684,0.000000,176.000000,17.000000,14.000000,0.000000,0.000000,0.000000:
0000
0000
0000
0000
,
0000
0000
0000
0000
,
0000
0000
0000
0000
,
0000
0000
0000
0000
,
0000
0000
0000
0000
,
1000
0100
0001
0100
,
1000
0000
0010
0100
,
0002
0000
0003
0000
,
1000
0010
0100
0010
,
1000
0002
0010
0003
,
0001
2000
0010
3000
,
1000
0002
0100
0003
,
0001
2000
0100
3000
,
0010
0100
2002
3003
,
0100
0010
0220
0330
,
2000
3000
0002
0003
,
0200
0000
0000
0300
,
1001
0000
0000
0110
0000
0000
1001
0000
,
0000
0000
0000
0000
0001
0010
0100
0000
,
0010
0000
0011
0000
0001
0010
0100
0000
,
0010
0011
0200
0300
,
1010
0000
0000
1001
0000
0000
0101
0000
,
0000
0000
0000
0000
1000
0010
0100
0000
,
0010
0000
1010
0000
1000
0010
0100
0000
,
0010
1010
0200
0300
,
0001
0000
1000
0000
0100
0000
0010
0100
,
0010
0010
0001
1000
,
0010
1001
0100
0100
,
0010
1001
0100
0100
,
1000
0000
0100
0000
0001
0000
0100
0010
,
1000
1000
0100
0010
,
0001
1000
0010
0000
0100
0001
1000
0000
,
0010
0000
0000
0000
,
1000
0010
1000
0000
0100
0000
0100
0000
,
1000
0100
0001
0000
0100
0000
0100
0000
,
0010
1000
0100
0000
0010
0001
0100
0000
,
0001
0001
1000
1000
,
0100
0010
1000
0000
0010
0000
0010
0000
,
0100
0010
0001
0000
0010
0000
0010
0000
,
0001
0100
0010
0000
1000
0000
1000
0000
,
0100
0001
0100
0000
1001
0000
0110
0000
,
0001
0000
1000
0000
0010
0000
1000
0001
,
0010
0100
0010
1001
,
0001
1000
0010
0000
1000
0001
0100
0000
,
0001
1000
0010
0000
1000
0001
0100
0000
,
0010
0000
1000
0000
0100
0000
1000
0001
,
0010
0100
0010
0001
,
1000
0001
0010
0000
0001
1000
0100
0000
,
1000
0001
0010
0000
0001
1000
0100
0000
;

//---------------dance-single - ----------------
#NOTES:
     dance-single:
     :
     Easy:
     2:
     0.149549,0.150099,0.000000,0.000000,0.000000,102.000000,0.000000,0.000000,0.000000,0.000000,0.000000,0.149549,0.150099,0.000000,0.000000,0.000000,102.000000,0.000000,0.000000,0.000000,0.000000,0.000000:
0000
0000
0000
0000
,
0000
0000
0000
0000
,
0000
0000
0000
0000
,
0000
0000
0000
0000
,
0000
0000
0000
0000
,
0100
0000
0001
0000
,
1000
0000
0010
0000
,
0100
0000
0000
0000
,
0001
0000
0000
0000
,
0010
0000
0100
0000
,
0010
0000
0100
0000
,
1000
0000
0001
0000
,
0100
0000
0010
0000
,
1000
0000
0100
0000
,
0010
0000
0001
0000
,
0100
0000
0010
0000
,
1000
0000
0000
0000
,
0010
0000
0100
0000
,
0001
0000
1000
0001
,
0100
0000
0010
1000
,
0010
0000
0100
0000
,
0010
0000
1000
0000
,
0100
0000
0010
0001
,
0010
0000
0100
0000
,
1000
0000
0001
0000
,
0100
0000
0000
0010
,
0010
0000
1000
0100
,
0100
0000
0010
0000
,
0010
0000
0001
0000
,
0100
0000
0100
0000
,
0010
0000
0010
0000
,
1000
0100
0001
0100
,
1000
0000
0000
0000
,
0001
0001
0100
0000
,
1000
1000
0010
0000
,
1000
1000
0100
0000
,
0010
0000
0001
0000
,
0100
0100
0001
0000
,
1000
1000
0010
0000
,
0100
0100
0010
0000
,
1000
0000
0001
0000
,
0100
0000
0010
0001
,
1000
0000
0010
0010
,
0100
0000
0001
0000
,
0010
0100
0010
0100
,
1000
0000
0001
0000
,
0100
0000
0010
1000
,
0001
0000
1000
0000
,
0010
0010
0000
0100
;

//---------------dance-single - ----------------
#NOTES:
     dance-single:
     :
     Beginner:
     1:
     0.124624,0.145480,0.000000,0.000000,0.000000,85.000000,0.000000,0.000000,0.000000,0.000000,0.000000,0.124624,0.145480,0.000000,0.000000,0.000000,85.000000,0.000000,0.000000,0.000000,0.000000,0.000000:
0000
0000
0000
0000
,
0000
0000
0000
0000
,
0000
0000
0000
0000
,
0000
0000
0000
0000
,
0000
0000
0000
0000
,
0010
0000
0000
0000
,
0100
0000
0000
0000
,
0001
0000
0000
0000
,
0000
0000
0000
0000
,
1000
0000
0100
0000
,
1000
0000
0100
0000
,
0001
0000
0100
0000
,
0001
0000
0100
0000
,
0001
0000
0010
0000
,
0001
0000
0010
0000
,
1000
0000
0010
0000
,
1000
0000
0000
0000
,
0100
0000
0001
0000
,
0100
0000
1000
0000
,
0010
0000
0100
0000
,
0001
0000
1000
0000
,
0100
0000
0010
0000
,
0001
0000
1000
0000
,
0010
0000
0100
0000
,
0001
0000
1000
0000
,
0100
0000
0000
0010
,
0010
0000
0001
0000
,
1000
0000
0010
0000
,
0100
0000
0001
0000
,
1000
0000
0000
0100
,
0100
0000
0010
0000
,
0001
0000
1000
0000
,
0100
0000
0000
0000
,
0010
0010
0010
0000
,
0100
0100
0100
0000
,
1000
1000
1000
0000
,
0001
0001
0001
0000
,
0100
0100
0100
0000
,
0010
0010
0010
0000
,
1000
1000
1000
0000
,
0100
0000
0010
0010
,
0010
0000
0000
0001
,
0001
0000
1000
1000
,
0000
0100
0000
0000
,
0000
0000
0000
0000
,
0010
0000
0000
0001
,
0001
0000
1000
1000
,
0000
0010
0000
0000
;
