#TITLE:What Else Is There?;
#SUBTITLE:;
#ARTIST:Royksopp;
#TITLETRANSLIT:;
#SUBTITLETRANSLIT:;
#ARTISTTRANSLIT:;
#GENRE:The Understanding;
#CREDIT:;
#BANNER:What Else Is There-bn.jpg;
#BACKGROUND:What Else Is There-bg.jpg;
#LYRICSPATH:;
#CDTITLE:;
#MUSIC:What Else Is There.mp3;
#OFFSET:-0.051000;
#SAMPLESTART:50.139160;
#SAMPLELENGTH:16.434792;
#LASTBEATHINT:232.999268;
#SELECTABLE:YES;
#DISPLAYBPM:115.000000;
#BPMS:0.000000=115.000000
,127.500000=57.500000
,129.000000=115.000000
;
#STOPS:127.500000=0.783000
;
#BGCHANGES:;
#KEYSOUNDS:;
#ATTACKS:;

//---------------dance-single - ----------------
#NOTES:
     dance-single:
     :
     Hard:
     8:
     0.495817,0.442694,0.141662,0.007870,0.188883,422.000000,18.000000,1.000000,0.000000,0.000000,0.000000,0.495817,0.442694,0.141662,0.007870,0.188883,422.000000,18.000000,1.000000,0.000000,0.000000,0.000000:
// measure 0
0000
0000
0000
0000
,  // measure 1
0000
0000
0000
0000
,  // measure 2
0000
0000
0000
0000
,  // measure 3
0000
0000
0000
0000
,  // measure 4
0010
0010
1000
0100
0010
0010
0001
0100
,  // measure 5
0010
0010
1000
0100
0010
0010
0001
1000
,  // measure 6
0100
0100
0010
0001
0100
0100
0010
1000
,  // measure 7
0100
0100
0010
0001
1000
0010
0100
0001
,  // measure 8
0020
0100
0130
0000
1000
0001
0100
0010
,  // measure 9
1000
0001
1100
0000
0001
1000
0010
0100
,  // measure 10
0001
1000
0101
0000
0001
0010
0100
1000
,  // measure 11
0010
0100
1010
0000
0001
1000
0100
0010
,  // measure 12
0100
0000
1001
0000
0010
1000
0001
0010
,  // measure 13
0100
0010
0101
0000
0010
0100
1000
0010
,  // measure 14
0100
0001
1001
0000
0010
0100
0010
1000
,  // measure 15
0100
0010
0110
0000
0001
1000
0100
0000
,  // measure 16
0010
0001
0101
0000
1000
0010
0100
0001
,  // measure 17
0010
0100
1001
0000
0001
0010
0110
0000
,  // measure 18
0001
1000
0010
0100
0001
1000
0100
0010
,  // measure 19
0100
1000
1001
0000
1000
0010
0100
0001
,  // measure 20
0010
0100
0110
0000
0001
1000
0010
0100
,  // measure 21
0001
1000
0101
0000
0001
1000
0100
0010
,  // measure 22
0001
1000
1100
0000
0010
0100
0101
0000
,  // measure 23
1000
0010
1001
0000
1100
0000
0101
0000
,  // measure 24
0010
0000
0001
0100
0001
0000
1000
0000
0010
0000
1000
0100
1000
0000
0100
0000
,  // measure 25
0010
0000
0001
1000
0001
0000
0100
0000
0010
0000
1000
0001
1000
0000
0010
0000
,  // measure 26
0100
0000
0001
1000
0001
0000
0100
0000
0010
0000
1000
0010
1000
0000
0100
0000
,  // measure 27
0010
0000
0001
1000
0001
0000
0100
0000
0010
0000
0100
0001
0100
0000
0000
0000
,  // measure 28
0010
0000
1000
0100
1000
0000
0100
0000
0010
0000
0001
1000
0001
0000
0100
0000
,  // measure 29
0010
0000
1000
0010
1000
0000
0001
0000
0010
0000
0100
0010
0100
0000
1000
0000
,  // measure 30
0001
0000
0100
0010
0100
0000
0010
0000
1000
0000
0001
0100
0001
0000
1000
0000
,  // measure 31
0010
0000
0100
0010
0100
0000
0010
0000
1000
0000
0001
1000
0001
0000
0001
0000
,  // measure 32
0000
0010
0010
0010
,  // measure 33
0010
1000
0001
0000
0001
0000
0001
0000
,  // measure 34
0001
0100
0010
0000
0010
0000
0010
0000
,  // measure 35
0010
1000
0100
0000
0100
0000
0010
0001
,  // measure 36
0100
0010
1000
0000
1000
0000
0010
0100
,  // measure 37
0001
1000
0100
0010
0100
0000
0100
1000
,  // measure 38
0001
0100
0010
1000
0100
0000
0010
0001
,  // measure 39
1000
0000
0001
0100
0001
0000
0010
1000
,  // measure 40
0010
0000
0000
0000
0100
0000
1000
0100
1000
0000
0010
0000
0100
0000
0001
0010
,  // measure 41
0001
0000
0100
0000
0010
0000
1000
0100
1000
0000
0001
0000
0100
0000
0010
1000
,  // measure 42
0010
0000
0100
0000
0001
0000
1000
0001
1000
0000
0100
0000
0010
0000
0001
1000
,  // measure 43
0001
0000
0010
0000
0100
0000
1000
0001
1000
0000
0010
0000
0100
0000
0001
0100
,  // measure 44
0001
0000
0000
0000
1000
0000
0100
1000
0100
0000
0010
0000
0001
0000
1000
0100
,  // measure 45
1000
0000
0010
0000
0100
0000
0001
0100
0001
0000
0010
0000
0100
0000
1000
0001
,  // measure 46
1000
0000
0010
0000
0100
0000
0010
1000
0010
0000
0100
0000
0001
0000
1000
0100
,  // measure 47
1000
0000
0010
0000
0100
0000
0001
0100
0001
0000
0010
0000
0100
0000
0010
0001
,  // measure 48
0010
0000
0000
0000
0001
0000
0100
0010
0100
0000
0001
0000
1000
0000
0100
0010
,  // measure 49
0100
0000
1000
0000
0010
0000
1000
0001
1000
0000
0010
0000
0100
0000
0001
0100
,  // measure 50
0001
0000
0010
0000
0100
0000
1000
0100
1000
0000
0010
0000
1000
0000
0001
0100
,  // measure 51
0001
0000
1000
0000
1000
0000
0010
0100
0010
0000
1000
0000
0001
0000
0010
0100
,  // measure 52
0010
0000
0000
0000
0100
0000
1000
0001
1000
0000
0010
0000
0100
0000
0001
1000
,  // measure 53
0001
0000
0010
0000
0100
0000
1000
0010
1000
0000
0100
0000
0010
0000
0001
0100
,  // measure 54
0001
0000
0010
0000
0100
0000
1000
0001
1000
0000
0100
0000
0010
0000
0100
0010
,  // measure 55
0100
0000
1000
0000
0010
0000
0100
0001
0100
0000
0010
0000
1000
0000
0100
1000
,  // measure 56
0100
1000
0010
0000
0000
0000
0000
0000
;

//---------------dance-single - ----------------
#NOTES:
     dance-single:
     :
     Medium:
     6:
     0.306934,0.264436,0.015740,0.157402,0.000000,251.000000,2.000000,20.000000,0.000000,0.000000,0.000000,0.306934,0.264436,0.015740,0.157402,0.000000,251.000000,2.000000,20.000000,0.000000,0.000000,0.000000:
0000
0000
0000
0000
,
0000
0000
0000
0000
,
0000
0000
0000
0000
,
0000
0000
0000
0000
,
0010
0000
1000
0100
0010
0000
0001
0100
,
0010
0000
1000
0001
0100
0000
0010
1000
,
0001
0000
0010
0100
1000
0000
0010
1000
,
0100
0000
0010
0001
1000
0000
0010
0000
,
0100
0000
0010
0000
1000
0100
1000
0100
,
0010
0000
0010
0000
0001
1000
0001
1000
,
0001
0000
0100
0000
0010
0100
0010
0100
,
0010
0000
0010
0000
1000
0100
1000
0100
,
1000
0000
1000
0000
0100
0010
0100
0010
,
0100
0000
0010
0000
0001
1000
0001
1000
,
0001
0000
0100
0000
0010
0100
0010
0100
,
0010
1000
0100
0010
,
0001
0000
1000
0001
0100
0000
0010
0100
,
0001
0000
0010
0100
0010
0000
0001
0000
,
1000
0000
0010
0100
0010
0000
1000
0001
,
0100
0000
0010
0000
1000
0100
1000
0100
,
0010
0000
0001
0000
1000
0010
0100
0010
,
1000
0000
0100
0000
0010
0100
0010
0100
,
0010
0001
1000
1001
,
0100
0010
0100
0000
0010
0000
0110
0000
,
0002
0000
2003
0000
,
3020
0000
0230
0000
,
0301
0100
0001
0000
1000
0010
1000
0000
,
0100
1000
0100
0000
0010
0001
0010
0000
,
0200
0000
2300
0000
,
3020
0000
0230
0000
,
0301
1000
0001
0000
0100
0010
0100
0000
,
0010
1000
0100
0000
0010
0001
0100
0000
,
0000
0010
0010
0010
,
0010
1000
1000
1000
,
1000
0100
0100
0100
,
0100
0010
0010
0010
,
0010
0001
0001
0001
,
0001
1000
1000
1000
,
1000
0010
0010
0100
,
0100
0000
0010
1000
0001
0000
0010
0000
,
0010
0002
0000
2003
,
0000
3200
0000
0320
,
0000
0000
0031
0100
0001
0000
1000
0010
,
1000
0000
0100
0010
0001
0000
1000
0010
,
0100
0020
0000
2030
,
0000
0000
3002
0000
0000
0203
0000
0000
,
0310
0000
1000
0001
1000
0000
0010
0100
,
0001
0000
0010
0100
1000
0000
0001
1000
,
0100
0020
0000
0032
,
0000
2003
0000
3020
,
0000
0000
0130
0001
0010
0000
0100
1000
,
0001
0000
0010
1000
0100
0000
0010
0001
,
1000
0000
0100
0001
1000
0000
0010
0100
,
0001
0000
0010
0100
1000
0000
0010
1000
,
0001
0000
1000
0100
0010
0000
0100
0010
,
0001
0000
0010
0001
0100
0000
0010
1000
,
0100
0000
0000
0000
;

//---------------dance-single - ----------------
#NOTES:
     dance-single:
     :
     Easy:
     4:
     0.225985,0.198327,0.000000,0.188883,0.000000,177.000000,0.000000,24.000000,0.000000,0.000000,0.000000,0.225985,0.198327,0.000000,0.188883,0.000000,177.000000,0.000000,24.000000,0.000000,0.000000,0.000000:
0000
0000
0000
0000
,
0000
0000
0000
0000
,
0000
0000
0000
0000
,
0000
0000
0000
0000
,
0010
1000
0100
0010
,
0001
1000
0010
0100
,
0001
1000
0100
0010
,
0001
1000
0010
1000
,
0200
0300
1000
0100
,
0010
0010
0001
1000
,
0010
0010
0100
0001
,
0010
0100
1000
0010
,
0200
0300
0010
1000
,
0100
0010
0100
1000
,
0001
1000
0010
0100
,
0001
1000
0100
0010
,
0001
0100
0010
1000
,
0100
0010
0100
1000
,
0001
1000
0100
0010
,
0001
0100
0010
1000
,
0001
0001
0010
0001
,
1000
1000
0010
0100
,
0001
0010
1000
0010
,
0001
0100
1000
0100
,
0002
0000
2003
0000
,
3020
0000
0230
0000
,
0301
0001
0010
0010
,
0100
0100
1000
1000
,
0020
0000
0230
0000
,
0302
0000
2003
0000
,
3100
0100
0010
0010
,
0001
0001
0100
0100
,
0000
0010
0010
1000
,
1000
0100
0000
0100
,
0000
0010
0010
0001
,
0001
0100
0000
0010
,
1000
0001
0001
0010
,
0010
0100
0000
1000
,
0001
1000
1000
0010
,
0010
0100
0100
0001
,
0001
2000
0000
3020
,
0000
0230
0000
0302
,
0000
0013
0010
0100
,
0100
1000
1000
0001
,
0001
0200
0000
0320
,
0000
0000
1030
0000
0000
1000
0000
0000
,
1000
0100
0100
0010
,
0000
0001
0001
0100
,
0000
2000
0000
3020
,
0000
0230
0000
0302
,
0000
0013
0010
0100
,
0100
1000
1000
0001
,
0001
0200
0000
0320
,
0000
2030
0000
3002
,
0000
0013
0010
0100
,
0100
1000
1000
0001
,
0001
0000
0000
0000
;

//---------------dance-single - ----------------
#NOTES:
     dance-single:
     :
     Beginner:
     1:
     0.102311,0.086965,0.000000,0.000000,0.000000,91.000000,0.000000,0.000000,0.000000,0.000000,0.000000,0.102311,0.086965,0.000000,0.000000,0.000000,91.000000,0.000000,0.000000,0.000000,0.000000,0.000000:
0000
0000
0000
0000
,
0000
0000
0000
0000
,
0000
0000
0000
0000
,
0000
0000
0000
0000
,
0010
0000
1000
0000
,
0100
0000
0010
0000
,
0001
0000
1000
0000
,
0010
0000
0100
0000
,
0010
0000
1000
0000
,
0100
0000
0010
0000
,
0001
0000
1000
0000
,
0010
0000
0100
0000
,
0001
0000
0010
0000
,
0100
0000
1000
0000
,
0010
0000
0100
0000
,
0010
0000
1000
0000
,
0001
0000
0100
0000
,
1000
0000
0100
0000
,
0001
0000
0010
0000
,
1000
0000
0010
0000
,
0100
0000
0001
0000
,
1000
0000
0010
0000
,
1000
0000
0100
0000
,
0001
0000
0010
0000
,
0100
0000
0010
0000
,
0100
0000
0010
0000
,
0001
0000
1000
0000
,
0001
0000
1000
0000
,
0010
0000
0100
0000
,
0001
0000
1000
0000
,
0100
0000
0010
0000
,
0100
0000
0000
0000
,
0000
1000
0000
0000
,
0000
0010
0000
0000
,
0000
0001
0000
0000
,
0000
0010
0000
0000
,
0000
1000
0000
0000
,
0000
0001
0000
0000
,
0000
0100
0000
0000
,
0000
0010
0000
0000
,
0000
1000
0000
0100
,
0000
0001
0000
0100
,
0000
1000
0000
0010
,
0000
0100
0000
0001
,
0000
0010
0000
0100
,
0000
1000
0000
1000
,
0000
1000
0000
0000
,
0000
0000
0000
0000
,
0000
0010
0000
0100
,
0000
0001
0000
1000
,
0000
0100
0000
0010
,
0000
0001
0000
1000
,
0000
0010
0000
0100
,
0000
0001
0000
0010
,
0000
0100
0000
1000
,
0000
0010
0000
0000
;
