#TITLE:Water (Inukshuk Remix);
#SUBTITLE:;
#ARTIST:Ra Ra Riot;
#TITLETRANSLIT:;
#SUBTITLETRANSLIT:;
#ARTISTTRANSLIT:;
#GENRE:Need Your Light;
#CREDIT:;
#BANNER:Water (Inukshuk Remix)-bn.jpg;
#BACKGROUND:Water (Inukshuk Remix)-bg.jpg;
#LYRICSPATH:;
#CDTITLE:;
#MUSIC:Water (Inukshuk Remix).mp3;
#OFFSET:-0.034594;
#SAMPLESTART:87.029488;
#SAMPLELENGTH:13.500000;
#LASTBEATHINT:231.976746;
#SELECTABLE:YES;
#BPMS:0.000000=80.000000
,115.000000=160.000000
,212.000000=80.000000
;
#STOPS:115.000000=0.375000
;
#BGCHANGES:;
#KEYSOUNDS:;
#ATTACKS:;

//---------------dance-single - ----------------
#NOTES:
     dance-single:
     :
     Hard:
     8:
     0.422724,0.622487,0.259821,0.216517,0.155171,410.000000,374.000000,36.000000,30.000000,0.000000,0.000000,0.422724,0.622487,0.259821,0.216517,0.155171,410.000000,374.000000,36.000000,30.000000,0.000000,0.000000:
0000
0000
0000
0000
,
0010
0000
0100
0001
1000
0001
0100
1000
,
0200
0000
0310
0000
1000
0010
0100
0001
,
0020
0000
0130
0000
1000
0000
0001
1000
,
0000
0200
0000
0000
0000
0000
0000
0000
,
1300
0000
0010
0100
0001
0001
0010
0100
,
2000
0000
3001
0000
0100
0001
1000
0010
,
0200
0000
0000
0000
0301
0000
0000
0000
1000
0000
0000
0001
1000
0000
0200
0000
,
0000
0000
1000
0000
1000
0000
1000
0000
1000
0000
1000
0000
1300
0001
0100
0001
,
1000
0010
0202
0000
0303
0000
1001
0000
,
1000
0000
0000
0000
0010
0000
0000
0000
0101
0000
0000
0000
0000
0000
0000
0000
1000
0000
0000
0000
0001
0000
0000
0000
1000
0000
0000
1000
0000
0000
1000
0000
,
0100
0000
0010
0001
0100
1000
0100
0001
,
0020
0000
0000
0000
0130
0000
0100
0000
1000
0000
0010
0000
0100
0000
0000
0100
,
0001
0010
0200
0000
0300
0000
2200
0300
,
3001
0000
0000
0000
0010
0000
0000
0000
1100
0000
0000
0000
0000
0000
0000
0000
0001
0000
0000
0000
1000
0000
0000
0000
0100
0000
0000
0100
0000
0000
0100
0000
,
1000
0010
0100
0001
0010
0100
0010
0002
,
1000
0000
1000
0000
0100
0000
0100
0000
0010
0000
0013
0000
0001
0010
0100
1000
,
0002
0000
0000
0000
0003
1000
0001
0000
0100
0000
0001
0000
1000
0000
0001
0000
,
0101
0000
1001
0000
0010
1000
0001
1000
,
1100
0000
1001
0000
0001
0010
0100
1000
,
0002
0000
2000
0003
3010
0100
0001
1000
,
0020
0000
0000
0000
0130
0001
1000
0000
0010
0000
0100
0000
0010
0000
1000
0000
,
0002
0000
0023
0000
0130
1000
0001
1000
,
1100
0000
1001
0000
0001
0010
0100
1000
,
0002
0000
2000
0003
3020
0000
0200
0030
,
0301
0000
0010
0000
0100
0000
1000
0000
0010
0000
0100
0000
0010
0000
1000
0001
,
1000
0000
0010
0000
0100
0000
0001
0000
1000
0000
0001
0000
0100
0001
0100
0000
,
0001
1000
0001
1000
0001
1000
0001
0000
0010
0001
0010
0001
0010
0001
0010
0000
,
0100
1000
0100
1000
0001
1000
0001
1000
0100
1000
0100
1000
0001
0000
0000
0000
,
0011
0000
1001
0000
0001
0010
0001
0200
,
0000
1300
0100
0000
0110
0000
1000
0010
,
1000
0000
0110
0000
0001
0010
0001
0100
,
0000
1000
0010
1000
0100
0010
0001
1000
,
0002
0000
0103
0000
0010
1000
0001
0100
,
0100
0010
0100
0000
1001
0100
0010
0000
,
1000
0001
0100
0000
1001
1000
0001
0010
,
0000
0100
1000
0001
0100
0001
1000
0001
,
0010
0000
1001
0000
1000
0100
1000
0020
,
0000
0031
0010
0000
1001
0000
0001
0010
,
1000
0000
0110
0000
1000
0100
0001
0100
,
0000
1000
0010
1000
0001
0010
0100
1000
,
0002
0000
1003
0000
1010
1000
0001
0100
,
0100
0010
1000
0000
1010
0010
0100
0000
,
0001
1000
0010
0000
0011
0001
1000
0100
,
0000
0010
0001
0100
0010
0100
1000
0100
,
0001
1000
0000
0101
0000
1001
0000
0011
,
0000
0010
0100
1000
0001
0100
0000
0000
,
0010
1000
0000
1100
0000
1001
0000
1010
,
0000
1000
0100
1000
0001
0100
0000
0000
,
0010
1000
0000
0110
0100
0101
0000
0001
,
1000
0010
1000
0000
1000
0100
0001
0000
,
1000
0001
0100
0000
0010
1000
0001
0000
,
1010
1001
1100
0101
,
1002
0000
0103
0000
0010
1000
0100
0000
,
1000
0000
0100
0000
0000
0000
1000
0000
0000
0000
0001
0000
0000
0000
0010
0000
0000
0000
0010
0000
0100
0000
0000
0000
1000
0000
0000
0001
0000
0000
0001
0000
,
0100
0001
0000
1000
0000
0001
0000
0010
0000
0010
0100
0000
1000
0001
0000
0000
,
0100
0010
0000
1000
0000
0001
0000
0010
0100
0000
1000
0000
0001
0000
0100
0000
,
0002
2000
3003
0000
;

//---------------dance-single - ----------------
#NOTES:
     dance-single:
     :
     Medium:
     5:
     0.261883,0.331993,0.050521,0.252604,0.000000,254.000000,247.000000,7.000000,35.000000,0.000000,0.000000,0.261883,0.331993,0.050521,0.252604,0.000000,254.000000,247.000000,7.000000,35.000000,0.000000,0.000000:
0000
0000
0000
0000
,
0010
0000
1000
0000
0001
1000
0001
1000
,
0100
0000
1000
0000
0001
0100
0001
0100
,
0001
0000
0010
0000
0100
0000
1000
0100
,
0000
2000
0000
0000
3000
0000
0000
0000
,
0001
0000
0010
0000
0100
1000
0100
1000
,
0001
0000
0100
0000
0010
0100
0010
0100
,
0020
0000
0030
0000
1000
0000
0001
1000
,
0100
0100
0100
1100
,
1000
2002
3003
0110
,
0010
0000
1001
0000
0100
0010
0200
0000
,
0300
0000
0001
1000
0001
0000
0010
0000
,
0200
0000
1300
0000
1000
0001
1000
0000
,
0010
0100
0000
2002
,
3003
0000
1001
0000
0100
0010
0100
0000
,
0002
0000
1003
0000
0010
1000
0001
0000
,
0200
0000
0320
0000
1030
0001
1000
0001
,
2000
0000
0000
0000
3100
1000
0001
0100
,
0020
0000
0130
0000
0010
1000
0001
0100
,
0002
0000
1003
0000
0001
0010
0100
1000
,
0200
0020
0330
0000
,
0002
0000
0103
0000
0010
1000
0001
0100
,
0020
0000
1030
0000
0100
1000
0001
1000
,
0200
0000
0310
0000
0001
0100
0010
1000
,
0002
0013
2000
3100
,
0001
0100
0001
0000
1000
0010
1000
0000
,
0010
0100
0001
0000
0010
0100
1000
0000
,
0100
1000
0001
1000
0010
1000
0001
0000
,
0010
0001
0100
0010
1000
0100
1000
0000
,
1001
0000
0010
0000
0001
0000
0001
0100
,
0000
0100
0100
0010
,
1000
0000
0001
0000
0010
0000
0100
1000
,
0000
1000
0001
1000
,
0010
0000
0100
0000
0001
0000
1000
0001
,
0000
0100
0010
1000
,
0002
0000
2003
0000
,
3010
0100
0001
1000
,
0020
0000
0230
0000
,
0301
0000
0010
0000
0100
0000
1000
0001
,
1000
0000
0010
0000
1000
0000
0001
0100
,
0000
0000
0001
0000
0010
0100
0010
0000
,
0100
0000
1000
0000
0001
0000
1000
0100
,
0000
0010
0100
0010
,
0002
0000
2003
0000
,
3010
0100
0001
1000
,
0200
0000
0320
0000
,
0031
1000
0100
0000
,
1000
0000
0000
0001
0000
1000
0000
0001
,
0000
0100
0100
0000
,
0010
0000
0000
0100
0000
0010
0000
1000
,
0000
0001
0010
0100
,
2000
0000
3002
0000
,
0013
0100
1000
0001
,
0200
0000
0320
0000
1030
0001
0100
0000
,
0001
0000
0010
0000
0001
1000
0100
0000
,
0001
0000
0100
0000
1000
0001
0100
0000
,
0010
0000
0100
0000
0001
1000
0010
0100
,
0002
2000
3003
0000
;

//---------------dance-single - ----------------
#NOTES:
     dance-single:
     :
     Easy:
     3:
     0.206207,0.248995,0.043303,0.194866,0.000000,200.000000,194.000000,6.000000,27.000000,0.000000,0.000000,0.206207,0.248995,0.043303,0.194866,0.000000,200.000000,194.000000,6.000000,27.000000,0.000000,0.000000:
// measure 0
0000
0000
0000
0000
,  // measure 1
0010
1000
0001
0100
,  // measure 2
0001
1000
0001
0010
,  // measure 3
0100
1000
0001
0200
,  // measure 4
0000
0300
0000
0000
,  // measure 5
0001
0010
0100
1000
,  // measure 6
0001
0100
0010
1000
,  // measure 7
0020
0030
1000
0001
,  // measure 8
0100
0100
0100
0101
,  // measure 9
0000
2002
3003
0110
,  // measure 10
0010
1000
0100
0010
,  // measure 11
0000
0001
1000
0010
,  // measure 12
0200
0300
0001
1000
,  // measure 13
0010
0100
0000
2002
,  // measure 14
3003
1001
0100
0001
,  // measure 15
2000
3010
0100
0001
,  // measure 16
1000
0001
1000
0100
,  // measure 17
2000
0000
3100
0010
,  // measure 18
0001
0001
0010
0100
,  // measure 19
1000
1000
0001
0010
,  // measure 20
0200
0020
0330
0000
,  // measure 21
0001
0100
0010
1000
,  // measure 22
0100
0100
0010
0001
,  // measure 23
1000
1000
0010
0100
,  // measure 24
0002
0013
2000
3100
,  // measure 25
0001
0001
0001
0000
1000
1000
1000
0000
,  // measure 26
0010
0001
0010
1000
,  // measure 27
0100
0100
0100
0000
0010
0010
0010
0000
,  // measure 28
0001
0100
1000
0010
,  // measure 29
1001
0000
0010
0000
,  // measure 30
0001
0100
0010
1000
,  // measure 31
0001
0000
0010
0000
,  // measure 32
0100
0100
1000
0001
,  // measure 33
1000
0010
0100
0000
,  // measure 34
0001
0010
0100
1000
,  // measure 35
0002
0000
2003
0000
,  // measure 36
3010
0100
0001
1000
,  // measure 37
0020
0000
0230
0000
,  // measure 38
0301
0010
0100
1000
,  // measure 39
0010
0000
0100
0001
,  // measure 40
1000
0001
0010
0000
,  // measure 41
0100
0000
1000
0001
,  // measure 42
0100
0010
1000
0001
,  // measure 43
0200
0000
0320
0000
,  // measure 44
1030
0001
0010
0100
,  // measure 45
2000
0000
3002
0000
,  // measure 46
0013
0100
1000
0000
,  // measure 47
0010
0000
0100
0000
,  // measure 48
0001
1000
0100
0000
,  // measure 49
0010
0000
0100
0000
,  // measure 50
1000
0001
0010
0100
,  // measure 51
2000
0000
3002
0000
,  // measure 52
0013
0100
1000
0001
,  // measure 53
0200
0320
1030
0100
,  // measure 54
0001
0010
0001
0100
,  // measure 55
0001
0100
1000
0100
,  // measure 56
0010
0000
0100
0000
0001
0001
1000
1000
,  // measure 57
0002
2000
3003
0000
;

//---------------dance-single - ----------------
#NOTES:
     dance-single:
     :
     Beginner:
     1:
     0.109290,0.123415,0.000000,0.173214,0.000000,106.000000,106.000000,0.000000,24.000000,0.000000,0.000000,0.109290,0.123415,0.000000,0.173214,0.000000,106.000000,106.000000,0.000000,24.000000,0.000000,0.000000:
// measure 0
0000
0000
0000
0000
,  // measure 1
0001
0000
0010
0000
,  // measure 2
0100
0000
1000
0000
,  // measure 3
0010
0000
0100
0000
,  // measure 4
0002
0000
0003
0000
,  // measure 5
0010
0000
0100
0000
,  // measure 6
1000
0000
0001
0000
,  // measure 7
0200
0300
0010
0000
,  // measure 8
2000
0000
3000
0000
,  // measure 9
0001
0001
0000
0010
,  // measure 10
0000
0100
0100
0100
,  // measure 11
0000
1000
0000
0010
,  // measure 12
0000
0100
0000
0001
,  // measure 13
0000
0010
0000
0100
,  // measure 14
0000
0100
0100
0100
,  // measure 15
0000
1000
0000
0010
,  // measure 16
0000
0100
0000
0001
,  // measure 17
0001
0000
0010
0000
,  // measure 18
0100
0000
1000
0000
,  // measure 19
0001
0000
0010
0000
,  // measure 20
0200
0300
0200
0300
,  // measure 21
0200
0300
1000
0000
,  // measure 22
0001
0000
0100
0000
,  // measure 23
0010
0000
1000
0000
,  // measure 24
0002
0003
0002
0003
,  // measure 25
0020
0030
0020
0030
,  // measure 26
0200
0300
0200
0300
,  // measure 27
2000
3000
2000
3000
,  // measure 28
0002
0003
0002
0003
,  // measure 29
0100
0000
0000
0000
,  // measure 30
0010
0000
0010
0000
,  // measure 31
1000
0000
0000
0000
,  // measure 32
0100
0000
0001
0000
,  // measure 33
0100
0000
0010
0000
,  // measure 34
0100
0000
0100
0000
,  // measure 35
0002
0000
0003
0000
,  // measure 36
1000
0000
1000
0000
,  // measure 37
0200
0000
0300
0000
,  // measure 38
0010
0000
0010
0000
,  // measure 39
0001
0000
0100
0000
,  // measure 40
0010
0000
0000
0000
,  // measure 41
1000
0000
1000
0000
,  // measure 42
0100
0000
0010
0000
,  // measure 43
0002
0000
0003
0000
,  // measure 44
1000
0000
1000
0000
,  // measure 45
0020
0000
0030
0000
,  // measure 46
0100
0000
0001
0000
,  // measure 47
2000
0000
3000
0000
,  // measure 48
0001
0000
0100
0000
,  // measure 49
0002
0000
0003
0000
,  // measure 50
1000
0000
0010
0000
,  // measure 51
2000
0000
3000
0000
,  // measure 52
0100
0000
0010
0000
,  // measure 53
0200
0300
1000
0000
,  // measure 54
0001
0000
0100
0100
,  // measure 55
0000
0010
0000
1000
,  // measure 56
0000
0100
0100
0100
,  // measure 57
0100
0000
0000
0000
;
